osu file format v14

[General]
AudioFilename: audio.mp3
AudioLeadIn: 0
PreviewTime: 194189
Countdown: 0
SampleSet: Soft
StackLeniency: 0.7
Mode: 0
LetterboxInBreaks: 0
WidescreenStoryboard: 1

[Editor]
DistanceSpacing: 1.2
BeatDivisor: 4
GridSize: 32
TimelineZoom: 0.8999996

[Metadata]
Title:Graffiti
TitleUnicode:グラフィティ
Artist:FROZEN QUALIA
ArtistUnicode:FROZEN QUALIA
Creator:Sarawatlism
Version:Gorgeous
Source:
Tags:SINGLE BEST ~Journey~ ~Journey~ jpop pop j-pop japanese [_lost_] conner c_o_n_n_e_r nagaraia kazato asa shizuku- Shikibe Mayu 月乃ひな tsukino hina kazuki
BeatmapID:2828123
BeatmapSetID:1339688

[Difficulty]
HPDrainRate:7
CircleSize:4.2
OverallDifficulty:8
ApproachRate:9.2
SliderMultiplier:1.94
SliderTickRate:1

[Events]
//Background and Video events
0,0,"BG.jpg",0,0
//Break Periods
//Storyboard Layer 0 (Background)
//Storyboard Layer 1 (Fail)
//Storyboard Layer 2 (Pass)
//Storyboard Layer 3 (Foreground)
//Storyboard Layer 4 (Overlay)
//Storyboard Sound Samples

[TimingPoints]
323,348.837209302326,4,2,1,65,1,0
671,-125,4,2,1,65,0,0
1369,-83.3333333333333,4,2,1,65,0,0
1718,-90.9090909090909,4,2,1,70,0,0
3025,-90.9090909090909,4,2,1,5,0,0
3113,-90.9090909090909,4,2,1,70,0,0
6165,-90.9090909090909,4,2,1,5,0,0
6253,-90.9090909090909,4,2,1,70,0,0
8607,-90.9090909090909,4,2,1,5,0,0
8695,-90.9090909090909,4,2,1,70,0,0
10090,-166.666666666667,4,2,1,70,0,0
10613,-166.666666666667,4,2,1,60,0,0
10788,-90.9090909090909,4,2,1,65,0,0
11049,-90.9090909090909,4,2,1,60,0,0
11311,-90.9090909090909,4,2,1,55,0,0
11485,-166.666666666667,4,2,1,50,0,0
11834,-166.666666666667,4,2,1,55,0,0
12183,-90.9090909090909,4,2,1,60,0,0
12881,-125,4,2,1,50,0,0
14188,-125,4,2,1,5,0,0
14276,-125,4,2,1,50,0,0
15584,-125,4,2,1,5,0,0
15671,-125,4,2,1,50,0,0
20642,-125,4,2,1,5,0,0
20729,-125,4,2,1,50,0,0
23171,-125,4,2,1,55,0,0
23259,-125,4,2,1,65,0,0
23695,-90.9090909090909,4,2,1,60,0,0
23869,-90.9090909090909,4,2,1,55,0,0
24043,-100,4,2,1,65,0,0
25351,-100,4,2,1,5,0,0
25439,-100,4,2,1,65,0,0
26746,-100,4,2,1,5,0,0
26834,-100,4,2,1,65,0,0
31804,-100,4,2,1,5,0,0
31892,-100,4,2,1,65,0,0
32416,-90.9090909090909,4,2,1,65,0,0
33200,-90.9090909090909,4,2,1,5,0,0
33288,-90.9090909090909,4,2,1,65,0,0
36602,-125,4,2,1,55,0,0
47416,-166.666666666667,4,2,1,55,0,0
47764,-90.9090909090909,4,2,1,60,0,0
49072,-90.9090909090909,4,2,1,5,0,0
49160,-90.9090909090909,4,2,1,60,0,0
50816,-90.9090909090909,4,2,1,5,0,0
50904,-90.9090909090909,4,2,1,60,0,0
52211,-90.9090909090909,4,2,1,5,0,0
52299,-90.9090909090909,4,2,1,60,0,0
53346,-66.6666666666667,4,2,1,65,0,0
53433,-66.6666666666667,4,2,1,5,0,0
53869,-66.6666666666667,4,2,1,65,0,0
53956,-66.6666666666667,4,2,1,5,0,0
54392,-90.9090909090909,4,2,1,65,0,0
54653,-90.9090909090909,4,2,1,5,0,0
54741,-66.6666666666667,4,2,1,65,0,0
54828,-66.6666666666667,4,2,1,5,0,0
55264,-66.6666666666667,4,2,1,65,0,0
55351,-66.6666666666667,4,2,1,5,0,0
55788,-90.9090909090909,4,2,1,65,0,0
56049,-90.9090909090909,4,2,1,5,0,0
56136,-66.6666666666667,4,2,1,65,0,0
56223,-66.6666666666667,4,2,1,5,0,0
57183,-66.6666666666667,4,2,1,65,0,0
58229,-83.3333333333333,4,2,1,65,0,0
58927,-83.3333333333333,4,2,1,75,0,1
60235,-83.3333333333333,4,2,1,5,0,1
60323,-83.3333333333333,4,2,1,75,0,1
61630,-83.3333333333333,4,2,1,5,0,1
61718,-83.3333333333333,4,2,1,75,0,1
63025,-83.3333333333333,4,2,1,5,0,1
63113,-83.3333333333333,4,2,1,75,0,1
65816,-83.3333333333333,4,2,1,5,0,1
65904,-83.3333333333333,4,2,1,75,0,1
68084,-83.3333333333333,4,2,1,5,0,1
68171,-83.3333333333333,4,2,1,75,0,1
69479,-83.3333333333333,4,2,1,5,0,1
69567,-83.3333333333333,4,2,1,75,0,1
70003,-83.3333333333333,4,2,1,75,0,0
70090,-83.3333333333333,4,2,1,75,0,1
71397,-83.3333333333333,4,2,1,5,0,1
71485,-83.3333333333333,4,2,1,75,0,1
72793,-83.3333333333333,4,2,1,5,0,1
72881,-83.3333333333333,4,2,1,75,0,1
73142,-83.3333333333333,4,2,1,5,0,1
73229,-83.3333333333333,4,2,1,75,0,1
74537,-83.3333333333333,4,2,1,5,0,1
74625,-83.3333333333333,4,2,1,75,0,1
75671,-83.3333333333333,4,2,1,80,0,1
81166,-83.3333333333333,4,2,1,80,0,0
81253,-111.111111111111,4,2,1,55,0,1
82996,-111.111111111111,4,2,1,60,0,1
83346,-111.111111111111,4,2,1,65,0,1
83695,-111.111111111111,4,2,1,70,0,1
84043,-111.111111111111,4,2,1,75,0,1
85439,-111.111111111111,4,2,1,65,0,0
86834,-90.9090909090909,4,2,1,70,0,0
88142,-90.9090909090909,4,2,1,5,0,0
88229,-90.9090909090909,4,2,1,70,0,0
91281,-90.9090909090909,4,2,1,5,0,0
91369,-90.9090909090909,4,2,1,70,0,0
93723,-90.9090909090909,4,2,1,5,0,0
93811,-90.9090909090909,4,2,1,70,0,0
97299,-83.3333333333333,4,2,1,65,0,0
97648,-83.3333333333333,4,2,1,60,0,0
97997,-166.666666666667,4,2,1,50,0,0
100700,-166.666666666667,4,2,1,5,0,0
100788,-166.666666666667,4,2,1,50,0,0
102183,-166.666666666667,4,2,1,55,0,0
103578,-166.666666666667,4,2,1,60,0,0
106369,-166.666666666667,4,2,1,65,0,0
107764,-100,4,2,1,55,0,0
108288,-333.333333333333,4,2,1,55,0,0
109160,-111.111111111111,4,2,1,60,0,0
110467,-111.111111111111,4,2,1,5,0,0
110555,-111.111111111111,4,2,1,60,0,0
111863,-111.111111111111,4,2,1,5,0,0
111950,-111.111111111111,4,2,1,60,0,0
116397,-111.111111111111,4,2,1,5,0,0
116485,-111.111111111111,4,2,1,60,0,0
117793,-111.111111111111,4,2,1,5,0,0
117881,-111.111111111111,4,2,1,60,0,0
120323,-100,4,2,1,60,0,0
120584,-100,4,2,1,5,0,0
120671,-100,4,2,1,60,0,0
121369,-100,4,2,1,55,0,0
121543,-100,4,2,1,50,0,0
121718,-142.857142857143,4,2,1,55,0,0
129653,-142.857142857143,4,2,1,5,0,0
129741,-142.857142857143,4,2,1,55,0,0
132532,-111.111111111111,4,2,1,55,0,0
132881,-90.9090909090909,4,2,1,60,0,0
134188,-90.9090909090909,4,2,1,5,0,0
134276,-90.9090909090909,4,2,1,60,0,0
136979,-90.9090909090909,4,2,1,5,0,0
137067,-90.9090909090909,4,2,1,60,0,0
138374,-90.9090909090909,4,2,1,5,0,0
138462,-66.6666666666667,4,2,1,65,0,0
138549,-66.6666666666667,4,2,1,5,0,0
138985,-66.6666666666667,4,2,1,65,0,0
139072,-66.6666666666667,4,2,1,5,0,0
139509,-83.3333333333333,4,2,1,65,0,0
139770,-83.3333333333333,4,2,1,5,0,0
139857,-66.6666666666667,4,2,1,65,0,0
139944,-66.6666666666667,4,2,1,5,0,0
140380,-66.6666666666667,4,2,1,65,0,0
140467,-66.6666666666667,4,2,1,5,0,0
140904,-83.3333333333333,4,2,1,65,0,0
141165,-83.3333333333333,4,2,1,5,0,0
141253,-66.6666666666667,4,2,1,65,0,0
141340,-66.6666666666667,4,2,1,5,0,0
142299,-66.6666666666667,4,2,1,65,0,0
142648,-142.857142857143,4,2,1,65,0,0
143694,-142.857142857143,4,2,1,70,0,0
144043,-83.3333333333333,4,2,1,75,0,1
145351,-83.3333333333333,4,2,1,5,0,1
145439,-83.3333333333333,4,2,1,75,0,1
146746,-83.3333333333333,4,2,1,5,0,1
146834,-83.3333333333333,4,2,1,75,0,1
147095,-83.3333333333333,4,2,1,5,0,1
147183,-83.3333333333333,4,2,1,75,0,1
148142,-83.3333333333333,4,2,1,5,0,1
148229,-83.3333333333333,4,2,1,75,0,1
148490,-83.3333333333333,4,2,1,5,0,1
148578,-83.3333333333333,4,2,1,75,0,1
149537,-83.3333333333333,4,2,1,5,0,1
149625,-83.3333333333333,4,2,1,75,0,1
150932,-83.3333333333333,4,2,1,5,0,1
151020,-83.3333333333333,4,2,1,75,0,1
153200,-83.3333333333333,4,2,1,5,0,1
153288,-83.3333333333333,4,2,1,75,0,1
154595,-83.3333333333333,4,2,1,5,0,1
154683,-83.3333333333333,4,2,1,75,0,1
155119,-83.3333333333333,4,2,1,75,0,0
155206,-83.3333333333333,4,2,1,75,0,1
155467,-83.3333333333333,4,2,1,5,0,1
155555,-83.3333333333333,4,2,1,75,0,1
156514,-83.3333333333333,4,2,1,5,0,1
156602,-83.3333333333333,4,2,1,75,0,1
157909,-83.3333333333333,4,2,1,5,0,1
157997,-83.3333333333333,4,2,1,75,0,1
158258,-83.3333333333333,4,2,1,5,0,1
158346,-83.3333333333333,4,2,1,75,0,1
159653,-83.3333333333333,4,2,1,5,0,1
159741,-83.3333333333333,4,2,1,75,0,1
160788,-83.3333333333333,4,2,1,80,0,1
166282,-83.3333333333333,4,2,1,80,0,0
166369,-111.111111111111,4,2,1,55,0,1
168112,-111.111111111111,4,2,1,60,0,1
168462,-111.111111111111,4,2,1,65,0,1
168811,-111.111111111111,4,2,1,70,0,1
169160,-111.111111111111,4,2,1,75,0,1
170555,-200,4,2,1,75,0,0
171165,-200,4,2,1,5,0,0
171253,-200,4,2,1,65,0,0
171602,-83.3333333333333,4,2,1,65,0,0
171950,-83.3333333333333,4,2,1,70,0,0
173607,-83.3333333333333,4,2,1,5,0,0
173695,-83.3333333333333,4,2,1,70,0,0
175002,-83.3333333333333,4,2,1,5,0,0
175090,-83.3333333333333,4,2,1,70,0,0
177793,-83.3333333333333,4,2,1,5,0,0
177881,-83.3333333333333,4,2,1,70,0,0
180584,-83.3333333333333,4,2,1,5,0,0
180671,-83.3333333333333,4,2,1,70,0,0
184770,-83.3333333333333,4,2,1,5,0,0
184857,-83.3333333333333,4,2,1,70,0,0
185206,-83.3333333333333,4,2,1,60,0,0
187560,-83.3333333333333,4,2,1,5,0,0
187648,-83.3333333333333,4,2,1,60,0,0
188607,-83.3333333333333,4,2,1,5,0,0
188695,-83.3333333333333,4,2,1,60,0,0
190351,-83.3333333333333,4,2,1,5,0,0
190439,-83.3333333333333,4,2,1,60,0,0
191746,-83.3333333333333,4,2,1,5,0,0
191834,-83.3333333333333,4,2,1,60,0,0
194276,-142.857142857143,4,2,1,50,0,0
195584,-142.857142857143,4,2,1,5,0,0
195671,-142.857142857143,4,2,1,50,0,0
196979,-142.857142857143,4,2,1,5,0,0
197067,-142.857142857143,4,2,1,50,0,0
198374,-142.857142857143,4,2,1,5,0,0
198462,-142.857142857143,4,2,1,50,0,0
202648,-142.857142857143,4,2,1,60,0,0
203171,-142.857142857143,4,2,1,65,0,0
203346,-142.857142857143,4,2,1,60,0,0
203432,-142.857142857143,4,2,1,5,0,0
203520,-142.857142857143,4,2,1,60,0,0
205439,-125,4,2,1,60,0,0
206746,-125,4,2,1,5,0,0
206834,-125,4,2,1,60,0,0
208142,-125,4,2,1,5,0,0
208229,-125,4,2,1,60,0,0
209537,-125,4,2,1,5,0,0
209625,-125,4,2,1,60,0,0
213811,-125,4,2,1,65,0,0
215032,-83.3333333333333,4,2,1,70,0,0
215293,-83.3333333333333,4,2,1,5,0,0
215381,-83.3333333333333,4,2,1,70,0,0
216253,-83.3333333333333,4,2,1,55,0,0
216863,-83.3333333333333,4,2,1,60,0,0
216950,-76.9230769230769,4,2,1,75,0,1
217211,-76.9230769230769,4,2,1,5,0,1
217299,-76.9230769230769,4,2,1,75,0,1
218258,-76.9230769230769,4,2,1,5,0,1
218346,-76.9230769230769,4,2,1,75,0,1
219653,-76.9230769230769,4,2,1,5,0,1
219741,-76.9230769230769,4,2,1,75,0,1
223490,-76.9230769230769,4,2,1,5,0,1
223578,-76.9230769230769,4,2,1,75,0,1
225758,-76.9230769230769,4,2,1,5,0,1
225846,-76.9230769230769,4,2,1,75,0,1
227153,-76.9230769230769,4,2,1,5,0,1
227241,-76.9230769230769,4,2,1,75,0,1
227677,-76.9230769230769,4,2,1,75,0,0
227764,-76.9230769230769,4,2,1,75,0,1
229072,-76.9230769230769,4,2,1,5,0,1
229160,-76.9230769230769,4,2,1,75,0,1
229421,-76.9230769230769,4,2,1,5,0,1
229509,-76.9230769230769,4,2,1,75,0,1
230816,-76.9230769230769,4,2,1,5,0,1
230904,-76.9230769230769,4,2,1,75,0,1
233346,-76.9230769230769,4,2,1,80,0,1
238840,-76.9230769230769,4,2,1,80,0,0
238927,-125,4,2,1,55,0,1
241718,-125,4,2,1,75,0,1
243113,-125,4,2,1,65,0,0
245206,-125,4,2,1,55,0,0
245555,-83.3333333333333,4,2,1,55,0,0
245816,-83.3333333333333,4,2,1,5,0,0
245904,-90.9090909090909,4,2,1,70,0,0
247211,-90.9090909090909,4,2,1,5,0,0
247299,-90.9090909090909,4,2,1,70,0,0
248956,-90.9090909090909,4,2,1,5,0,0
249043,-90.9090909090909,4,2,1,70,0,0
250351,-90.9090909090909,4,2,1,5,0,0
250439,-90.9090909090909,4,2,1,70,0,0
252793,-90.9090909090909,4,2,1,5,0,0
252881,-90.9090909090909,4,2,1,70,0,0
257328,-90.9090909090909,4,2,1,5,0,0
257416,-90.9090909090909,4,2,1,70,0,0
258374,-90.9090909090909,4,2,1,5,0,0
258462,-90.9090909090909,4,2,1,70,0,0
260118,-90.9090909090909,4,2,1,5,0,0
260206,-90.9090909090909,4,2,1,70,0,0
261514,-90.9090909090909,4,2,1,5,0,0
261602,-90.9090909090909,4,2,1,70,0,0
263956,-90.9090909090909,4,2,1,5,0,0
264043,-90.9090909090909,4,2,1,70,0,0
265439,-166.666666666667,4,2,1,70,0,0
265962,-166.666666666667,4,2,1,60,0,0
266136,-90.9090909090909,4,2,1,65,0,0
266397,-90.9090909090909,4,2,1,60,0,0
266659,-90.9090909090909,4,2,1,55,0,0
266834,-166.666666666667,4,2,1,50,0,0
267183,-166.666666666667,4,2,1,55,0,0
267532,-90.9090909090909,4,2,1,60,0,0
268229,-90.9090909090909,4,2,1,70,0,0
273811,-90.9090909090909,4,2,1,15,0,0

[Colours]
Combo1 : 206,157,157
Combo2 : 255,190,159
Combo3 : 128,64,64
Combo4 : 255,128,128

[HitObjects]
68,186,323,5,2,2:0:0:0:
145,134,497,1,2,2:0:0:0:
68,186,671,2,0,L|68:277,1,77.6,2|2,2:0|2:0,0:0:0:0:
145,134,1020,1,2,2:0:0:0:
54,75,1195,1,2,2:0:0:0:
145,134,1369,6,0,P|212:133|238:89,1,116.399996447754,10|2,2:0|3:2,0:0:0:0:
334,12,1718,6,0,L|334:241,1,213.400006512451,6|10,3:2|2:0,0:0:0:0:
416,323,2241,1,2,2:0:0:0:
508,234,2416,2,0,P|474:193|408:198,1,106.700003256226,0|2,3:2|3:2,0:0:0:0:
330,364,2764,2,0,P|373:320|315:242,1,160.050004884339,8|0,2:0|2:0,0:0:0:0:
307,238,3113,6,0,B|252:211|204:260|220:266|172:314|104:290,1,213.400006512451,2|8,3:2|2:0,0:0:0:0:
26,198,3636,1,0,2:0:0:0:
123,113,3811,2,0,B|144:163|144:163|127:212,1,106.700003256226,2|0,3:2|3:2,0:0:0:0:
25,105,4160,2,0,B|4:55|4:55|21:6,1,106.700003256226,10|0,2:0|2:0,0:0:0:0:
223,10,4509,6,0,L|223:244,1,213.400006512451,2|8,3:2|2:0,0:0:0:0:
308,319,5032,1,0,2:0:0:0:
401,231,5206,2,0,P|361:195|310:201,1,106.700003256226,2|0,3:2|3:2,0:0:0:0:
416,347,5555,2,0,P|468:352|506:316,1,106.700003256226,10|0,2:0|2:0,0:0:0:0:
454,143,5904,6,0,B|412:122|375:160|387:165|350:202|297:183,1,160.050004884339,2|0,3:2|2:0,0:0:0:0:
283,172,6253,2,0,B|259:124|259:124|286:65,1,106.700003256226,10|0,2:0|2:0,0:0:0:0:
224,256,6602,1,2,3:2:0:0:
136,163,6776,1,2,3:2:0:0:
224,256,6950,1,10,2:0:0:0:
45,173,7125,1,2,2:0:0:0:
223,21,7299,6,0,L|223:240,1,213.400006512451,2|10,3:2|2:0,0:0:0:0:
296,340,7823,1,2,2:0:0:0:
142,295,7997,2,0,P|187:249|238:266,1,106.700003256226,0|2,3:2|3:2,0:0:0:0:
308,158,8346,2,0,B|265:174|222:145|246:135|198:99|154:121,1,160.050004884339,8|0,2:0|2:0,0:0:0:0:
141,131,8695,6,0,P|156:74|133:28,1,106.700003256226,2|0,3:2|2:0,0:0:0:0:
15,231,9043,2,0,P|78:222|135:218,1,106.700003256226,10|0,2:0|2:0,0:0:0:0:
257,314,9392,2,0,P|194:305|137:301,1,106.700003256226,2|0,3:2|3:2,0:0:0:0:
307,175,9741,2,0,P|356:143|407:160,1,106.700003256226,10|0,2:0|2:0,0:0:0:0:
500,326,10090,6,0,P|429:317|370:313,1,116.399996447754,6|0,3:2|2:0,0:0:0:0:
209,201,10613,1,8,2:0:0:0:
204,214,10700,1,8,2:0:0:0:
200,225,10788,6,0,P|267:229|373:238,2,160.050004884339,8|8|4,2:3|2:3|2:3,0:0:0:0:
497,56,11485,6,0,P|482:114|466:232,1,174.599994671631,6|2,2:0|2:0,0:0:0:0:
406,23,12183,6,0,B|360:8|323:48|345:56|302:86|251:72,2,160.050004884339,8|8|8,2:0|2:0|2:0,0:0:0:0:
371,177,12881,6,0,P|318:171|204:169,1,155.2,6|2,3:2|1:2,0:0:0:0:
141,224,13404,1,2,2:0:0:0:
54,189,13578,2,0,P|31:145|46:120,1,77.6,0|2,2:0|3:2,0:0:0:0:
141,13,13927,2,0,P|132:82|129:144,1,116.4,2|0,1:2|2:0,0:0:0:0:
118,144,14276,6,0,B|166:126|198:154|192:159|221:195|280:179,1,155.2,2|0,3:2|1:2,0:0:0:0:
332,123,14799,1,0,3:2:0:0:
413,167,14974,2,0,P|466:169|487:147,1,77.6,2|2,2:0|3:2,0:0:0:0:
504,264,15323,2,0,P|440:257|363:255,1,116.4,2|0,1:2|2:0,0:0:0:0:
367,258,15671,6,0,P|313:284|264:218,1,155.2,2|0,3:2|1:2,0:0:0:0:
225,132,16195,2,0,B|246:156|246:156|246:282,1,155.2,2|0,2:0|3:2,0:0:0:0:
107,291,16718,2,0,P|132:257|170:255,1,77.6,2|0,1:2|2:0,0:0:0:0:
173,346,17067,5,2,3:2:0:0:
173,346,17241,1,2,2:0:0:0:
34,333,17416,2,0,B|17:296|17:296|36:252,1,77.6,2|0,1:2|3:2,0:0:0:0:
100,199,17764,5,2,2:0:0:0:
30,137,17938,1,2,3:2:0:0:
100,199,18113,2,0,P|148:197|189:181,1,77.6,2|0,1:2|2:0,0:0:0:0:
188,174,18375,1,0,2:0:0:0:
188,174,18462,6,0,P|221:112|288:151,1,155.2,2|2,3:2|1:2,0:0:0:0:
354,204,18985,1,0,2:0:0:0:
433,154,19160,2,0,P|445:108|423:73,1,77.6,2|0,2:0|3:2,0:0:0:0:
439,238,19509,2,0,P|427:284|449:319,1,77.6,2|0,1:2|2:0,0:0:0:0:
354,204,19857,6,0,P|314:200|283:231,1,77.6,2|0,3:2|2:0,0:0:0:0:
343,296,20206,1,2,1:2:0:0:
362,187,20381,2,0,P|311:191|233:194,1,116.4,2|0,3:2|2:0,0:0:0:0:
231,195,20729,1,0,3:2:0:0:
152,144,20904,2,0,P|136:105|153:70,1,77.6,2|0,1:2|2:0,0:0:0:0:
143,238,21253,6,0,P|83:260|28:187,1,155.2,2|2,3:2|1:2,0:0:0:0:
30,106,21776,2,0,B|78:81|118:116|109:120|154:143|189:120,1,155.2,2|0,2:0|3:2,0:0:0:0:
246,62,22299,2,0,P|215:39|173:40,1,77.6,2|0,1:2|2:0,0:0:0:0:
294,156,22648,5,2,3:2:0:0:
375,56,22823,1,2,2:0:0:0:
294,156,22997,1,2,1:2:0:0:
453,150,23171,1,8,2:0:0:0:
435,145,23259,1,8,2:0:0:0:
415,138,23346,1,8,2:0:0:0:
497,243,23520,1,8,2:0:0:0:
299,260,23695,6,0,P|354:249|415:246,1,106.700003256226,8|4,2:3|2:3,0:0:0:0:
256,367,24043,6,0,P|203:342|232:219,1,194,6|10,3:2|2:0,0:0:0:0:
280,125,24567,1,2,2:0:0:0:
218,225,24741,2,0,P|144:229|123:201,1,97,0|2,3:2|3:2,0:0:0:0:
58,43,25090,2,0,P|58:130|57:210,1,145.5,8|0,2:0|2:0,0:0:0:0:
54,207,25439,6,0,P|76:134|188:155,1,194,2|8,3:2|2:0,0:0:0:0:
262,221,25962,1,0,2:0:0:0:
348,143,26136,2,0,P|308:105|260:115,1,97,2|2,3:2|3:2,0:0:0:0:
319,280,26485,2,0,P|379:274|470:273,1,145.5,10|0,2:0|2:0,0:0:0:0:
481,280,26834,6,0,P|439:240|494:126,1,194,2|8,3:2|2:0,0:0:0:0:
409,38,27357,1,0,2:0:0:0:
337,130,27532,2,0,P|277:142|244:117,1,97,0|0,3:2|3:2,0:0:0:0:
181,29,27881,2,0,P|241:17|274:42,1,97,10|0,2:0|2:0,0:0:0:0:
220,211,28229,5,2,3:2:0:0:
134,131,28404,1,2,2:0:0:0:
208,293,28578,2,0,P|261:288|290:249,1,97,10|0,2:0|2:0,0:0:0:0:
111,226,28927,1,2,3:2:0:0:
208,293,29102,1,2,3:2:0:0:
111,226,29276,2,0,P|58:231|29:270,1,97,10|2,2:0|2:0,0:0:0:0:
25,280,29538,1,2,2:0:0:0:
25,280,29625,6,0,L|25:75,1,194,2|10,3:2|2:0,0:0:0:0:
118,16,30148,1,0,2:0:0:0:
185,111,30323,2,0,P|242:119|275:85,1,97,2|0,3:2|3:2,0:0:0:0:
344,7,30671,2,0,P|287:-1|254:33,1,97,10|0,2:0|2:0,0:0:0:0:
354,178,31020,6,0,B|373:126|373:126|351:84,1,97,2|0,3:2|2:0,0:0:0:0:
287,233,31369,1,10,2:0:0:0:
398,310,31543,2,0,P|325:308|233:311,1,145.5,2|0,2:0|2:0,0:0:0:0:
230,311,31892,1,0,3:2:0:0:
354,178,32067,2,0,P|406:211|451:214,1,97,10|0,2:0|2:0,0:0:0:0:
269,95,32416,6,0,P|217:98|185:139,1,106.700003256226,6|0,3:2|2:0,0:0:0:0:
355,53,32764,1,10,2:0:0:0:
105,4,32939,2,0,L|105:182,1,160.050004884339,2|0,2:0|2:0,0:0:0:0:
105,186,33288,1,8,2:0:0:0:
3,107,33462,1,8,2:3:0:0:
105,186,33636,1,4,2:3:0:0:
36,339,33811,6,0,B|-11:338|-39:289|-17:238|28:221|28:221|52:257|81:265,1,213.400006512451,6|8,3:2|2:0,0:0:0:0:
226,299,34334,1,8,2:0:0:0:
218,311,34421,1,8,2:0:0:0:
211,324,34509,2,0,P|148:326|94:303,1,106.700003256226,8|0,2:0|3:2,0:0:0:0:
290,201,34857,1,8,2:0:0:0:
380,292,35032,1,8,2:0:0:0:
486,160,35206,6,0,B|426:133|383:183|401:182|353:227|288:200,1,213.400006512451,4|8,3:2|2:0,0:0:0:0:
240,81,35729,1,8,2:0:0:0:
261,86,35817,1,8,2:0:0:0:
286,92,35904,1,10,2:0:0:0:
125,118,36078,1,0,3:2:0:0:
211,2,36253,1,10,2:0:0:0:
35,10,36427,2,0,P|50:51|57:77,1,53.3500016281128,8|8,2:0|2:0,0:0:0:0:
31,175,36602,6,0,P|33:130|137:140,1,155.2,6|0,3:2|3:2,0:0:0:0:
186,187,37125,1,0,2:0:0:0:
154,274,37299,2,0,B|97:267|31:269|31:269|63:259|76:247,1,155.2,0|0,3:2|3:2,0:0:0:0:
186,187,37823,1,8,2:0:0:0:
244,259,37997,6,0,P|310:280|357:208,1,155.2,0|0,3:2|3:2,0:0:0:0:
399,136,38520,1,0,2:0:0:0:
459,207,38695,2,0,P|453:249|453:286,1,77.6,0|8,3:2|2:0,0:0:0:0:
491,120,39043,2,0,P|502:83|487:42,1,77.6,2|8,3:2|2:0,0:0:0:0:
399,24,39392,6,0,B|352:9|321:40|334:42|306:72|249:61,1,155.2,2|0,3:2|3:2,0:0:0:0:
173,15,39916,1,0,2:0:0:0:
93,63,40090,2,0,B|59:78|59:78|59:214,1,155.2,0|2,3:2|3:2,0:0:0:0:
114,271,40613,1,8,2:0:0:0:
60,347,40788,6,0,P|80:305|186:321,1,155.2,2|0,3:2|3:2,0:0:0:0:
255,358,41311,1,8,2:0:0:0:
316,288,41485,2,0,P|279:262|237:268,1,77.6,10|8,2:0|2:3,0:0:0:0:
354,371,41834,1,8,2:3:0:0:
455,265,42009,1,4,2:3:0:0:
464,278,42096,1,4,2:3:0:0:
471,290,42183,6,0,P|400:288|302:288,1,155.2,6|0,3:2|3:2,0:0:0:0:
255,216,42706,1,0,2:0:0:0:
319,148,42881,2,0,B|366:133|397:164|384:166|412:196|469:185,1,155.2,0|2,3:2|3:2,0:0:0:0:
442,94,43404,1,8,2:0:0:0:
306,151,43578,6,0,P|265:134|220:133,1,77.6,2|8,3:2|2:0,0:0:0:0:
337,57,43927,1,8,2:0:0:0:
178,52,44102,1,8,2:3:0:0:
178,52,44189,1,8,2:3:0:0:
178,52,44276,2,0,P|219:35|264:34,1,77.6,8|4,2:3|2:3,0:0:0:0:
155,147,44625,2,0,P|117:143|81:128,1,77.6,4|4,2:3|2:3,0:0:0:0:
43,41,44974,6,0,P|48:126|45:207,1,155.2,6|0,3:2|3:2,0:0:0:0:
12,283,45497,1,0,2:0:0:0:
158,290,45671,2,0,P|136:266|84:267,1,77.6,0|8,3:2|2:0,0:0:0:0:
216,357,46020,1,2,3:2:0:0:
257,217,46195,1,8,2:0:0:0:
158,290,46369,5,6,3:2:0:0:
332,258,46543,1,8,2:0:0:0:
182,166,46718,1,2,3:2:0:0:
296,334,46892,1,8,2:3:0:0:
299,343,46979,1,8,2:3:0:0:
302,353,47067,2,0,P|363:347|397:347,1,77.6,0|4,3:2|2:3,0:0:0:0:
490,277,47416,6,0,P|438:283|414:285,1,58.199998223877,0|4,3:2|2:3,0:0:0:0:
252,132,47764,6,0,B|301:99|354:155|347:155|392:192|455:159,1,213.400006512451,6|8,3:2|2:0,0:0:0:0:
395,44,48288,1,2,2:0:0:0:
248,140,48462,2,0,P|179:151|152:117,1,106.700003256226,0|0,3:2|3:2,0:0:0:0:
79,26,48811,2,0,P|81:107|81:206,1,160.050004884339,10|0,2:0|2:0,0:0:0:0:
84,207,49160,6,0,P|121:128|245:163,1,213.400006512451,2|8,3:2|2:0,0:0:0:0:
297,252,49683,1,0,2:0:0:0:
412,198,49857,2,0,P|367:150|318:157,1,106.700003256226,0|0,3:2|3:2,0:0:0:0:
385,312,50206,1,10,2:0:0:0:
491,144,50381,1,2,2:0:0:0:
512,341,50555,6,0,P|428:339|336:341,1,160.050004884339,2|0,3:2|2:0,0:0:0:0:
338,324,50904,2,0,B|372:326|392:305|390:305|415:277|455:291,1,106.700003256226,8|2,2:0|2:0,0:0:0:0:
208,249,51253,1,0,3:2:0:0:
267,362,51427,1,0,3:2:0:0:
208,249,51602,2,0,P|138:255|120:294,1,106.700003256226,10|0,2:0|2:0,0:0:0:0:
28,367,51950,6,0,L|28:177,1,160.050004884339,2|0,3:2|2:0,0:0:0:0:
29,180,52299,2,0,P|69:140|128:151,1,106.700003256226,8|0,2:0|2:0,0:0:0:0:
208,249,52648,1,0,3:2:0:0:
295,155,52823,1,0,3:2:0:0:
383,272,52997,2,0,P|317:275|294:237,1,106.700003256226,10|0,2:0|2:0,0:0:0:0:
394,95,53346,6,0,L|470:107,1,72.7500027751924,2|0,3:0|2:0,0:0:0:0:
389,102,53869,6,0,L|461:113,1,72.7500027751924,2|0,3:0|2:0,0:0:0:0:
108,75,54392,6,0,P|145:27|235:51,1,160.050004884339,2|0,3:0|2:0,0:0:0:0:
224,133,54741,6,0,L|236:57,1,72.7500027751924,2|0,3:0|2:0,0:0:0:0:
231,138,55264,6,0,L|243:62,1,72.7500027751924,2|0,3:0|2:0,0:0:0:0:
6,256,55788,6,0,L|174:238,1,160.050004884339,2|0,3:0|2:0,0:0:0:0:
259,213,56136,6,0,L|181:221,1,72.7500027751924,2|0,3:0|2:0,0:0:0:0:
180,223,57183,1,8,2:0:0:0:
344,281,57357,1,8,2:3:0:0:
109,269,57532,5,6,3:2:0:0:
327,167,57706,1,8,2:0:0:0:
109,269,57881,5,8,2:0:0:0:
277,75,58055,1,8,2:0:0:0:
255,340,58229,6,0,L|259:369,6,29.0999991119385,10|2|10|2|10|2|10,2:0|2:0|2:0|2:0|2:0|2:0|2:0,0:0:0:0:
180,223,58578,5,10,2:0:0:0:
148,210,58666,1,10,2:0:0:0:
114,212,58753,1,10,2:0:0:0:
86,233,58840,1,10,2:0:0:0:
74,266,58927,6,0,B|127:286|189:239|156:223|221:170|280:195,1,232.799992895508,6|10,3:2|2:0,0:0:0:0:
382,290,59450,1,2,2:0:0:0:
489,199,59625,2,0,P|458:158|388:169,1,116.399996447754,0|2,3:2|3:2,0:0:0:0:
278,1,59974,2,0,L|278:194,1,174.599994671631,8|0,2:0|2:0,0:0:0:0:
278,193,60323,6,0,P|378:200|368:88,1,232.799992895508,2|8,3:2|2:0,0:0:0:0:
262,10,60846,1,0,2:0:0:0:
100,116,61020,2,0,P|171:118|190:69,1,116.399996447754,2|2,3:2|3:2,0:0:0:0:
66,12,61369,2,0,B|66:193,1,174.599994671631,10|0,2:0|2:0,0:0:0:0:
70,212,61718,6,0,P|103:137|231:198,1,232.799992895508,2|8,3:2|2:0,0:0:0:0:
277,302,62241,1,0,2:0:0:0:
115,315,62416,2,0,P|144:267|203:266,1,116.399996447754,2|2,3:2|3:2,0:0:0:0:
336,356,62764,2,0,P|290:311|337:220,1,174.599994671631,10|0,2:0|2:0,0:0:0:0:
357,211,63113,6,0,L|477:211,1,116.399996447754,2|0,3:2|2:0,0:0:0:0:
250,119,63462,2,0,P|192:119|160:162,1,116.399996447754,10|0,2:0|2:0,0:0:0:0:
362,126,63811,1,2,3:2:0:0:
266,24,63985,1,0,3:2:0:0:
362,126,64160,2,0,P|418:130|454:87,1,116.399996447754,10|0,2:0|2:0,0:0:0:0:
152,0,64509,6,0,B|152:237,1,232.799992895508,6|10,3:2|2:0,0:0:0:0:
235,345,65032,1,2,2:0:0:0:
348,263,65206,2,0,B|308:219|308:219|252:235,1,116.399996447754,0|0,3:2|3:2,0:0:0:0:
439,352,65555,2,0,P|484:296|445:212,1,174.599994671631,8|0,2:0|2:0,0:0:0:0:
418,195,65904,6,0,B|355:161|302:211|311:214|272:262|199:242,1,232.799992895508,2|8,3:2|2:0,0:0:0:0:
94,155,66427,1,0,2:0:0:0:
198,61,66602,2,0,P|248:109|241:162,1,116.399996447754,0|0,3:2|3:2,0:0:0:0:
105,38,66950,1,8,2:0:0:0:
245,151,67125,1,2,2:0:0:0:
34,86,67299,5,10,3:2:0:0:
330,6,67474,1,10,3:2:0:0:
330,6,67823,2,0,L|330:195,1,174.599994671631,14|0,3:2|2:0,0:0:0:0:
383,240,68171,1,8,2:0:0:0:
379,250,68259,1,8,2:0:0:0:
375,260,68346,2,0,P|412:254|443:251,1,58.199998223877,8|8,2:3|2:3,0:0:0:0:
356,354,68520,2,0,P|326:346|296:338,1,58.199998223877,4|4,2:3|2:3,0:0:0:0:
150,292,68695,5,10,3:2:0:0:
330,180,68869,1,10,3:2:0:0:
330,180,69218,2,0,B|281:197|240:164|248:156|209:122|158:146,1,174.599994671631,14|0,3:2|2:0,0:0:0:0:
143,157,69567,1,8,2:0:0:0:
254,72,69741,1,8,2:3:0:0:
375,260,69916,1,4,2:3:0:0:
375,260,70003,1,4,2:3:0:0:
375,260,70090,6,0,P|492:273|486:167,1,232.799992895508,6|10,3:2|2:0,0:0:0:0:
380,109,70613,1,2,2:0:0:0:
278,205,70788,2,0,L|278:329,1,116.399996447754,0|2,3:2|3:2,0:0:0:0:
380,109,71136,2,0,P|327:41|241:68,1,174.599994671631,8|0,2:0|2:0,0:0:0:0:
226,80,71485,6,0,B|168:127|88:88|101:26|101:26|137:59|171:66,1,232.799992895508,2|8,3:2|2:0,0:0:0:0:
198,198,72009,1,0,2:0:0:0:
21,213,72183,2,0,P|55:167|123:180,1,116.399996447754,2|2,3:2|3:2,0:0:0:0:
140,343,72532,2,0,B|115:358|91:351|91:351|68:317|81:276|81:276|111:260|142:276,1,174.599994671631,10|0,2:0|2:0,0:0:0:0:
199,297,72881,6,0,B|248:314|289:281|281:273|320:239|371:263,1,174.599994671631,2|0,3:2|2:0,0:0:0:0:
385,273,73229,2,0,P|411:218|373:160,1,116.399996447754,8|0,2:0|2:0,0:0:0:0:
287,74,73578,1,2,3:2:0:0:
184,169,73753,1,2,3:2:0:0:
93,63,73927,2,0,P|165:51|196:88,1,116.399996447754,10|0,2:0|2:0,0:0:0:0:
90,347,74276,6,0,L|90:158,1,174.599994671631,2|0,3:2|2:0,0:0:0:0:
92,152,74625,2,0,P|41:201|-3:192,1,116.399996447754,10|0,2:0|2:0,0:0:0:0:
93,54,74974,1,2,3:2:0:0:
184,169,75148,1,0,3:2:0:0:
290,45,75323,2,0,P|226:43|188:84,1,116.399996447754,10|0,2:0|2:0,0:0:0:0:
272,238,75671,6,0,L|392:233,1,116.399996447754,14|0,2:0|3:2,0:0:0:0:
476,106,76020,2,0,P|416:101|377:149,1,116.399996447754,10|0,2:0|3:2,0:0:0:0:
471,297,76369,1,10,2:0:0:0:
381,139,76543,1,0,3:2:0:0:
471,297,76718,1,10,2:0:0:0:
272,238,76892,1,0,3:2:0:0:
476,106,77067,6,0,B|499:167|499:167|475:226,1,116.399996447754,10|0,2:0|3:2,0:0:0:0:
286,155,77416,2,0,B|263:94|263:94|287:35,1,116.399996447754,10|0,2:0|3:2,0:0:0:0:
343,296,77764,1,10,2:0:0:0:
180,197,77939,1,0,3:2:0:0:
343,296,78113,1,10,2:0:0:0:
108,247,78288,1,0,3:2:0:0:
286,154,78462,6,0,P|341:150|373:195,1,116.399996447754,10|0,2:0|3:2,0:0:0:0:
258,348,78811,2,0,P|203:352|171:307,1,116.399996447754,10|0,2:0|3:2,0:0:0:0:
142,127,79160,1,10,2:0:0:0:
272,238,79334,1,0,3:2:0:0:
70,172,79509,1,10,2:0:0:0:
269,49,79683,1,0,3:2:0:0:
185,277,79857,6,0,P|129:260|71:254,1,116.399996447754,10|0,2:0|3:2,0:0:0:0:
286,155,80206,2,0,P|343:149|399:133,1,116.399996447754,10|0,2:0|3:2,0:0:0:0:
103,58,80555,1,10,2:0:0:0:
288,157,80729,1,0,3:2:0:0:
70,172,80904,1,10,2:0:0:0:
269,24,81078,1,8,2:0:0:0:
269,24,81166,1,8,2:0:0:0:
269,24,81253,6,0,B|314:6|363:24|343:51|398:75|445:53,1,174.599994671631,6|0,3:2|3:2,0:0:0:0:
498,139,81776,1,0,2:0:0:0:
414,201,81950,2,0,P|366:175|323:184,1,87.2999973358155,0|0,3:2|2:0,0:0:0:0:
282,285,82299,2,0,P|325:286|354:252,1,87.2999973358155,0|0,3:2|2:0,0:0:0:0:
242,206,82648,6,0,B|197:188|148:206|168:233|113:257|66:235,1,174.599994671631,2|0,3:2|3:2,0:0:0:0:
20,152,83171,1,0,2:0:0:0:
79,239,83346,2,0,B|96:282|96:282|79:336,1,87.2999973358155,0|0,3:2|2:0,0:0:0:0:
20,152,83695,2,0,B|3:109|3:109|15:70,1,87.2999973358155,0|0,3:2|2:0,0:0:0:0:
242,206,84043,5,8,3:2:0:0:
101,109,84218,1,8,3:2:0:0:
242,206,84392,1,8,3:2:0:0:
101,109,84567,1,8,3:2:0:0:
295,137,84741,5,8,3:2:0:0:
79,239,84916,1,8,3:2:0:0:
295,137,85090,1,8,3:2:0:0:
79,239,85264,1,8,3:2:0:0:
228,29,85439,5,6,3:2:0:0:
228,29,86485,5,8,2:0:0:0:
260,15,86573,1,8,2:0:0:0:
294,13,86660,1,8,2:0:0:0:
327,20,86747,1,8,2:0:0:0:
352,39,86834,6,0,L|352:270,1,213.400006512451,6|10,3:2|2:0,0:0:0:0:
432,352,87357,1,2,2:0:0:0:
267,290,87532,2,0,P|310:247|356:254,1,106.700003256226,0|2,3:2|3:2,0:0:0:0:
178,361,87881,2,0,P|127:306|170:236,1,160.050004884339,8|0,2:0|2:0,0:0:0:0:
173,228,88229,6,0,P|96:238|140:145,1,213.400006512451,2|8,3:2|2:0,0:0:0:0:
211,47,88753,1,0,2:0:0:0:
299,139,88927,2,0,P|370:144|392:109,1,106.700003256226,2|0,3:2|3:2,0:0:0:0:
458,13,89276,2,0,P|387:8|365:43,1,106.700003256226,10|0,2:0|2:0,0:0:0:0:
479,241,89625,6,0,B|524:223|532:150|497:111|497:111|478:154|440:172,1,213.400006512451,2|8,3:2|2:0,0:0:0:0:
457,328,90148,1,0,2:0:0:0:
305,292,90323,2,0,P|352:259|408:266,1,106.700003256226,2|0,3:2|3:2,0:0:0:0:
219,351,90671,2,0,P|167:353|125:321,1,106.700003256226,10|0,2:0|2:0,0:0:0:0:
189,71,91020,6,0,L|189:249,1,160.050004884339,2|0,3:2|2:0,0:0:0:0:
190,252,91369,2,0,P|223:206|277:206,1,106.700003256226,10|0,2:0|2:0,0:0:0:0:
112,213,91718,1,2,3:2:0:0:
219,351,91892,1,2,3:2:0:0:
112,213,92067,1,10,2:0:0:0:
305,292,92241,1,2,2:0:0:0:
31,364,92416,6,0,L|31:135,1,213.400006512451,2|10,3:2|2:0,0:0:0:0:
96,40,92939,1,2,2:0:0:0:
211,151,93113,2,0,P|149:158|116:120,1,106.700003256226,0|2,3:2|3:2,0:0:0:0:
223,28,93462,2,0,B|271:8|307:42|298:47|334:78|388:53,1,160.050004884339,8|0,2:0|2:0,0:0:0:0:
384,67,93811,6,0,P|335:70|299:121,1,106.700003256226,2|0,3:2|2:0,0:0:0:0:
388,245,94160,2,0,B|409:194|409:194|382:141,1,106.700003256226,10|0,2:0|2:0,0:0:0:0:
289,233,94509,1,2,3:2:0:0:
417,335,94683,1,0,3:2:0:0:
215,275,94857,1,10,2:0:0:0:
385,148,95032,1,0,2:0:0:0:
322,345,95206,6,0,B|258:370|213:329|219:325|179:287|112:320,1,213.400006512451,6|0,3:2|3:2,0:0:0:0:
10,248,95729,2,0,P|77:240|97:209,1,106.700003256226,10|0,2:0|3:0,0:0:0:0:
155,96,96078,1,10,2:0:0:0:
26,32,96253,2,0,P|35:87|41:142,1,106.700003256226,8|4,2:3|2:3,0:0:0:0:
194,22,96602,5,6,3:2:0:0:
41,138,96776,1,8,2:0:0:0:
277,78,96950,1,0,3:2:0:0:
100,0,97125,1,8,2:0:0:0:
100,0,97212,1,8,2:0:0:0:
100,0,97299,6,0,P|110:46|114:74,1,58.199998223877,8|8,2:3|2:3,0:0:0:0:
236,155,97474,2,0,P|226:201|221:231,1,58.199998223877,4|4,2:3|2:3,0:0:0:0:
345,22,97648,5,4,2:3:0:0:
148,125,97823,1,4,2:3:0:0:
345,22,97997,6,0,B|379:11|408:35|404:37|433:60|468:49,1,116.399996447754,2|0,2:0|2:0,0:0:0:0:
484,120,98520,1,0,2:0:0:0:
439,181,98695,2,0,P|399:175|310:169,1,116.399996447754,2|0,2:0|2:0,0:0:0:0:
240,333,99392,6,0,P|270:301|229:244,1,116.399996447754,2|0,2:0|2:0,0:0:0:0:
179,196,99916,1,0,2:0:0:0:
116,238,100090,2,0,P|85:256|43:258,1,58.199998223877,2|0,2:0|2:0,0:0:0:0:
19,141,100439,2,0,P|75:154|115:153,1,87.2999973358155,0|0,2:0|2:0,0:0:0:0:
115,141,100788,6,0,P|142:103|218:112,1,116.399996447754,2|0,2:0|2:0,0:0:0:0:
269,146,101311,1,0,2:0:0:0:
324,197,101485,2,0,P|366:198|385:131,1,116.399996447754,2|0,2:0|2:0,0:0:0:0:
480,15,102183,6,0,P|474:67|469:143,1,116.399996447754,2|0,2:0|2:0,0:0:0:0:
489,298,102881,2,0,P|437:292|361:287,1,116.399996447754,2|0,2:0|2:0,0:0:0:0:
160,176,103578,6,0,B|199:185|222:164|218:161|247:136|280:148,1,116.399996447754,2|0,2:0|2:0,0:0:0:0:
320,201,104102,1,0,2:0:0:0:
359,136,104276,2,0,P|306:152|271:90,1,116.399996447754,2|0,2:0|2:0,0:0:0:0:
71,10,104974,6,0,P|80:60|86:145,1,116.399996447754,2|0,2:0|2:0,0:0:0:0:
58,196,105497,1,0,2:0:0:0:
93,262,105671,2,0,P|135:246|208:248,1,116.399996447754,2|0,2:0|2:0,0:0:0:0:
395,348,106369,6,0,P|455:346|464:284,1,116.399996447754,2|0,2:0|2:0,0:0:0:0:
456,224,106892,1,0,2:0:0:0:
396,176,107067,2,0,P|336:178|327:240,1,116.399996447754,2|0,2:0|2:0,0:0:0:0:
297,296,107590,1,0,2:0:0:0:
204,232,107764,6,0,B|239:242|258:226|256:221|276:206|311:218,1,97,2|2,2:0|2:0,0:0:0:0:
146,143,108113,1,2,2:0:0:0:
69,291,108288,6,0,P|133:289|168:290,1,87.2999973358155,2|8,2:0|2:0,0:0:0:0:
156,289,109160,6,0,P|97:300|73:188,1,174.599994671631,6|2,3:2|3:2,0:0:0:0:
135,127,109683,1,2,2:0:0:0:
225,194,109857,2,0,P|268:200|301:164,1,87.2999973358155,0|2,3:2|2:0,0:0:0:0:
374,8,110206,2,0,P|369:77|371:153,1,130.949996003723,0|0,3:2|2:0,0:0:0:0:
373,148,110555,6,0,P|354:86|255:100,1,174.599994671631,2|0,3:2|3:2,0:0:0:0:
196,188,111078,1,0,2:0:0:0:
91,143,111253,2,0,P|63:92|85:63,1,87.2999973358155,2|2,3:2|2:0,0:0:0:0:
37,214,111602,2,0,P|114:196|182:194,1,130.949996003723,2|0,3:2|2:0,0:0:0:0:
196,188,111950,6,0,B|249:171|290:198|273:210|314:239|370:222,1,174.599994671631,2|0,3:2|3:2,0:0:0:0:
452,158,112474,1,0,2:0:0:0:
456,271,112648,2,0,P|405:246|365:247,1,87.2999973358155,0|0,3:2|2:0,0:0:0:0:
307,357,112997,2,0,P|358:332|398:333,1,87.2999973358155,2|0,3:2|2:0,0:0:0:0:
251,292,113346,6,0,B|198:309|157:282|174:270|133:241|77:258,1,174.599994671631,2|0,3:2|3:2,0:0:0:0:
19,175,113869,1,0,2:0:0:0:
65,81,114043,2,0,P|98:31|182:85,1,174.599994671631,2|0,3:2|3:2,0:0:0:0:
264,142,114567,1,0,2:0:0:0:
268,150,114654,1,0,2:0:0:0:
270,155,114741,6,0,P|358:167|385:88,1,174.599994671631,2|2,3:2|3:2,0:0:0:0:
300,41,115264,1,0,2:0:0:0:
264,142,115439,2,0,L|264:241,1,87.2999973358155,2|0,3:2|2:0,0:0:0:0:
178,291,115788,2,0,P|160:245|187:204,1,87.2999973358155,2|0,3:2|2:0,0:0:0:0:
256,351,116136,6,0,P|182:346|111:344,1,130.949996003723,2|0,3:2|2:0,0:0:0:0:
107,342,116485,1,2,3:2:0:0:
35,265,116660,1,2,2:0:0:0:
136,164,116834,2,0,P|124:211|120:255,1,87.2999973358155,0|0,3:2|2:0,0:0:0:0:
34,87,117183,2,0,P|46:134|50:178,1,87.2999973358155,2|0,3:2|2:0,0:0:0:0:
108,30,117532,6,0,B|142:20|177:43|172:48|206:75|255:64,1,130.949996003723,6|0,3:2|2:0,0:0:0:0:
244,60,117881,1,2,3:2:0:0:
342,24,118055,1,2,2:0:0:0:
345,181,118229,2,0,P|314:135|328:91,1,87.2999973358155,0|0,3:2|2:0,0:0:0:0:
437,33,118578,2,0,P|424:91|421:128,1,87.2999973358155,2|0,3:2|2:0,0:0:0:0:
481,221,118927,6,0,B|431:199|396:238|405:242|370:277|313:256,1,174.599994671631,6|0,3:2|3:2,0:0:0:0:
238,192,119450,1,0,2:0:0:0:
160,306,119625,2,0,P|209:282|258:280,1,87.2999973358155,0|0,3:2|2:0,0:0:0:0:
77,174,119974,2,0,P|124:205|173:207,1,87.2999973358155,0|0,3:2|2:0,0:0:0:0:
20,348,120323,6,0,P|66:300|12:235,1,145.5,6|0,3:2|2:0,0:0:0:0:
18,233,120671,1,0,3:2:0:0:
141,127,120846,1,8,2:0:0:0:
141,127,120933,1,8,2:0:0:0:
141,127,121020,1,2,3:2:0:0:
0,71,121195,1,8,2:0:0:0:
8,90,121282,1,8,2:0:0:0:
15,109,121369,1,8,2:3:0:0:
80,13,121543,1,4,2:3:0:0:
141,127,121718,6,0,B|194:122|194:122|230:135|230:135|286:126,1,135.799995855713,6|2,3:2|2:3,0:0:0:0:
424,123,122416,2,0,P|386:64|312:88,1,135.799995855713,8|2,2:0|2:3,0:0:0:0:
273,127,122939,1,0,2:0:0:0:
311,206,123113,6,0,P|359:194|384:193,1,67.8999979278565,0|8,3:2|2:0,0:0:0:0:
256,271,123462,2,0,P|213:268|193:240,1,67.8999979278565,2|0,2:3|3:2,0:0:0:0:
303,341,123811,2,0,P|348:328|449:321,1,135.799995855713,8|2,2:0|2:3,0:0:0:0:
477,241,124334,1,0,2:0:0:0:
412,180,124509,6,0,B|367:170|345:195|348:201|318:229|270:217,1,135.799995855713,2|2,3:2|2:3,0:0:0:0:
82,205,125206,2,0,P|102:148|182:169,1,135.799995855713,8|2,2:0|2:3,0:0:0:0:
232,89,125729,1,0,2:0:0:0:
306,139,125904,6,0,P|269:163|235:164,1,67.8999979278565,2|8,3:2|2:0,0:0:0:0:
303,48,126253,1,2,2:3:0:0:
374,99,126427,1,0,3:2:0:0:
379,10,126602,1,10,2:0:0:0:
379,10,126689,1,8,2:0:0:0:
379,10,126776,1,8,2:3:0:0:
306,139,126950,1,4,2:3:0:0:
374,99,127125,1,4,2:3:0:0:
223,10,127299,6,0,P|224:85|223:164,1,135.799995855713,6|2,3:2|2:3,0:0:0:0:
116,287,127997,2,0,P|49:266|71:215,1,135.799995855713,8|2,2:0|2:3,0:0:0:0:
132,161,128520,1,0,2:0:0:0:
191,226,128695,6,0,P|230:241|266:238,1,67.8999979278565,2|8,3:2|2:0,0:0:0:0:
307,145,129043,2,0,P|273:146|242:159,1,67.8999979278565,2|2,2:3|3:2,0:0:0:0:
330,275,129392,2,0,P|383:264|448:268,1,101.849996891785,8|0,2:0|2:0,0:0:0:0:
443,270,129741,2,0,P|448:224|456:191,1,67.8999979278565,2|0,2:3|2:0,0:0:0:0:
370,23,130090,6,0,P|382:82|389:171,1,135.799995855713,2|2,3:2|2:3,0:0:0:0:
189,179,130788,2,0,P|168:140|248:133,1,135.799995855713,8|2,2:0|2:3,0:0:0:0:
288,182,131311,1,0,2:0:0:0:
181,264,131485,6,0,L|106:264,1,67.8999979278565,2|8,3:2|2:0,0:0:0:0:
189,179,131834,1,2,2:3:0:0:
264,311,132009,1,2,3:2:0:0:
348,206,132183,2,0,P|308:182|278:184,1,67.8999979278565,8|8,2:0|2:3,0:0:0:0:
407,295,132532,6,0,P|451:294|480:255,1,87.2999973358155,8|8,2:0|2:0,0:0:0:0:
479,239,132793,1,8,2:0:0:0:
474,215,132881,6,0,B|406:189|373:242|381:242|348:293|269:278,1,213.400006512451,6|8,3:2|2:0,0:0:0:0:
178,205,133404,1,2,2:0:0:0:
263,109,133578,2,0,P|314:142|311:188,1,106.700003256226,0|0,3:2|3:2,0:0:0:0:
235,346,133927,2,0,P|173:340|59:343,1,160.050004884339,10|0,2:0|2:0,0:0:0:0:
58,350,134276,6,0,P|0:311|54:188,1,213.400006512451,2|8,3:2|2:0,0:0:0:0:
135,108,134799,1,0,2:0:0:0:
231,193,134974,2,0,P|292:193|326:144,1,106.700003256226,0|0,3:2|3:2,0:0:0:0:
365,41,135323,1,10,2:0:0:0:
476,103,135497,1,2,2:0:0:0:
365,41,135671,6,0,L|365:266,1,213.400006512451,2|8,3:2|2:0,0:0:0:0:
435,362,136195,1,2,2:0:0:0:
275,283,136369,2,0,B|288:261|311:246|311:246|341:245|372:257,1,106.700003256226,0|0,3:2|3:2,0:0:0:0:
191,358,136718,2,0,B|142:371|117:338|123:338|93:299|40:319,1,160.050004884339,10|0,2:0|2:0,0:0:0:0:
39,304,137067,6,0,P|115:306|124:186,1,213.400006512451,2|8,3:2|2:0,0:0:0:0:
56,85,137590,1,0,2:0:0:0:
130,191,137764,2,0,P|188:195|219:162,1,106.700003256226,0|0,3:2|3:2,0:0:0:0:
310,7,138113,2,0,L|310:176,1,160.050004884339,10|0,2:0|2:0,0:0:0:0:
373,197,138462,6,0,L|302:180,1,72.7500027751924,2|0,3:0|2:0,0:0:0:0:
383,213,138985,6,0,L|312:196,1,72.7500027751924,2|0,3:0|2:0,0:0:0:0:
174,349,139509,6,0,B|153:350|132:328|132:328|134:281|171:258|171:258|198:266|211:284,1,174.599994671631,2|0,3:0|2:0,0:0:0:0:
302,307,139857,6,0,L|231:290,1,72.7500027751924,2|0,3:0|2:0,0:0:0:0:
312,323,140380,6,0,L|241:306,1,72.7500027751924,2|0,3:0|2:0,0:0:0:0:
5,132,140904,6,0,B|59:153|96:111|82:109|124:75|168:95,1,174.599994671631,2|0,3:0|2:0,0:0:0:0:
243,119,141253,6,0,L|172:102,1,72.7500027751924,2|0,3:0|2:0,0:0:0:0:
161,111,142299,1,10,2:0:0:0:
265,23,142474,1,0,3:2:0:0:
347,235,142648,6,0,B|285:213|233:256|233:256|201:223|158:223,1,203.69999378357,6|2,3:2|2:0,0:0:0:0:
426,285,143346,5,8,2:0:0:0:
448,281,143433,1,8,2:0:0:0:
468,270,143520,1,8,2:0:0:0:
484,254,143607,1,8,2:0:0:0:
493,233,143694,1,8,2:0:0:0:
495,210,143782,1,8,2:0:0:0:
490,188,143869,1,8,2:0:0:0:
478,169,143956,1,8,2:0:0:0:
461,155,144043,6,0,B|394:129|353:185|360:188|323:242|230:214,1,232.799992895508,6|10,3:2|2:0,0:0:0:0:
134,137,144567,1,2,2:0:0:0:
66,259,144741,2,0,P|106:218|173:232,1,116.399996447754,0|2,3:2|3:2,0:0:0:0:
15,364,145090,2,0,L|15:176,1,174.599994671631,8|0,2:0|2:0,0:0:0:0:
37,117,145439,6,0,B|104:91|145:147|138:150|175:204|268:176,1,232.799992895508,2|8,3:2|2:0,0:0:0:0:
334,70,145962,1,0,2:0:0:0:
441,192,146136,2,0,P|375:153|335:167,1,116.399996447754,2|2,3:2|3:2,0:0:0:0:
263,50,146485,2,0,B|317:73|357:35|343:30|376:-5|434:10,1,174.599994671631,10|0,2:0|2:0,0:0:0:0:
441,17,146834,6,0,L|441:206,1,174.599994671631,2|0,3:2|2:0,0:0:0:0:
438,210,147183,2,0,P|376:236|332:204,1,116.399996447754,8|0,2:0|2:0,0:0:0:0:
246,108,147532,1,2,3:2:0:0:
338,213,147706,1,2,3:2:0:0:
159,332,147881,2,0,P|172:291|287:314,1,174.599994671631,10|0,2:0|2:0,0:0:0:0:
331,366,148229,6,0,P|284:311|343:216,1,174.599994671631,2|0,3:2|2:0,0:0:0:0:
338,213,148578,2,0,L|474:214,1,116.399996447754,10|0,2:0|2:0,0:0:0:0:
246,108,148927,1,2,3:2:0:0:
338,213,149102,1,0,3:2:0:0:
246,108,149276,2,0,P|170:94|124:179,1,174.599994671631,10|0,2:0|2:0,0:0:0:0:
111,186,149625,6,0,P|38:177|83:46,1,232.799992895508,6|10,3:2|2:0,0:0:0:0:
191,12,150148,1,2,2:0:0:0:
282,118,150323,2,0,P|344:124|379:73,1,116.399996447754,0|0,3:2|3:2,0:0:0:0:
191,12,150671,2,0,L|191:201,1,174.599994671631,8|0,2:0|2:0,0:0:0:0:
219,267,151020,6,0,B|241:235|228:178|118:146|55:280,1,232.799992895508,2|8,3:2|2:0,0:0:0:0:
185,355,151543,1,0,2:0:0:0:
313,300,151718,2,0,P|333:235|305:179,1,116.399996447754,0|0,3:2|3:2,0:0:0:0:
220,90,152067,1,8,2:0:0:0:
316,191,152241,1,2,2:0:0:0:
113,127,152416,5,10,3:2:0:0:
326,23,152590,1,10,3:2:0:0:
326,23,152939,2,0,B|348:7|388:16|410:93|339:146,1,174.599994671631,14|0,3:2|2:0,0:0:0:0:
288,204,153288,1,8,2:0:0:0:
278,216,153375,1,8,2:0:0:0:
270,226,153462,2,0,L|204:213,1,58.199998223877,8|8,2:3|2:3,0:0:0:0:
81,144,153636,2,0,L|147:131,1,58.199998223877,4|4,2:3|2:3,0:0:0:0:
15,298,153811,5,10,3:2:0:0:
1,77,153985,1,10,3:2:0:0:
1,77,154334,2,0,B|60:57|95:88|82:92|126:124|172:102,1,174.599994671631,14|0,3:2|2:0,0:0:0:0:
221,43,154683,1,8,2:0:0:0:
135,216,154857,1,8,2:3:0:0:
407,186,155032,1,4,2:3:0:0:
407,186,155119,1,4,2:3:0:0:
407,186,155206,6,0,B|422:163|413:123|336:101|284:173,1,174.599994671631,6|0,3:2|2:0,0:0:0:0:
275,187,155555,1,10,2:0:0:0:
385,52,155729,1,2,2:0:0:0:
463,290,155904,2,0,P|399:265|345:261,1,116.399996447754,0|2,3:2|3:2,0:0:0:0:
115,229,156253,2,0,B|169:252|209:214|195:209|228:174|286:189,1,174.599994671631,8|0,2:0|2:0,0:0:0:0:
274,186,156602,6,0,P|254:240|274:294,1,116.399996447754,2|0,3:2|2:0,0:0:0:0:
139,140,156950,2,0,P|159:86|137:31,1,116.399996447754,8|0,2:0|2:0,0:0:0:0:
0,151,157299,1,2,3:2:0:0:
115,229,157474,1,2,3:2:0:0:
0,343,157648,2,0,P|40:276|132:304,1,174.599994671631,10|0,2:0|2:0,0:0:0:0:
144,317,157997,6,0,B|190:329|223:294|209:289|249:251|303:274,1,174.599994671631,2|0,3:2|2:0,0:0:0:0:
315,296,158346,2,0,P|383:281|396:232,1,116.399996447754,8|0,2:0|2:0,0:0:0:0:
254,123,158695,1,2,3:2:0:0:
397,243,158869,1,2,3:2:0:0:
378,26,159043,2,0,P|361:89|356:155,1,116.399996447754,10|0,2:0|2:0,0:0:0:0:
475,300,159392,6,0,P|391:281|285:282,1,174.599994671631,2|0,3:2|2:0,0:0:0:0:
277,278,159741,2,0,P|344:254|357:207,1,116.399996447754,10|0,2:0|2:0,0:0:0:0:
170,124,160090,1,2,3:2:0:0:
283,205,160264,1,0,3:2:0:0:
170,124,160439,2,0,P|111:125|81:177,1,116.399996447754,10|0,2:0|2:0,0:0:0:0:
141,361,160788,6,0,P|152:289|165:240,1,116.399996447754,14|0,2:0|3:2,0:0:0:0:
0,150,161136,2,0,P|13:206|21:264,1,116.399996447754,10|0,2:0|3:2,0:0:0:0:
185,128,161485,1,10,2:0:0:0:
54,37,161660,1,0,3:2:0:0:
185,128,161834,1,10,2:0:0:0:
0,150,162009,1,0,3:2:0:0:
199,13,162183,6,0,P|267:11|301:55,1,116.399996447754,10|0,2:0|3:2,0:0:0:0:
289,183,162532,2,0,P|221:185|187:141,1,116.399996447754,10|0,2:0|3:2,0:0:0:0:
297,43,162881,1,10,2:0:0:0:
379,219,163055,1,0,3:2:0:0:
190,152,163229,1,10,2:0:0:0:
411,51,163404,1,0,3:2:0:0:
389,307,163578,6,0,P|310:285|269:286,1,116.399996447754,10|0,2:0|3:2,0:0:0:0:
89,255,163927,2,0,P|146:252|201:233,1,116.399996447754,10|0,2:0|3:2,0:0:0:0:
22,188,164276,1,10,2:0:0:0:
164,324,164450,1,0,3:2:0:0:
118,120,164625,1,10,2:0:0:0:
0,291,164799,1,0,3:2:0:0:
201,233,164974,6,0,B|225:180|225:180|199:126,1,116.399996447754,10|0,2:0|3:2,0:0:0:0:
21,83,165323,2,0,B|-3:136|-3:136|23:190,1,116.399996447754,10|0,2:0|3:2,0:0:0:0:
174,20,165671,1,10,2:0:0:0:
23,188,165846,1,0,3:2:0:0:
248,65,166020,1,10,2:0:0:0:
16,0,166195,1,8,2:0:0:0:
16,0,166282,1,8,2:0:0:0:
16,0,166369,6,0,P|17:90|16:183,1,174.599994671631,6|0,3:2|3:2,0:0:0:0:
15,279,166892,1,0,2:0:0:0:
104,224,167067,2,0,P|159:221|186:251,1,87.2999973358155,0|0,3:2|2:0,0:0:0:0:
208,342,167416,2,0,P|153:345|126:315,1,87.2999973358155,0|0,3:2|2:0,0:0:0:0:
268,270,167764,6,0,B|315:248|356:283|350:287|390:316|441:293,1,174.599994671631,2|0,3:2|3:2,0:0:0:0:
487,205,168288,1,0,2:0:0:0:
373,128,168462,2,0,P|392:188|397:229,1,87.2999973358155,0|0,3:2|2:0,0:0:0:0:
482,33,168811,2,0,P|463:93|458:134,1,87.2999973358155,0|0,3:2|2:0,0:0:0:0:
223,113,169160,5,8,3:2:0:0:
366,39,169334,1,8,3:2:0:0:
204,122,169509,1,8,3:2:0:0:
373,128,169683,1,8,3:2:0:0:
185,32,169857,5,8,3:2:0:0:
382,147,170032,1,8,3:2:0:0:
140,174,170206,1,8,3:2:0:0:
366,39,170381,1,8,3:2:0:0:
332,302,170555,6,0,P|256:295|156:294,1,169.75,6|0,3:2|2:0,0:0:0:0:
49,317,171253,5,10,2:0:0:0:
87,303,171340,1,10,2:0:0:0:
111,270,171427,1,10,2:0:0:0:
114,229,171514,1,10,2:0:0:0:
98,190,171602,2,0,P|53:171|33:171,1,58.199998223877,10|10,2:0|2:0,0:0:0:0:
212,200,171776,2,0,P|240:194|265:180,1,58.199998223877,10|10,2:0|2:0,0:0:0:0:
35,31,171950,6,0,L|35:162,1,116.399996447754,6|0,3:2|2:0,0:0:0:0:
44,170,172212,1,2,2:0:0:0:
44,170,172299,2,0,P|110:176|136:137,1,116.399996447754,8|2,2:0|2:0,0:0:0:0:
334,35,172648,2,0,P|268:29|242:68,1,116.399996447754,2|0,3:2|3:2,0:0:0:0:
237,86,172910,1,2,2:0:0:0:
237,86,172997,2,0,L|237:217,1,116.399996447754,8|2,2:0|2:0,0:0:0:0:
375,323,173346,6,0,B|397:280|355:238|279:267|253:316,1,174.599994671631,2|0,3:2|2:0,0:0:0:0:
248,324,173695,1,8,2:0:0:0:
357,169,173869,1,2,2:0:0:0:
357,169,173956,1,2,2:0:0:0:
357,169,174043,2,0,P|399:184|418:188,1,58.199998223877,2|0,3:2|2:0,0:0:0:0:
222,218,174218,2,0,P|264:203|283:199,1,58.199998223877,2|0,3:2|2:0,0:0:0:0:
164,86,174392,2,0,P|206:101|225:105,1,58.199998223877,10|0,2:0|2:0,0:0:0:0:
63,241,174567,2,0,P|105:226|124:222,1,58.199998223877,2|0,2:0|2:0,0:0:0:0:
24,46,174741,6,0,P|65:116|153:96,1,174.599994671631,2|0,3:2|2:0,0:0:0:0:
164,86,175090,1,8,2:0:0:0:
310,190,175264,2,0,P|264:156|198:168,1,116.399996447754,2|0,2:0|3:2,0:0:0:0:
404,119,175613,1,2,3:2:0:0:
446,263,175788,1,8,2:0:0:0:
330,76,175962,1,2,2:0:0:0:
512,186,176136,5,2,3:2:0:0:
280,263,176311,1,2,2:0:0:0:
452,53,176485,1,10,2:0:0:0:
433,349,176660,1,2,2:0:0:0:
180,207,176834,5,2,3:2:0:0:
193,178,176921,1,2,2:0:0:0:
217,157,177008,1,2,3:2:0:0:
247,147,177095,1,2,2:0:0:0:
279,149,177182,1,10,2:0:0:0:
202,299,177357,1,2,2:0:0:0:
94,24,177532,6,0,L|94:213,1,174.599994671631,2|0,3:2|2:0,0:0:0:0:
94,220,177881,1,8,2:0:0:0:
268,251,178055,2,0,P|229:203|168:214,1,116.399996447754,2|0,2:0|3:2,0:0:0:0:
113,351,178404,1,2,3:2:0:0:
17,226,178578,1,8,2:0:0:0:
113,351,178753,6,0,P|192:337|242:335,1,116.399996447754,2|0,2:0|3:2,0:0:0:0:
328,132,179102,1,2,2:0:0:0:
186,233,179276,1,8,2:0:0:0:
392,220,179450,1,2,2:0:0:0:
244,64,179625,2,0,P|222:124|248:171,1,116.399996447754,0|2,3:2|3:2,0:0:0:0:
419,139,179974,2,0,P|441:79|415:32,1,116.399996447754,8|2,2:0|2:0,0:0:0:0:
474,301,180323,6,0,P|424:242|323:264,1,174.599994671631,2|0,3:2|2:0,0:0:0:0:
311,271,180671,1,8,2:0:0:0:
419,139,180846,1,2,2:0:0:0:
311,271,181020,1,2,3:2:0:0:
244,64,181195,1,2,3:2:0:0:
402,221,181369,2,0,P|472:211|492:162,1,116.399996447754,10|2,2:0|2:0,0:0:0:0:
335,49,181718,5,2,3:2:0:0:
206,177,181892,1,2,2:0:0:0:
420,140,182067,1,10,2:0:0:0:
230,47,182241,1,2,2:0:0:0:
311,271,182416,2,0,P|371:269|436:271,1,116.399996447754,2|2,3:2|3:2,0:0:0:0:
201,161,182764,2,0,P|131:171|111:220,1,116.399996447754,10|2,2:0|2:0,0:0:0:0:
209,373,183113,6,0,P|241:316|206:270,1,116.399996447754,6|0,3:2|2:0,0:0:0:0:
201,259,183375,1,2,2:0:0:0:
201,259,183462,2,0,L|77:259,1,116.399996447754,8|2,2:0|2:0,0:0:0:0:
290,113,183811,2,0,P|361:100|391:142,1,116.399996447754,2|0,3:2|3:2,0:0:0:0:
393,151,184073,1,2,2:0:0:0:
393,151,184160,2,0,P|397:77|402:28,1,116.399996447754,8|2,2:0|2:0,0:0:0:0:
185,11,184509,6,0,P|200:122|204:199,1,174.599994671631,2|0,3:2|2:0,0:0:0:0:
203,208,184857,1,8,2:0:0:0:
77,95,185032,1,2,2:0:0:0:
77,95,185119,1,2,2:0:0:0:
77,95,185206,6,0,P|46:100|18:110,3,58.199998223877,2|2|2|2,3:2|2:0|2:0|2:0,0:0:0:0:
202,221,185555,2,0,P|168:207|122:203,1,58.199998223877,10|2,2:0|2:0,0:0:0:0:
329,82,185729,2,0,P|282:106|247:111,1,58.199998223877,2|2,2:0|2:0,0:0:0:0:
472,237,185904,6,0,P|410:200|358:222,1,116.399996447754,2|0,3:2|2:0,0:0:0:0:
352,228,186166,1,2,2:0:0:0:
352,228,186253,2,0,L|352:351,1,116.399996447754,8|2,2:0|2:0,0:0:0:0:
409,72,186602,1,2,3:2:0:0:
274,210,186776,1,0,3:2:0:0:
274,210,186863,1,2,3:2:0:0:
274,210,186950,2,0,P|210:221|171:179,1,116.399996447754,8|2,2:0|2:0,0:0:0:0:
115,62,187299,6,0,B|146:91|146:91|146:226,1,174.599994671631,2|0,3:2|2:0,0:0:0:0:
146,251,187648,1,8,2:0:0:0:
55,144,187823,1,2,2:0:0:0:
245,217,187997,6,0,P|263:211|281:207,6,29.0999991119385,2|2|2|2|2|2|2,3:2|2:0|2:0|2:0|3:2|2:0|2:0,0:0:0:0:
356,178,188346,2,0,B|310:198|269:162|275:158|238:129|191:147,1,174.599994671631,10|0,2:0|2:0,0:0:0:0:
170,146,188695,6,0,P|245:148|198:35,1,232.799992895508,6|8,3:2|2:0,0:0:0:0:
83,82,189218,1,2,2:0:0:0:
153,246,189392,2,0,P|185:179|159:135,1,116.399996447754,0|2,3:2|3:2,0:0:0:0:
14,202,189741,2,0,L|14:327,1,116.399996447754,8|2,2:0|2:0,0:0:0:0:
222,368,190090,6,0,B|254:337|234:283|168:287|104:342,1,174.599994671631,2|0,3:2|2:0,0:0:0:0:
106,333,190439,2,0,P|152:276|139:234,1,116.399996447754,10|0,2:0|2:0,0:0:0:0:
163,100,190788,2,0,P|189:168|232:178,1,116.399996447754,2|0,3:2|3:2,0:0:0:0:
342,253,191136,2,0,P|269:241|239:273,1,116.399996447754,10|2,2:0|2:0,0:0:0:0:
289,78,191485,6,0,P|336:137|436:130,1,174.599994671631,2|0,3:2|2:0,0:0:0:0:
447,115,191834,1,8,2:0:0:0:
348,15,192009,1,2,2:0:0:0:
456,259,192183,2,0,P|397:242|336:238,1,116.399996447754,0|2,3:2|3:2,0:0:0:0:
187,136,192532,2,0,P|244:131|294:98,1,116.399996447754,10|2,2:0|2:0,0:0:0:0:
103,118,192881,5,2,3:2:0:0:
226,221,193055,1,0,2:0:0:0:
103,118,193229,2,0,P|34:117|6:171,1,116.399996447754,10|0,2:0|2:0,0:0:0:0:
172,31,193578,1,2,3:2:0:0:
303,187,193753,1,8,2:0:0:0:
103,118,193927,1,8,2:3:0:0:
285,1,194102,1,8,2:3:0:0:
226,221,194276,6,0,B|190:198|187:167|187:167|197:131|226:116,1,135.799995855713,6|0,3:2|3:2,0:0:0:0:
301,82,194799,1,0,2:0:0:0:
357,140,194974,2,0,P|396:143|432:128,1,67.8999979278565,0|0,3:2|2:0,0:0:0:0:
502,115,195323,2,0,P|490:183|488:237,1,101.849996891785,0|0,3:2|2:0,0:0:0:0:
489,234,195671,6,0,B|450:216|424:248|428:249|402:277|352:260,1,135.799995855713,2|0,3:2|3:2,0:0:0:0:
293,219,196195,1,0,2:0:0:0:
223,260,196369,2,0,P|176:266|156:247,1,67.8999979278565,0|0,3:2|2:0,0:0:0:0:
101,199,196718,2,0,P|129:165|181:178,1,101.849996891785,0|0,3:2|2:0,0:0:0:0:
186,189,197067,6,0,P|151:155|195:81,1,135.799995855713,2|0,3:2|3:2,0:0:0:0:
245,31,197590,1,0,2:0:0:0:
182,84,197764,2,0,P|145:82|119:62,1,67.8999979278565,0|0,3:2|2:0,0:0:0:0:
43,36,198113,2,0,P|46:96|45:154,1,101.849996891785,0|0,3:2|2:0,0:0:0:0:
44,164,198462,6,0,P|84:145|115:146,1,67.8999979278565,2|0,3:2|2:0,0:0:0:0:
70,259,198811,2,0,P|30:240|-1:241,1,67.8999979278565,0|0,3:2|2:0,0:0:0:0:
152,218,199160,2,0,P|185:215|214:198,1,67.8999979278565,2|0,3:2|2:0,0:0:0:0:
207,322,199509,2,0,P|177:305|144:302,1,67.8999979278565,0|0,3:2|2:0,0:0:0:0:
272,266,199857,6,0,B|316:248|341:269|339:274|368:293|413:278,1,135.799995855713,2|0,3:2|3:2,0:0:0:0:
459,221,200381,1,0,2:0:0:0:
400,164,200555,2,0,P|347:171|337:188,1,67.8999979278565,2|2,3:2|2:0,0:0:0:0:
478,137,200904,2,0,P|490:101|474:71,1,67.8999979278565,2|0,3:2|2:0,0:0:0:0:
404,40,201253,6,0,B|360:22|335:43|337:48|308:67|263:52,1,135.799995855713,2|2,3:2|3:2,0:0:0:0:
198,22,201776,1,2,2:0:0:0:
149,130,201950,2,0,P|180:109|213:106,1,67.8999979278565,0|0,3:2|2:0,0:0:0:0:
114,46,202299,2,0,P|80:41|53:21,1,67.8999979278565,0|0,3:2|2:0,0:0:0:0:
7,147,202648,6,0,P|34:127|67:122,1,67.8999979278565,2|2,3:2|2:0,0:0:0:0:
144,149,202997,1,2,3:2:0:0:
79,283,203171,2,0,P|45:241|78:204,1,101.849996891785,2|0,2:0|2:0,0:0:0:0:
79,201,203520,1,2,2:0:0:0:
155,249,203695,2,0,L|233:244,1,67.8999979278565,2|2,3:2|2:0,0:0:0:0:
333,167,204043,6,0,P|293:166|271:194,1,67.8999979278565,2|2,3:2|2:0,0:0:0:0:
328,245,204392,1,2,3:2:0:0:
409,70,204567,2,0,P|408:138|409:209,1,135.799995855713,2|2,2:0|2:0,0:0:0:0:
410,287,205090,2,0,P|452:275|484:270,1,67.8999979278565,0|2,3:2|2:0,0:0:0:0:
337,337,205439,6,0,B|292:354|262:330|266:327|231:304|185:325,1,155.2,2|2,3:1|3:1,0:0:0:0:
111,270,205962,1,0,2:0:0:0:
180,208,206136,2,0,P|227:211|247:238,1,77.6,0|10,3:2|2:1,0:0:0:0:
65,199,206485,2,0,P|25:161|54:95,1,116.4,10|0,3:1|2:0,0:0:0:0:
55,89,206834,6,0,B|100:72|130:96|126:99|161:122|207:101,1,155.2,2|2,3:1|3:1,0:0:0:0:
266,33,207357,1,0,2:0:0:0:
349,139,207532,2,0,P|304:113|267:118,1,77.6,0|10,3:2|2:1,0:0:0:0:
401,73,207881,2,0,P|457:77|483:26,1,116.4,10|0,3:1|2:0,0:0:0:0:
489,19,208229,6,0,P|483:95|484:185,1,155.2,2|2,3:1|3:1,0:0:0:0:
488,267,208753,1,0,2:0:0:0:
407,220,208927,2,0,P|357:223|342:247,1,77.6,0|10,3:2|2:1,0:0:0:0:
253,368,209276,2,0,P|293:318|252:272,1,116.4,10|0,3:1|2:0,0:0:0:0:
252,272,209625,6,0,L|165:272,1,77.6,2|0,3:1|2:0,0:0:0:0:
117,197,209974,2,0,P|163:175|195:190,1,77.6,2|0,3:1|2:0,0:0:0:0:
91,281,210323,1,0,3:2:0:0:
6,202,210497,1,10,2:1:0:0:
91,281,210671,2,0,L|91:370,1,77.6,10|0,3:1|2:0,0:0:0:0:
6,202,211020,6,0,P|70:206|86:120,1,155.2,2|2,3:1|3:1,0:0:0:0:
33,57,211543,1,0,2:0:0:0:
92,130,211718,2,0,P|143:129|160:98,1,77.6,0|10,3:2|2:1,0:0:0:0:
210,34,212067,1,10,3:1:0:0:
249,118,212241,1,0,2:0:0:0:
354,65,212416,6,0,P|326:39|289:45,1,77.6,2|0,3:1|2:0,0:0:0:0:
431,110,212764,2,0,P|437:61|442:31,1,77.6,2|0,3:1|2:0,0:0:0:0:
366,160,213113,1,0,3:2:0:0:
475,212,213288,1,10,2:1:0:0:
278,205,213462,1,10,3:1:0:0:
431,110,213636,1,0,2:0:0:0:
366,318,213811,5,2,3:0:0:0:
366,318,215032,6,0,P|283:311|274:222,1,174.599994671631,6|0,3:2|2:0,0:0:0:0:
278,205,215381,5,2,3:2:0:0:
391,124,215555,1,10,2:0:0:0:
186,228,215729,1,2,3:2:0:0:
427,221,215904,1,10,2:0:0:0:
235,81,216078,1,2,3:2:0:0:
366,318,216253,1,10,2:0:0:0:
366,318,216776,6,0,P|417:306|441:304,1,58.199998223877,0|0,3:2|3:2,0:0:0:0:
278,205,216950,6,0,B|229:224|182:193|191:188|149:155|98:183,1,189.149991341401,14|0,2:0|2:0,0:0:0:0:
71,198,217299,1,0,3:2:0:0:
235,81,217474,1,2,3:2:0:0:
247,314,217648,2,0,P|180:283|112:286,1,126.0999942276,8|0,2:0|2:0,0:0:0:0:
298,191,217997,6,0,P|389:207|439:118,1,189.149991341401,2|0,3:2|2:0,0:0:0:0:
439,118,218346,2,0,L|439:251,1,126.0999942276,8|0,2:0|2:0,0:0:0:0:
345,83,218695,1,2,3:2:0:0:
471,0,218869,1,2,3:2:0:0:
345,83,219043,2,0,P|274:96|233:55,1,126.0999942276,10|0,2:0|2:0,0:0:0:0:
95,8,219392,6,0,L|95:216,1,189.149991341401,2|0,3:2|2:0,0:0:0:0:
95,222,219741,2,0,P|141:171|201:178,1,126.0999942276,8|0,2:0|2:0,0:0:0:0:
127,346,220090,1,2,3:2:0:0:
16,235,220264,1,2,3:2:0:0:
127,346,220439,2,0,P|184:298|167:235,1,126.0999942276,10|0,2:0|2:0,0:0:0:0:
211,61,220788,6,0,P|185:118|216:175,1,126.0999942276,2|0,3:2|2:0,0:0:0:0:
383,252,221136,2,0,P|320:214|270:235,1,126.0999942276,10|0,2:0|2:0,0:0:0:0:
394,334,221485,1,2,3:2:0:0:
438,180,221660,1,0,3:2:0:0:
275,230,221834,2,0,L|275:360,1,126.0999942276,10|0,2:0|2:0,0:0:0:0:
480,94,222183,6,0,B|415:58|352:109|364:116|308:160|240:123,1,252.199988455201,6|10,3:2|2:0,0:0:0:0:
124,31,222706,1,2,2:0:0:0:
56,165,222881,2,0,P|103:116|166:126,1,126.0999942276,0|0,3:2|3:2,0:0:0:0:
148,316,223229,2,0,B|97:303|88:241|132:201|132:201|154:244|179:252,1,189.149991341401,8|0,2:0|2:0,0:0:0:0:
228,264,223578,6,0,B|293:300|355:248|343:241|399:197|467:234,1,252.199988455201,2|8,3:2|2:0,0:0:0:0:
375,357,224102,1,0,2:0:0:0:
266,170,224276,1,0,3:2:0:0:
483,314,224450,1,0,3:2:0:0:
228,264,224625,1,8,2:0:0:0:
459,114,224799,1,2,2:0:0:0:
375,357,224974,5,10,3:2:0:0:
250,47,225148,1,10,3:2:0:0:
250,47,225497,2,0,P|163:19|104:88,1,189.149991341401,14|0,3:2|2:0,0:0:0:0:
62,157,225846,1,8,2:0:0:0:
66,168,225933,1,8,2:0:0:0:
72,180,226020,2,0,L|149:159,1,63.0499971138002,8|8,2:3|2:3,0:0:0:0:
81,291,226195,2,0,L|4:270,1,63.0499971138002,4|4,2:3|2:3,0:0:0:0:
223,142,226369,5,10,3:2:0:0:
281,356,226543,1,10,3:2:0:0:
281,356,226892,6,0,B|329:382|375:344|361:340|408:306|459:333,1,189.149991341401,14|0,3:2|2:0,0:0:0:0:
474,339,227241,1,8,2:0:0:0:
353,246,227416,1,8,2:3:0:0:
507,130,227590,1,4,2:3:0:0:
507,130,227677,1,4,2:3:0:0:
507,130,227764,6,0,P|435:184|350:73,1,252.199988455201,6|10,3:2|2:0,0:0:0:0:
215,4,228288,1,2,2:0:0:0:
150,140,228462,2,0,P|220:139|248:96,1,126.0999942276,0|2,3:2|3:2,0:0:0:0:
55,19,228811,2,0,L|55:225,1,189.149991341401,8|0,2:0|2:0,0:0:0:0:
47,231,229160,6,0,P|81:169|183:222,1,189.149991341401,2|0,3:2|2:0,0:0:0:0:
237,256,229509,2,0,P|309:252|345:204,1,126.0999942276,8|0,2:0|2:0,0:0:0:0:
355,63,229857,1,2,3:2:0:0:
466,189,230032,1,2,3:2:0:0:
284,124,230206,2,0,B|249:67|249:67|284:11,1,126.0999942276,10|0,2:0|2:0,0:0:0:0:
466,0,230555,6,0,L|466:206,1,189.149991341401,2|0,3:2|2:0,0:0:0:0:
466,215,230904,2,0,P|414:168|349:181,1,126.0999942276,8|0,2:0|2:0,0:0:0:0:
245,289,231253,1,2,3:2:0:0:
172,148,231427,1,2,3:2:0:0:
245,289,231602,2,0,P|320:288|350:241,1,126.0999942276,10|0,2:0|2:0,0:0:0:0:
127,229,231950,6,0,L|127:364,1,126.0999942276,2|0,3:2|2:0,0:0:0:0:
277,182,232299,2,0,B|304:120|304:120|271:57,1,126.0999942276,10|0,2:0|2:0,0:0:0:0:
73,101,232648,2,0,P|117:151|176:145,1,126.0999942276,2|0,3:2|3:2,0:0:0:0:
300,0,232997,2,0,P|239:-1|201:46,1,126.0999942276,10|0,2:0|2:0,0:0:0:0:
277,182,233346,6,0,P|353:177|405:176,1,126.0999942276,14|0,2:0|3:2,0:0:0:0:
501,60,233695,2,0,P|423:57|388:99,1,126.0999942276,10|0,2:0|3:2,0:0:0:0:
400,269,234043,1,10,2:0:0:0:
490,149,234218,1,0,3:2:0:0:
304,269,234392,1,10,2:0:0:0:
498,350,234567,1,0,3:2:0:0:
367,117,234741,6,0,P|301:133|277:196,1,126.0999942276,10|0,2:0|3:2,0:0:0:0:
299,353,235090,2,0,P|365:337|389:274,1,126.0999942276,10|0,2:0|3:2,0:0:0:0:
192,160,235439,1,10,2:0:0:0:
304,269,235613,1,0,3:2:0:0:
112,211,235788,1,10,2:0:0:0:
263,64,235962,1,0,3:2:0:0:
192,324,236136,6,0,P|126:295|62:293,1,126.0999942276,10|0,2:0|3:2,0:0:0:0:
276,181,236485,2,0,P|338:175|395:148,1,126.0999942276,10|0,2:0|3:2,0:0:0:0:
121,69,236834,1,10,2:0:0:0:
276,181,237009,1,0,3:2:0:0:
51,136,237183,1,10,2:0:0:0:
254,41,237357,1,0,3:2:0:0:
50,250,237532,6,0,B|24:193|24:193|53:131,1,126.0999942276,10|0,2:0|3:2,0:0:0:0:
276,181,237881,2,0,B|302:238|302:238|273:300,1,126.0999942276,10|0,2:0|3:2,0:0:0:0:
254,41,238229,1,10,2:0:0:0:
396,173,238404,1,0,3:2:0:0:
182,157,238578,1,10,2:0:0:0:
404,18,238753,1,8,2:0:0:0:
404,18,238840,1,8,2:0:0:0:
404,18,238927,6,0,P|397:119|396:185,1,155.2,6|0,3:2|2:0,0:0:0:0:
457,286,239450,1,8,2:0:0:0:
457,286,239538,1,8,2:0:0:0:
457,286,239625,2,0,P|412:256|373:266,1,77.6,8|8,2:3|2:3,0:0:0:0:
374,260,239886,1,8,2:3:0:0:
374,260,239974,2,0,P|329:290|290:280,1,77.6,4|4,2:3|2:3,0:0:0:0:
123,249,240323,6,0,P|145:207|239:246,1,155.2,6|0,3:2|2:0,0:0:0:0:
149,335,240845,1,8,2:0:0:0:
149,335,240932,1,8,2:0:0:0:
149,335,241020,1,8,2:0:0:0:
71,155,241194,1,8,2:3:0:0:
234,229,241369,1,8,2:3:0:0:
11,229,241543,1,4,2:3:0:0:
245,118,241718,5,8,3:2:0:0:
149,335,241892,1,8,3:2:0:0:
376,171,242067,1,8,3:2:0:0:
103,51,242241,1,8,3:2:0:0:
321,312,242416,1,8,3:2:0:0:
277,34,242590,1,8,3:2:0:0:
43,206,242764,1,8,3:2:0:0:
376,171,242939,1,8,3:2:0:0:
103,51,243113,5,6,3:2:0:0:
103,51,245206,5,8,2:0:0:0:
208,143,245381,1,0,3:2:0:0:
65,207,245555,6,0,P|82:154|188:164,1,174.599994671631,8|0,2:3|2:0,0:0:0:0:
248,218,245904,6,0,P|316:252|375:139,1,213.400006512451,6|10,3:2|2:0,0:0:0:0:
341,34,246427,1,2,2:0:0:0:
238,112,246602,2,0,L|238:225,1,106.700003256226,0|2,3:2|3:2,0:0:0:0:
289,335,246950,2,0,B|238:313|209:346|214:349|185:376|130:353,1,160.050004884339,8|0,2:0|2:0,0:0:0:0:
109,342,247299,6,0,P|46:264|127:202,1,213.400006512451,2|8,3:2|2:0,0:0:0:0:
210,114,247823,1,0,2:0:0:0:
115,201,247997,2,0,P|58:199|22:152,1,106.700003256226,2|0,3:2|3:2,0:0:0:0:
188,38,248346,2,0,P|245:40|281:87,1,106.700003256226,10|0,2:0|2:0,0:0:0:0:
279,277,248695,6,0,P|225:224|281:171,1,160.050004884339,2|0,3:2|2:0,0:0:0:0:
294,168,249043,2,0,B|408:168,1,106.700003256226,8|0,2:0|2:0,0:0:0:0:
187,126,249392,1,2,3:2:0:0:
279,277,249567,1,0,3:2:0:0:
187,126,249741,2,0,P|122:134|99:164,1,106.700003256226,10|0,2:0|2:0,0:0:0:0:
26,344,250090,6,0,P|90:341|202:343,1,160.050004884339,2|0,3:2|2:0,0:0:0:0:
210,346,250439,2,0,P|244:299|234:252,1,106.700003256226,10|0,2:0|2:0,0:0:0:0:
187,126,250788,1,2,3:2:0:0:
320,215,250962,1,2,3:2:0:0:
137,237,251136,1,10,2:0:0:0:
304,117,251311,1,2,2:0:0:0:
61,4,251485,6,0,L|61:224,1,213.400006512451,2|10,3:2|2:0,0:0:0:0:
152,308,252009,1,2,2:0:0:0:
255,233,252183,2,0,P|212:186|165:196,1,106.700003256226,0|2,3:2|3:2,0:0:0:0:
268,337,252532,2,0,B|315:351|346:319|340:319|368:284|420:302,1,160.050004884339,8|0,2:0|2:0,0:0:0:0:
437,311,252881,6,0,P|469:258|445:213,1,106.700003256226,2|0,3:2|2:0,0:0:0:0:
338,119,253229,2,0,L|338:229,1,106.700003256226,10|0,2:0|2:0,0:0:0:0:
424,102,253578,1,2,3:2:0:0:
300,9,253753,1,0,3:2:0:0:
424,102,253927,2,0,P|490:100|515:63,1,106.700003256226,10|0,2:0|2:0,0:0:0:0:
300,9,254276,6,0,B|234:-9|200:31|212:32|170:84|98:61,1,213.400006512451,2|8,3:2|2:0,0:0:0:0:
12,152,254799,1,2,2:0:0:0:
188,191,254974,2,0,P|146:150|93:158,1,106.700003256226,0|2,3:2|3:2,0:0:0:0:
176,292,255323,2,0,P|228:293|263:254,1,106.700003256226,8|2,2:0|2:0,0:0:0:0:
66,228,255671,5,2,3:2:0:0:
176,292,255846,1,2,2:0:0:0:
7,287,256020,1,10,2:0:0:0:
188,191,256195,1,2,2:0:0:0:
153,371,256369,2,0,P|92:354|40:356,1,106.700003256226,0|2,3:2|3:2,0:0:0:0:
188,191,256718,1,8,2:0:0:0:
290,314,256892,1,10,2:0:0:0:
290,314,256979,1,10,2:0:0:0:
290,314,257067,6,0,B|337:328|368:296|362:296|390:261|442:279,1,160.050004884339,6|0,3:2|2:0,0:0:0:0:
459,286,257416,1,10,2:0:0:0:
363,201,257590,1,2,2:0:0:0:
477,97,257764,2,0,P|460:153|454:207,1,106.700003256226,0|2,3:2|3:2,0:0:0:0:
345,14,258113,2,0,P|356:79|363:195,1,160.050004884339,8|0,2:0|2:0,0:0:0:0:
363,201,258462,6,0,P|314:134|210:188,1,213.400006512451,2|8,3:2|2:0,0:0:0:0:
113,264,258985,1,0,2:0:0:0:
202,359,259160,2,0,B|225:311|225:311|199:252,1,106.700003256226,2|0,3:2|3:2,0:0:0:0:
113,148,259509,2,0,B|90:196|90:196|116:255,1,106.700003256226,10|0,2:0|2:0,0:0:0:0:
295,147,259857,6,0,L|113:147,1,160.050004884339,2|0,3:2|2:0,0:0:0:0:
113,148,260206,2,0,P|92:83|120:46,1,106.700003256226,8|0,2:0|2:0,0:0:0:0:
128,238,260555,1,2,3:2:0:0:
15,169,260729,1,0,3:2:0:0:
128,238,260904,2,0,P|149:303|121:340,1,106.700003256226,10|0,2:0|2:0,0:0:0:0:
5,357,261253,6,0,L|187:357,1,160.050004884339,2|0,3:2|2:0,0:0:0:0:
186,360,261602,2,0,P|239:328|239:283,1,106.700003256226,10|0,2:0|2:0,0:0:0:0:
191,170,261950,1,2,3:2:0:0:
309,246,262125,1,2,3:2:0:0:
128,238,262299,1,10,2:0:0:0:
281,142,262474,1,2,2:0:0:0:
133,75,262648,6,0,P|164:158|270:129,1,213.400006512451,2|10,3:2|2:0,0:0:0:0:
346,32,263171,1,2,2:0:0:0:
442,150,263346,2,0,P|396:114|342:129,1,106.700003256226,0|2,3:2|3:2,0:0:0:0:
260,283,263695,2,0,P|296:233|395:251,1,160.050004884339,8|0,2:0|2:0,0:0:0:0:
401,256,264043,6,0,L|401:369,1,106.700003256226,2|0,3:2|2:0,0:0:0:0:
260,283,264392,2,0,P|235:234|259:188,1,106.700003256226,10|0,2:0|2:0,0:0:0:0:
352,106,264741,1,2,3:2:0:0:
251,26,264916,1,0,3:2:0:0:
352,106,265090,2,0,P|418:102|436:60,1,106.700003256226,10|0,2:0|2:0,0:0:0:0:
251,26,265439,6,0,P|194:24|158:81,1,116.399996447754,6|0,3:2|2:0,0:0:0:0:
37,162,265962,1,8,2:0:0:0:
42,148,266049,1,8,2:0:0:0:
49,133,266136,6,0,B|109:137|109:137|153:158|153:158|221:162,2,160.050004884339,8|8|4,2:3|2:3|2:3,0:0:0:0:
276,245,266834,6,0,B|222:228|194:266|198:268|168:304|108:290,1,174.599994671631,6|2,2:0|2:0,0:0:0:0:
296,144,267532,6,0,B|337:154|366:133|366:133|388:169|443:174,2,160.050004884339,8|8|8,2:0|2:0|2:0,0:0:0:0:
257,356,268229,5,6,3:2:0:0:
256,192,268317,12,0,273811,2:0:0:0:
