osu file format v14

[General]
AudioFilename: audio.mp3
AudioLeadIn: 0
PreviewTime: 206023
Countdown: 0
SampleSet: Soft
StackLeniency: 0.7
Mode: 0
LetterboxInBreaks: 0
EpilepsyWarning: 1
WidescreenStoryboard: 1

[Editor]
Bookmarks: 7166,14023,27737,41451,51737,55166,68880,82594,96309,110023,123737,134023,137451,151166,164880,178594,185451,192309,204309,204416,204523,204630,204737,204844,204951,205059,205166,205273,205380,205487,206023,219737,233451,247166
DistanceSpacing: 0.8
BeatDivisor: 4
GridSize: 16
TimelineZoom: 2.5

[Metadata]
Title:Aisubeki Hibi e
TitleUnicode:愛すべき日々へ
Artist:FROZEN QUALIA
ArtistUnicode:FROZEN QUALIA
Creator:Beomsan
Version:Tsumia's Extra
Source:
Tags:Tsumia Dailycare Down Enon Nasmoeb j-pop japanese kazuki yuki To lovable days pop
BeatmapID:2690998
BeatmapSetID:1291579

[Difficulty]
HPDrainRate:4
CircleSize:4
OverallDifficulty:8
ApproachRate:9.2
SliderMultiplier:3.1
SliderTickRate:1

[Events]
//Background and Video events
0,0,"bg1.jpg",0,0
//Break Periods
2,82794,88024
2,96509,109453
//Storyboard Layer 0 (Background)
//Storyboard Layer 1 (Fail)
//Storyboard Layer 2 (Pass)
//Storyboard Layer 3 (Foreground)
//Storyboard Layer 4 (Overlay)
//Storyboard Sound Samples

[TimingPoints]
309,428.571428571429,4,2,1,80,1,0
5451,-100,4,2,1,30,0,0
7166,-83.3333333333333,4,2,1,80,0,0
14023,-166.666666666667,4,2,1,80,0,0
14076,-166.666666666667,4,2,1,50,0,0
27309,-500,4,2,1,50,0,0
27630,-500,4,2,1,5,0,0
27737,-153.846153846154,4,2,1,65,0,0
41023,-117.647058823529,4,2,1,65,0,0
41451,-333.333333333333,4,2,2,70,0,0
41504,-333.333333333333,4,2,1,5,0,0
41666,-333.333333333333,4,2,1,70,0,0
42094,-333.333333333333,4,2,2,70,0,0
42147,-333.333333333333,4,2,1,5,0,0
42309,-333.333333333333,4,2,1,70,0,0
42737,-142.857142857143,4,2,2,70,0,0
43166,-333.333333333333,4,2,2,70,0,0
43219,-333.333333333333,4,2,1,5,0,0
43381,-333.333333333333,4,2,1,70,0,0
43809,-333.333333333333,4,2,2,70,0,0
43862,-333.333333333333,4,2,1,5,0,0
44024,-333.333333333333,4,2,1,70,0,0
44451,-125,4,2,2,70,0,0
44880,-333.333333333333,4,2,2,70,0,0
44933,-333.333333333333,4,2,1,5,0,0
45095,-333.333333333333,4,2,1,70,0,0
45523,-333.333333333333,4,2,2,70,0,0
45576,-333.333333333333,4,2,1,5,0,0
45738,-333.333333333333,4,2,1,70,0,0
46166,-111.111111111111,4,2,2,70,0,0
46594,-100,4,2,2,70,0,0
46809,-100,4,2,1,70,0,0
48309,-222.222222222222,4,2,1,70,0,0
48416,-222.222222222222,4,2,1,60,0,0
49166,-166.666666666667,4,2,1,60,0,0
50023,-200,4,2,1,60,0,0
50880,-153.846153846154,4,2,1,60,0,0
51523,-117.647058823529,4,2,1,60,0,0
51737,-100,4,2,1,60,0,0
51844,-100,4,2,1,30,0,0
52166,-100,4,2,1,35,0,0
52594,-100,4,2,1,40,0,0
52809,-100,4,2,1,43,0,0
53023,-100,4,2,1,45,0,0
53237,-100,4,2,1,48,0,0
53451,-100,4,2,1,50,0,0
53666,-100,4,2,1,53,0,0
53880,-100,4,2,1,55,0,0
54094,-100,4,2,1,58,0,0
54309,-100,4,2,1,60,0,0
54523,-100,4,2,1,63,0,0
54737,-100,4,2,1,65,0,0
54951,-100,4,2,1,68,0,0
55166,-80,4,2,1,80,0,1
68451,-80,4,2,1,80,0,0
68880,-80,4,2,1,80,0,1
82594,-100,4,2,1,80,0,0
88594,-166.666666666667,4,2,3,60,0,0
94809,-166.666666666667,4,2,3,50,0,0
96309,-250,4,2,1,40,0,0
110023,-153.846153846154,4,2,1,65,0,0
113344,-153.846153846154,4,2,1,20,0,0
113451,-153.846153846154,4,2,1,65,0,0
120201,-153.846153846154,4,2,1,20,0,0
120308,-153.846153846154,4,2,1,65,0,0
123737,-100,4,2,1,70,0,0
129309,-100,4,2,1,70,0,0
130701,-100,4,2,1,60,0,0
134451,-100,4,2,1,62,0,0
134880,-100,4,2,1,64,0,0
135309,-100,4,2,1,66,0,0
135737,-100,4,2,1,68,0,0
136166,-100,4,2,1,70,0,0
136380,-100,4,2,1,72,0,0
136594,-83.3333333333333,4,2,1,74,0,0
137023,-83.3333333333333,4,2,1,76,0,0
137451,-80,4,2,1,80,0,1
150737,-80,4,2,1,80,0,0
151166,-80,4,2,1,80,0,1
164023,-80,4,2,1,75,0,1
164451,-80,4,2,1,70,0,1
164880,-142.857142857143,4,2,4,65,0,0
177737,-142.857142857143,4,2,1,65,0,0
178594,-100,4,2,1,70,0,0
189309,-111.111111111111,4,2,4,70,0,0
189416,-111.111111111111,4,2,1,70,0,0
189523,-111.111111111111,4,2,4,70,0,0
189737,-111.111111111111,4,2,1,70,0,0
191023,-111.111111111111,4,2,1,65,0,0
191451,-125,4,2,1,60,0,0
191559,-125,4,2,1,5,0,0
191666,-105.263157894737,4,2,1,65,0,0
191773,-105.263157894737,4,2,1,5,0,0
191880,-90.9090909090909,4,2,1,70,0,0
191987,-90.9090909090909,4,2,1,5,0,0
192094,-80,4,2,1,75,0,0
192201,-80,4,2,1,5,0,0
192308,-125,4,2,1,70,0,0
203237,-125,4,2,1,80,0,0
203344,-125,4,2,1,5,0,0
203451,-111.111111111111,4,2,1,80,0,0
203559,-111.111111111111,4,2,1,5,0,0
203666,-100,4,2,1,80,0,0
203773,-100,4,2,1,5,0,0
203880,-86.9565217391304,4,2,1,80,0,0
203987,-86.9565217391304,4,2,1,5,0,0
204094,-76.9230769230769,4,2,1,80,0,0
204201,-76.9230769230769,4,2,1,5,0,0
205594,-111.111111111111,4,2,1,80,0,0
206023,-80,4,2,1,80,0,1
219309,-80,4,2,1,80,0,0
219737,-80,4,2,1,80,0,1
233451,-83.3333333333333,4,2,1,80,0,0
245880,-83.3333333333333,4,2,1,65,0,0
245987,-83.3333333333333,4,2,1,66,0,0
246094,-83.3333333333333,4,2,1,68,0,0
246201,-83.3333333333333,4,2,1,69,0,0
246309,-83.3333333333333,4,2,1,70,0,0
246416,-83.3333333333333,4,2,1,71,0,0
246523,-83.3333333333333,4,2,1,73,0,0
246630,-83.3333333333333,4,2,1,74,0,0
246737,-83.3333333333333,4,2,1,75,0,0
246844,-83.3333333333333,4,2,1,76,0,0
246951,-83.3333333333333,4,2,1,78,0,0
247059,-83.3333333333333,4,2,1,79,0,0
247166,-83.3333333333333,4,2,1,40,0,0

[Colours]
Combo1 : 255,128,131
Combo2 : 255,239,176
Combo3 : 67,248,149

[HitObjects]
256,192,5451,12,0,6951,0:0:0:0:
45,45,7166,6,0,B|100:19|137:57|112:78|152:115|211:91,1,185.999994323731,6|0,3:2|0:0,0:0:0:0:
305,56,7487,1,10,0:2:0:0:
305,56,7594,2,0,L|280:158,1,92.9999971618653,0|0,3:2|0:0,0:0:0:0:
315,262,7809,2,0,P|274:183|186:186,1,185.999994323731,10|0,0:2|3:0,0:0:0:0:
57,180,8130,1,8,0:2:0:0:
57,180,8237,2,0,L|82:282,1,92.9999971618653,2|8,0:0|0:2,0:0:0:0:
175,300,8451,2,0,L|130:119,1,185.999994323731,0|10,3:0|0:2,0:0:0:0:
45,45,8773,1,0,0:0:0:0:
45,45,8880,6,0,B|100:19|137:57|112:78|152:115|211:91,1,185.999994323731,2|0,3:2|0:0,0:0:0:0:
281,121,9201,1,10,0:2:0:0:
333,59,9309,2,0,P|420:73|441:157,1,185.999994323731,0|10,3:0|0:2,0:0:0:0:
512,304,9630,1,0,0:0:0:0:
479,230,9737,2,0,P|441:256|431:300,1,92.9999971618653,0|8,3:0|0:2,0:0:0:0:
361,384,9951,2,0,P|356:338|323:307,1,92.9999971618653,2|8,0:0|0:2,0:0:0:0:
363,194,10166,2,0,L|159:239,1,185.999994323731,0|10,3:0|0:2,0:0:0:0:
76,254,10487,1,2,0:0:0:0:
169,331,10594,6,0,B|209:365|209:365|181:234,1,185.999994323731,2|0,3:2|0:0,0:0:0:0:
137,80,10916,1,8,0:2:0:0:
137,80,11023,2,0,L|117:170,1,92.9999971618653,0|0,3:0|0:0,0:0:0:0:
237,96,11237,2,0,L|217:5,1,92.9999971618653,10|0,0:2|0:0,0:0:0:0:
16,60,11451,2,0,P|31:147|116:170,1,185.999994323731,0|0,3:0|0:0,0:0:0:0:
159,313,11773,1,8,0:2:0:0:
181,235,11880,2,0,P|218:204|290:225,1,92.9999971618653,2|0,3:2|0:0,0:0:0:0:
403,290,12094,2,0,P|357:291|321:263,1,92.9999971618653,8|0,0:2|0:0,0:0:0:0:
345,32,12309,6,0,L|383:216,1,185.999994323731,6|0,3:2|0:0,0:0:0:0:
426,370,12630,1,0,0:0:0:0:
499,331,12737,5,0,3:0:0:0:
474,303,12844,1,0,0:0:0:0:
440,288,12951,1,8,0:2:0:0:
403,290,13059,1,8,0:2:0:0:
370,308,13166,5,0,3:0:0:0:
394,250,13273,1,8,0:2:0:0:
372,192,13380,1,8,0:2:0:0:
313,166,13487,1,8,0:2:0:0:
253,189,13594,5,8,3:2:0:0:
227,247,13701,1,8,0:2:0:0:
168,269,13809,1,0,3:0:0:0:
110,242,13916,1,0,3:0:0:0:
88,182,14023,6,0,L|128:-14,1,185.999994323731,4|0,3:2|3:0,0:0:0:0:
125,0,14666,1,2,0:0:0:0:
188,91,14880,2,0,L|209:-11,1,92.9999971618653,2|0,3:2|0:0,0:0:0:0:
304,154,15309,1,2,3:2:0:0:
273,76,15523,1,0,0:0:0:0:
228,180,15737,2,0,P|270:232|345:228,2,139.499995742798,2|0|2,3:2|0:0|0:0,0:0:0:0:
273,76,16594,2,0,L|465:117,1,185.999994323731,0|0,3:0|3:0,0:0:0:0:
455,115,17237,2,0,L|445:69,1,46.4999985809327,2|2,0:0|0:0,0:0:0:0:
512,179,17451,6,0,P|479:264|387:255,1,185.999994323731,2|0,3:2|3:0,0:0:0:0:
222,211,18094,1,2,0:0:0:0:
292,163,18309,2,0,B|315:206|315:206|299:247,1,92.9999971618653,0|2,3:0|0:0,0:0:0:0:
238,380,18737,2,0,B|214:336|214:336|230:295,1,92.9999971618653,0|2,3:0|0:0,0:0:0:0:
299,247,19166,2,0,L|101:277,1,185.999994323731,2|0,3:2|0:0,0:0:0:0:
39,325,19809,2,0,L|24:226,2,92.9999971618653,2|0|2,0:0|3:0|0:0,0:0:0:0:
102,192,20451,1,0,3:0:0:0:
46,371,20666,2,0,L|38:321,1,46.4999985809327,2|2,0:0|0:0,0:0:0:0:
25,233,20880,5,2,3:2:0:0:
25,233,21309,1,0,3:0:0:0:
102,192,21523,1,2,0:2:0:0:
40,59,21737,2,0,L|26:150,1,92.9999971618653,2|0,3:2|0:0,0:0:0:0:
115,100,22166,2,0,L|101:191,1,92.9999971618653,2|2,3:2|0:2,0:0:0:0:
40,59,22594,2,0,P|80:21|195:71,1,185.999994323731,2|0,3:2|0:0,0:0:0:0:
245,121,23237,1,2,0:0:0:0:
101,191,23451,2,0,L|115:100,1,92.9999971618653,0|0,3:0|0:0,0:0:0:0:
190,60,23880,1,0,3:0:0:0:
239,168,24094,2,0,L|245:122,1,46.4999985809327,2|2,0:2|0:2,0:0:0:0:
293,53,24309,6,0,P|380:55|412:137,1,185.999994323731,2|0,3:2|3:0,0:0:0:0:
431,220,24951,1,2,0:0:0:0:
334,187,25166,2,0,L|356:277,1,92.9999971618653,0|2,3:0|0:0,0:0:0:0:
374,353,25594,1,0,3:0:0:0:
334,187,25809,1,2,0:0:0:0:
214,300,26023,2,0,B|266:276|304:313|276:332|316:373|375:352,1,185.999994323731,2|0,3:2|3:0,0:0:0:0:
356,277,26666,1,0,0:0:0:0:
214,384,26880,2,0,P|197:341|214:299,1,92.9999971618653,0|2,3:0|0:0,0:0:0:0:
88,147,27309,6,0,L|98:192,1,46.5,0|0,3:0|0:0,0:0:0:0:
98,192,27737,6,0,L|220:166,1,100.749995388031,4|0,3:2|0:0,0:0:0:0:
280,152,28166,1,0,3:0:0:0:
280,152,28380,1,8,3:3:0:0:
175,269,28594,2,0,L|201:147,1,100.749995388031,0|0,0:0|3:0,0:0:0:0:
258,53,29023,2,0,L|281:160,1,100.749995388031,8|0,3:3|0:0,0:0:0:0:
175,269,29344,1,0,0:0:0:0:
175,269,29451,6,0,L|281:246,1,100.749995388031,0|8,3:0|3:3,0:0:0:0:
450,325,29880,1,0,3:0:0:0:
390,182,30094,2,0,P|366:225|377:273,2,100.749995388031,8|0|0,3:3|0:0|0:0,0:0:0:0:
484,103,30737,1,8,3:3:0:0:
451,236,30951,1,0,0:0:0:0:
484,103,31166,6,0,P|434:22|341:40,1,201.499990776062,4|0,3:0|3:0,0:0:0:0:
243,17,31809,2,0,L|276:123,1,100.749995388031,8|0,3:3|0:0,0:0:0:0:
341,40,32237,1,0,3:0:0:0:
177,97,32451,1,8,3:3:0:0:
303,209,32666,5,0,0:0:0:0:
303,209,32773,1,0,0:0:0:0:
303,209,32880,2,0,L|270:105,1,100.749995388031,0|8,3:0|3:3,0:0:0:0:
272,112,33309,1,0,3:0:0:0:
144,195,33523,2,0,P|126:247|150:294,1,100.749995388031,8|0,3:3|3:0,0:0:0:0:
222,340,33951,1,0,3:0:0:0:
303,209,34166,2,0,L|207:240,1,100.749995388031,8|0,3:3|0:0,0:0:0:0:
19,321,34487,1,0,0:0:0:0:
19,321,34594,6,0,B|78:355|78:355|42:225,1,201.499990776062,4|0,3:0|3:0,0:0:0:0:
62,57,35237,2,0,P|30:98|37:151,2,100.749995388031,8|0|0,3:3|0:0|3:0,0:0:0:0:
176,9,35880,1,8,3:3:0:0:
111,121,36094,1,0,0:0:0:0:
111,121,36201,1,0,0:0:0:0:
111,121,36309,6,0,L|217:143,1,100.749995388031,0|8,3:0|3:3,0:0:0:0:
294,196,36737,1,0,3:0:0:0:
113,208,36951,2,0,L|219:230,1,100.749995388031,8|0,3:3|3:0,0:0:0:0:
355,257,37380,1,0,0:0:0:0:
308,117,37594,1,8,3:3:0:0:
211,228,37809,5,0,0:0:0:0:
211,228,37916,1,0,0:0:0:0:
211,228,38023,2,0,L|104:205,2,100.749995388031,0|0|0,3:0|0:0|3:0,0:0:0:0:
355,257,38666,1,8,3:3:0:0:
259,55,38880,2,0,P|229:94|232:143,1,100.749995388031,0|0,0:0|3:0,0:0:0:0:
272,292,39309,1,8,3:3:0:0:
308,117,39523,1,0,0:0:0:0:
453,276,39737,6,0,L|354:256,1,100.749995388031,0|8,3:0|3:3,0:0:0:0:
232,143,40166,1,0,3:0:0:0:
273,283,40380,2,0,P|231:374|133:353,1,201.499990776062,8|0,3:3|3:0,0:0:0:0:
76,270,41023,1,8,3:2:0:0:
76,270,41130,1,0,0:0:0:0:
76,270,41237,2,0,L|58:335,1,65.8750012564659,0|0,0:0|0:0,0:0:0:0:
21,158,41451,6,0,L|17:139,1,11.6249996452332,2|0,1:2|0:0,0:0:0:0:
99,183,41666,1,0,0:0:0:0:
161,127,41880,1,0,3:0:0:0:
3,76,42094,6,0,L|0:64,1,11.6249996452332,2|0,1:2|0:0,0:0:0:0:
63,20,42309,1,0,3:0:0:0:
143,47,42523,1,0,3:0:0:0:
161,127,42737,6,0,L|224:109,1,54.2499983444214,2|0,1:2|0:0,0:0:0:0:
271,42,42951,2,0,L|323:56,1,54.2499983444214,0|0,1:0|1:0,0:0:0:0:
448,239,43166,6,0,L|444:258,1,11.6249996452332,2|0,1:2|0:0,0:0:0:0:
510,175,43381,1,0,0:0:0:0:
365,217,43595,1,0,3:0:0:0:
402,71,43809,6,0,L|404:59,1,11.6249996452332,2|0,1:2|0:0,0:0:0:0:
341,133,44023,1,0,3:0:0:0:
489,92,44237,1,0,3:0:0:0:
382,276,44451,6,0,L|364:216,1,62,2|0,1:2|0:0,0:0:0:0:
323,73,44666,2,0,L|340:132,1,62,0|0,1:0|1:0,0:0:0:0:
196,365,44880,6,0,L|193:353,1,11.6249996452332,2|0,1:2|0:0,0:0:0:0:
74,236,45095,1,0,0:0:0:0:
246,193,45309,1,0,3:0:0:0:
98,336,45523,6,0,L|100:347,1,11.6249996452332,2|0,1:2|0:0,0:0:0:0:
148,165,45738,1,0,3:0:0:0:
270,291,45951,1,0,3:0:0:0:
74,236,46166,6,0,L|-2:216,1,69.749997871399,2|0,1:2|0:0,0:0:0:0:
246,193,46380,2,0,L|304:131,1,69.749997871399,0|0,1:0|1:0,0:0:0:0:
118,81,46594,5,2,1:2:0:0:
167,243,46809,1,0,3:0:0:0:
42,43,47023,5,8,3:2:0:0:
92,0,47130,1,8,3:2:0:0:
155,12,47237,1,8,3:2:0:0:
161,24,47344,1,8,0:0:0:0:
166,36,47451,5,0,3:0:0:0:
118,81,47558,1,8,0:2:0:0:
116,145,47665,1,8,0:2:0:0:
161,193,47773,1,8,0:2:0:0:
225,193,47880,5,8,3:2:0:0:
257,155,47987,1,8,0:2:0:0:
305,144,48094,1,0,3:0:0:0:
351,158,48201,1,0,3:0:0:0:
378,195,48309,6,0,L|342:344,1,139.499995742798,4|0,3:2|0:0,0:0:0:0:
345,330,48951,1,2,3:2:0:0:
238,362,49166,6,0,B|280:326|273:280|273:280|292:322|345:330,1,185.999994323731,0|0,3:0|0:0,0:0:0:0:
484,297,49809,1,2,3:2:0:0:
425,365,50023,6,0,L|461:208,1,155,0|0,3:0|0:0,0:0:0:0:
426,14,50666,1,2,3:2:0:0:
465,93,50880,6,0,P|420:187|328:165,1,201.499990776062,0|0,0:0|3:0,0:0:0:0:
206,119,51523,1,2,3:2:0:0:
105,218,51737,6,0,L|205:199,1,77.5,6|8,3:2|0:2,0:0:0:0:
261,188,51951,2,0,L|337:173,1,77.5,8|8,0:2|0:2,0:0:0:0:
145,293,52166,6,0,L|245:274,1,77.5,8|8,3:2|0:2,0:0:0:0:
301,263,52380,2,0,L|377:248,2,77.5,10|8|10,0:2|0:2|3:2,0:0:0:0:
145,293,52701,1,8,0:2:0:0:
145,293,52809,6,0,L|245:274,1,77.5,8|8,0:2|0:2,0:0:0:0:
337,173,53023,2,0,L|261:188,1,77.5,8|8,3:2|0:2,0:0:0:0:
138,119,53237,2,0,L|238:100,1,77.5,10|8,0:2|0:2,0:0:0:0:
473,49,53451,5,10,3:2:0:0:
433,12,53559,1,8,0:2:0:0:
378,4,53666,1,8,0:2:0:0:
329,27,53773,1,8,0:2:0:0:
301,75,53880,1,8,3:2:0:0:
304,129,53987,1,8,0:2:0:0:
339,172,54094,1,10,0:2:0:0:
389,186,54201,1,8,0:2:0:0:
439,170,54309,5,10,3:2:0:0:
384,114,54416,1,8,0:2:0:0:
305,106,54523,1,8,0:2:0:0:
239,150,54630,1,8,0:2:0:0:
216,226,54737,1,10,3:2:0:0:
149,269,54844,1,8,0:2:0:0:
70,258,54951,1,8,0:2:0:0:
16,198,55059,1,8,0:2:0:0:
13,117,55166,6,0,B|95:96|95:96|117:113|117:113|208:93,1,193.75,4|0,3:2|0:0,0:0:0:0:
277,78,55487,1,0,3:0:0:0:
227,12,55594,2,0,P|196:48|196:95,1,96.875,8|0,0:2|0:0,0:0:0:0:
409,153,55809,2,0,P|367:71|276:78,1,193.75,0|0,3:0|3:0,0:0:0:0:
201,271,56130,2,0,L|300:245,1,96.875,8|2,0:2|0:0,0:0:0:0:
452,279,56344,1,2,3:2:0:0:
452,279,56451,2,0,B|389:276|371:233|371:233|386:277|338:315,1,193.75,10|2,0:2|3:2,0:0:0:0:
126,235,56773,1,0,0:0:0:0:
201,271,56880,6,0,P|226:311|219:358,2,96.875,2|0|0,3:2|0:0|0:0,0:0:0:0:
145,148,57201,1,0,3:0:0:0:
145,148,57309,2,0,P|119:188|126:235,1,96.875,8|0,0:2|0:0,0:0:0:0:
55,382,57523,1,0,3:0:0:0:
136,369,57630,1,0,0:0:0:0:
219,358,57737,2,0,P|225:310|200:270,1,96.875,0|8,3:0|0:2,0:0:0:0:
50,168,57951,2,0,L|154:146,1,96.875,2|2,0:0|3:2,0:0:0:0:
396,28,58166,2,0,B|339:4|300:43|326:66|290:106|228:82,1,193.75,10|2,0:2|0:0,0:0:0:0:
144,147,58487,1,0,3:2:0:0:
123,65,58594,6,0,P|210:90|221:181,1,193.75,2|0,3:2|0:0,0:0:0:0:
294,249,58916,2,0,L|199:270,1,96.875,0|8,3:0|0:2,0:0:0:0:
96,233,59130,1,0,0:0:0:0:
143,146,59237,2,0,L|107:360,1,193.75,0|0,3:0|3:0,0:0:0:0:
8,364,59559,1,8,0:2:0:0:
8,364,59666,2,0,L|27:245,1,96.875,0|0,0:0|3:0,0:0:0:0:
45,119,59880,2,0,B|13:171|13:171|173:140,1,193.75,8|0,0:2|0:0,0:0:0:0:
300,72,60201,1,0,0:0:0:0:
300,72,60309,6,0,B|261:28|261:28|204:97|252:151,1,193.75,0|0,3:0|0:0,0:0:0:0:
393,244,60630,1,0,3:0:0:0:
428,170,60737,2,0,P|379:159|338:180,1,96.875,8|0,0:2|0:0,0:0:0:0:
276,314,60951,5,2,3:2:0:0:
280,323,61059,1,0,0:0:0:0:
207,355,61166,5,2,3:2:0:0:
204,365,61274,1,8,0:2:0:0:
129,343,61379,5,2,0:0:0:0:
120,349,61487,1,0,3:0:0:0:
85,275,61594,5,10,0:2:0:0:
121,200,61701,1,8,0:2:0:0:
202,181,61809,1,2,3:2:0:0:
266,232,61916,1,0,3:0:0:0:
276,314,62023,6,0,B|320:364|320:364|450:326,1,193.75,4|0,3:2|0:0,0:0:0:0:
512,219,62344,1,0,3:0:0:0:
512,219,62451,2,0,L|390:190,1,96.875,8|0,0:2|0:0,0:0:0:0:
308,34,62666,2,0,P|338:69|333:116,1,96.875,0|0,3:0|0:0,0:0:0:0:
417,196,62880,1,0,3:0:0:0:
431,119,62987,2,0,B|373:99|333:143|357:165|321:203|264:182,1,193.75,8|2,0:2|3:2,0:0:0:0:
151,70,63309,2,0,B|205:34|205:34|183:178,1,193.75,10|2,0:2|0:0,0:0:0:0:
174,247,63630,1,0,0:0:0:0:
105,171,63737,6,0,P|15:189|1:283,1,193.75,2|0,3:2|0:0,0:0:0:0:
15,372,64059,2,0,L|108:345,1,96.875,0|8,3:0|0:2,0:0:0:0:
283,284,64273,1,0,0:0:0:0:
208,344,64380,2,0,B|186:261|186:261|204:238|204:238|185:162,1,193.75,0|0,3:0|3:0,0:0:0:0:
128,0,64701,1,8,0:2:0:0:
128,0,64809,2,0,L|104:100,1,96.875,2|2,0:0|3:2,0:0:0:0:
185,161,65023,2,0,L|207:66,1,96.875,10|0,0:2|0:0,0:0:0:0:
32,144,65237,6,0,P|58:105|104:93,1,96.875,2|0,3:2|3:2,0:0:0:0:
255,264,65451,2,0,B|197:272|166:227|197:209|167:156|107:172,1,193.75,2|0,3:2|0:0,0:0:0:0:
27,231,65773,1,0,3:0:0:0:
27,231,65880,2,0,L|58:331,1,96.875,8|0,0:2|0:0,0:0:0:0:
214,374,66094,2,0,P|304:368|330:281,1,193.75,0|0,3:0|3:0,0:0:0:0:
282,103,66416,1,8,0:2:0:0:
282,103,66523,2,0,B|266:153|266:153|296:205,1,96.875,0|0,0:0|3:0,0:0:0:0:
278,337,66737,2,0,L|466:290,1,193.75,8|0,0:2|0:0,0:0:0:0:
465,290,67059,1,0,3:0:0:0:
467,384,67166,6,0,L|278:337,1,193.75,0|0,3:0|0:0,0:0:0:0:
144,262,67487,1,0,3:0:0:0:
144,262,67594,2,0,P|169:303|158:349,1,96.875,8|0,0:2|0:0,0:0:0:0:
270,76,67809,1,0,3:0:0:0:
199,36,67916,1,0,0:0:0:0:
126,70,68023,2,0,P|99:108|107:155,1,96.875,0|8,3:0|0:2,0:0:0:0:
1,297,68237,2,0,P|20:254|65:237,1,96.875,0|0,0:0|3:0,0:0:0:0:
279,332,68451,5,8,3:2:0:0:
350,377,68559,1,8,0:2:0:0:
432,351,68666,1,0,3:0:0:0:
465,270,68773,1,0,3:0:0:0:
423,194,68880,6,0,L|225:228,1,193.75,6|0,3:2|0:0,0:0:0:0:
118,92,69201,1,10,0:2:0:0:
118,92,69309,2,0,L|138:186,1,96.875,0|0,3:0|0:0,0:0:0:0:
32,295,69523,2,0,P|49:205|138:186,1,193.75,10|0,0:2|3:0,0:0:0:0:
294,166,69844,1,8,0:2:0:0:
193,47,69951,2,0,L|213:141,1,96.875,2|8,0:0|0:2,0:0:0:0:
232,226,70166,1,0,3:0:0:0:
193,47,70380,2,0,L|316:74,1,96.875,10|0,0:2|0:0,0:0:0:0:
512,110,70594,6,0,P|464:109|428:140,1,96.875,2|0,3:2|0:0,0:0:0:0:
297,170,70809,1,0,0:0:0:0:
297,170,70916,2,0,P|343:179|371:217,1,96.875,10|0,0:2|3:0,0:0:0:0:
495,187,71130,1,0,0:0:0:0:
402,40,71237,2,0,L|370:266,1,193.75,10|0,0:2|3:0,0:0:0:0:
436,379,71559,1,8,0:2:0:0:
512,339,71666,2,0,P|482:302|400:313,1,96.875,2|8,0:0|0:2,0:0:0:0:
374,231,71880,1,0,3:0:0:0:
207,372,72094,5,10,0:2:0:0:
207,372,72201,1,0,0:0:0:0:
207,372,72309,2,0,P|108:361|98:269,1,193.75,6|0,3:2|0:0,0:0:0:0:
11,211,72630,1,10,0:2:0:0:
11,211,72737,2,0,L|120:181,1,96.875,0|0,3:0|0:0,0:0:0:0:
219,102,72951,2,0,B|159:74|159:74|194:196,1,193.75,10|0,0:2|3:0,0:0:0:0:
176,276,73273,1,8,0:2:0:0:
290,206,73380,2,0,L|260:319,1,96.875,2|8,0:0|0:2,0:0:0:0:
246,380,73594,1,0,3:0:0:0:
81,298,73809,2,0,L|175:276,1,96.875,10|0,0:2|0:0,0:0:0:0:
383,154,74023,6,0,L|193:195,1,193.75,2|0,3:2|0:0,0:0:0:0:
90,24,74344,2,0,P|125:54|128:102,1,96.875,10|0,0:2|3:2,0:0:0:0:
194,196,74559,1,0,0:0:0:0:
224,116,74666,2,0,P|128:136|110:226,1,193.75,10|0,0:2|3:2,0:0:0:0:
336,217,74987,1,8,0:2:0:0:
336,217,75094,2,0,L|310:110,1,96.875,2|8,0:0|0:2,0:0:0:0:
291,28,75309,2,0,L|312:121,1,96.875,8|0,3:2|0:0,0:0:0:0:
354,296,75523,1,10,0:2:0:0:
435,34,75737,6,0,P|405:120|314:124,1,193.75,6|0,3:2|0:0,0:0:0:0:
209,31,76059,1,10,0:2:0:0:
209,31,76166,2,0,L|230:124,1,96.875,0|0,3:0|0:0,0:0:0:0:
32,237,76380,2,0,P|61:150|152:146,1,193.75,10|0,0:2|3:0,0:0:0:0:
282,263,76701,1,8,0:2:0:0:
220,206,76809,2,0,P|195:247|209:301,1,96.875,2|8,0:0|0:2,0:0:0:0:
265,372,77023,1,0,3:0:0:0:
118,319,77237,2,0,P|155:290|202:292,1,96.875,10|0,0:2|0:0,0:0:0:0:
354,336,77451,6,0,L|378:243,1,96.875,2|0,3:2|0:0,0:0:0:0:
473,227,77666,1,0,0:0:0:0:
473,227,77773,2,0,L|449:320,1,96.875,10|0,0:2|3:0,0:0:0:0:
354,336,77987,1,0,0:0:0:0:
406,169,78094,2,0,P|361:92|265:108,1,193.75,10|0,0:2|3:0,0:0:0:0:
187,17,78416,2,0,B|245:63|245:63|208:195,1,193.75,8|8,0:2|0:2,0:0:0:0:
156,276,78737,2,0,L|250:257,1,96.875,0|0,3:0|0:0,0:0:0:0:
250,256,78951,1,10,0:2:0:0:
101,342,79166,6,0,P|14:316|12:225,1,193.75,6|0,3:2|0:0,0:0:0:0:
70,166,79487,1,8,0:2:0:0:
70,166,79594,2,0,L|43:65,1,96.875,2|0,3:2|0:0,0:0:0:0:
89,3,79809,2,0,P|134:-8|178:17,1,96.875,8|0,0:2|0:0,0:0:0:0:
217,87,80023,6,0,P|232:165|363:139,1,193.75,2|0,3:2|0:0,0:0:0:0:
425,198,80344,1,8,0:2:0:0:
425,198,80451,2,0,L|400:104,1,96.875,2|0,3:2|0:0,0:0:0:0:
475,47,80666,2,0,L|500:141,1,96.875,8|0,0:2|0:0,0:0:0:0:
443,282,80880,5,2,3:2:0:0:
437,294,81094,5,8,0:2:0:0:
380,358,81201,1,8,0:2:0:0:
303,314,81309,1,0,3:0:0:0:
296,303,81523,5,8,0:2:0:0:
239,238,81630,1,8,0:2:0:0:
162,282,81737,2,0,L|184:390,1,96.875,2|0,3:2|0:0,0:0:0:0:
332,220,81951,2,0,L|312:125,1,96.875,10|8,0:2|0:2,0:0:0:0:
175,20,82166,5,10,3:2:0:0:
94,2,82273,1,8,0:2:0:0:
24,47,82380,1,10,0:2:0:0:
10,127,82487,1,8,0:2:0:0:
53,196,82594,1,6,0:2:0:0:
107,229,88594,5,2,0:2:0:0:
249,183,88809,1,2,0:2:0:0:
45,162,89023,5,2,0:2:0:0:
262,94,89238,1,2,0:0:0:0:
119,3,89451,6,0,L|99:114,1,92.9999971618653,2|0,0:2|0:0,0:0:0:0:
102,94,89773,1,2,0:2:0:0:
102,94,89880,1,0,0:0:0:0:
197,37,90094,2,0,L|408:76,1,185.999994323731,2|2,0:2|0:2,0:0:0:0:
341,148,90737,2,0,L|446:167,1,92.9999971618653,0|2,0:0|0:2,0:0:0:0:
504,119,91166,5,2,0:2:0:0:
443,210,91380,2,0,L|432:164,2,46.4999985809327,0|2|0,0:0|0:2|0:0,0:0:0:0:
511,266,91809,2,0,P|491:358|403:357,1,185.999994323731,2|2,0:2|0:2,0:0:0:0:
341,315,92451,1,0,0:0:0:0:
268,360,92666,2,0,L|257:314,1,46.4999985809327,2|0,0:0|0:0,0:0:0:0:
258,233,92880,6,0,P|264:188|239:150,2,92.9999971618653,2|0|0,0:2|0:0|0:0,0:0:0:0:
54,285,93523,2,0,P|93:205|181:206,1,185.999994323731,2|2,0:2|0:3,0:0:0:0:
258,233,94166,2,0,L|230:343,1,92.9999971618653,2|2,0:2|0:3,0:0:0:0:
235,323,94594,1,2,0:2:0:0:
256,192,94809,12,4,96309,0:2:0:0:
503,73,110023,6,0,B|370:53|370:53|336:110,1,201.499990776062,4|0,3:2|3:0,0:0:0:0:
417,145,110666,1,8,3:3:0:0:
310,13,110880,2,0,L|337:115,1,100.749995388031,0|0,3:0|0:0,0:0:0:0:
368,217,111309,1,8,3:3:0:0:
248,105,111523,1,0,0:0:0:0:
248,105,111630,1,0,0:0:0:0:
248,105,111737,6,0,L|146:132,1,100.749995388031,0|8,3:0|3:3,0:0:0:0:
66,235,112166,1,0,3:0:0:0:
105,64,112380,2,0,P|71:100|70:149,1,100.749995388031,8|0,3:3|3:0,0:0:0:0:
139,297,112809,1,0,0:0:0:0:
150,130,113023,2,0,P|220:129|261:192,1,151.124993082047,8|0,3:3|0:0,0:0:0:0:
264,198,113451,6,0,L|284:99,1,100.749995388031,0|0,3:0|0:0,0:0:0:0:
322,261,113880,1,0,3:0:0:0:
139,297,114094,2,0,L|237:276,1,100.749995388031,8|0,3:3|3:0,0:0:0:0:
420,240,114523,2,0,L|321:260,1,100.749995388031,0|8,0:0|3:3,0:0:0:0:
284,99,114951,1,0,0:0:0:0:
284,99,115059,1,0,0:0:0:0:
284,99,115166,6,0,L|263:197,1,100.749995388031,0|8,3:0|3:3,0:0:0:0:
321,260,115594,1,0,3:0:0:0:
360,78,115809,2,0,P|336:35|256:30,2,100.749995388031,8|0|0,3:3|3:0|0:0,0:0:0:0:
321,260,116451,1,8,3:3:0:0:
164,216,116666,1,0,0:0:0:0:
164,216,116773,1,0,0:0:0:0:
164,216,116880,6,0,L|205:18,1,201.499990776062,0|0,3:0|3:0,0:0:0:0:
36,4,117523,2,0,P|84:10|113:50,1,100.749995388031,8|0,3:3|3:0,0:0:0:0:
259,123,117951,2,0,P|212:108|169:132,1,100.749995388031,0|8,0:0|3:3,0:0:0:0:
25,222,118380,1,0,0:0:0:0:
25,222,118487,1,0,0:0:0:0:
25,222,118594,6,0,L|51:322,1,100.749995388031,0|8,3:0|3:3,0:0:0:0:
118,374,119023,1,0,3:0:0:0:
106,184,119237,2,0,L|132:284,1,100.749995388031,8|0,3:3|3:0,0:0:0:0:
118,374,119666,1,0,0:0:0:0:
215,244,119880,2,0,L|389:281,1,151.124993082047,8|0,3:3|0:0,0:0:0:0:
370,277,120309,6,0,L|349:175,1,100.749995388031,0|0,3:0|0:0,0:0:0:0:
439,333,120737,1,0,3:0:0:0:
464,77,120951,2,0,P|468:126|434:163,1,100.749995388031,8|0,3:3|3:0,0:0:0:0:
349,178,121380,2,0,P|303:156|288:109,1,100.749995388031,0|8,0:0|3:3,0:0:0:0:
318,29,121809,1,0,0:0:0:0:
436,162,122023,5,0,3:0:0:0:
288,111,122237,1,8,3:3:0:0:
406,8,122451,1,0,3:0:0:0:
349,178,122666,2,0,L|131:119,1,201.499990776062,8|0,3:3|3:0,0:0:0:0:
48,61,123309,1,2,3:2:0:0:
48,61,123416,1,2,0:0:0:0:
48,61,123523,2,0,L|62:128,1,50.3749976940156,2|2,0:0|0:0,0:0:0:0:
89,303,123737,5,10,0:2:0:0:
0,179,123951,1,0,3:0:0:0:
17,354,124166,5,10,0:2:0:0:
80,215,124380,1,0,3:0:0:0:
170,340,124594,5,10,0:2:0:0:
8,266,124809,1,0,3:0:0:0:
238,202,125023,5,10,0:2:0:0:
89,303,125237,1,0,3:0:0:0:
89,303,125344,1,0,3:0:0:0:
89,303,125451,5,10,0:2:0:0:
250,376,125666,1,0,3:0:0:0:
152,164,125879,5,10,0:2:0:0:
170,340,126094,1,0,3:0:0:0:
231,118,126308,5,10,0:2:0:0:
89,303,126523,1,0,3:0:0:0:
330,353,126737,5,10,0:2:0:0:
152,164,126951,1,0,3:0:0:0:
152,164,127059,1,0,3:0:0:0:
152,164,127166,5,10,0:2:0:0:
384,73,127381,1,0,3:0:0:0:
268,293,127594,5,10,0:2:0:0:
502,201,127809,1,0,3:0:0:0:
138,155,128023,5,10,0:2:0:0:
370,64,128238,1,0,3:0:0:0:
256,283,128451,5,10,0:2:0:0:
488,192,128666,1,0,3:0:0:0:
488,192,128773,1,0,3:0:0:0:
488,192,128880,6,0,L|468:281,1,77.5,14|0,3:2|0:0,0:0:0:0:
391,374,129094,2,0,L|374:298,1,77.5,0|0,3:0|0:0,0:0:0:0:
393,80,129309,5,8,3:2:0:0:
317,66,129416,1,8,3:2:0:0:
267,125,129523,1,8,3:2:0:0:
276,133,129630,1,8,3:2:0:0:
285,141,129737,5,2,3:2:0:0:
317,66,129844,1,8,0:2:0:0:
268,0,129951,1,10,0:2:0:0:
186,9,130059,1,8,0:2:0:0:
152,84,130166,5,10,3:2:0:0:
190,132,130273,1,8,0:2:0:0:
182,192,130380,1,0,3:0:0:0:
133,228,130487,1,0,3:0:0:0:
72,218,130594,5,4,3:2:0:0:
182,192,131237,5,0,3:0:0:0:
182,192,131451,1,0,3:0:0:0:
240,288,132094,5,0,3:0:0:0:
240,288,132309,1,0,3:0:0:0:
166,372,132951,5,0,3:0:0:0:
166,372,133166,1,0,3:0:0:0:
63,327,133809,5,0,3:0:0:0:
63,327,134024,5,10,3:2:0:0:
72,218,134237,1,8,0:2:0:0:
182,192,134451,1,8,0:2:0:0:
240,288,134666,1,10,0:2:0:0:
166,372,134880,5,10,0:2:0:0:
240,288,135094,1,8,0:2:0:0:
182,192,135309,1,8,0:2:0:0:
72,218,135523,1,10,0:2:0:0:
63,327,135737,5,10,0:2:0:0:
240,288,135951,1,8,0:2:0:0:
72,218,136166,1,8,0:2:0:0:
166,372,136380,1,10,0:2:0:0:
182,192,136594,5,10,0:2:0:0:
240,288,136701,2,0,B|275:259|268:207|268:207|293:254|346:256,1,185.999994323731,8|8,0:2|0:2,0:0:0:0:
488,314,137023,5,8,0:2:0:0:
482,300,137130,1,8,0:2:0:0:
478,290,137237,1,8,0:2:0:0:
472,277,137344,1,8,0:2:0:0:
474,196,137451,6,0,P|432:276|344:255,1,193.75,4|0,3:2|0:0,0:0:0:0:
292,114,137773,1,0,3:0:0:0:
292,114,137880,2,0,L|265:223,1,96.875,8|0,0:2|0:0,0:0:0:0:
157,260,138094,2,0,L|206:58,1,193.75,0|0,3:0|3:0,0:0:0:0:
315,19,138416,1,8,0:2:0:0:
315,19,138523,2,0,L|288:128,1,96.875,2|2,0:0|3:2,0:0:0:0:
76,152,138737,2,0,P|112:68|203:72,1,193.75,10|2,0:2|0:0,0:0:0:0:
268,208,139059,1,0,0:0:0:0:
202,71,139166,6,0,B|243:115|213:164|187:146|160:200|195:253,1,193.75,2|0,3:2|0:0,0:0:0:0:
272,375,139487,1,0,3:0:0:0:
350,351,139594,2,0,P|324:304|267:295,1,96.875,8|0,0:2|0:0,0:0:0:0:
75,333,139809,2,0,P|165:335|192:249,1,193.75,0|0,3:0|3:0,0:0:0:0:
189,73,140130,1,8,0:2:0:0:
189,73,140237,2,0,L|158:185,1,96.875,2|2,0:0|3:2,0:0:0:0:
5,84,140451,2,0,B|83:68|83:68|107:88|107:88|190:72,1,193.75,10|2,0:2|0:0,0:0:0:0:
381,69,140773,1,0,0:0:0:0:
307,121,140880,6,0,B|259:157|259:157|296:11,1,193.75,2|0,3:2|0:0,0:0:0:0:
425,0,141201,1,0,3:0:0:0:
425,0,141309,2,0,P|459:32|460:80,1,96.875,8|0,0:2|0:0,0:0:0:0:
512,151,141523,2,0,P|500:105|460:79,1,96.875,0|0,3:0|0:0,0:0:0:0:
306,117,141737,1,0,3:0:0:0:
306,117,141844,1,8,0:2:0:0:
306,117,141951,2,0,L|331:232,1,96.875,0|0,0:0|3:0,0:0:0:0:
467,252,142166,2,0,P|449:340|359:345,1,193.75,8|0,0:2|0:0,0:0:0:0:
217,299,142487,1,0,0:0:0:0:
278,384,142594,6,0,L|236:194,1,193.75,0|0,3:0|0:0,0:0:0:0:
185,50,142916,1,0,3:0:0:0:
185,50,143023,2,0,L|161:163,1,96.875,10|0,0:2|0:0,0:0:0:0:
98,353,143237,5,2,3:2:0:0:
87,349,143344,1,0,0:0:0:0:
139,276,143451,5,2,3:2:0:0:
132,283,143558,1,8,0:2:0:0:
95,200,143666,5,2,0:2:0:0:
98,210,143773,1,0,3:0:0:0:
8,200,143880,5,10,0:2:0:0:
95,200,143987,1,8,0:2:0:0:
139,276,144094,1,2,3:2:0:0:
98,353,144201,1,0,3:0:0:0:
11,352,144309,6,0,L|216:314,1,193.75,4|0,3:2|0:0,0:0:0:0:
352,384,144630,1,0,3:0:0:0:
352,384,144737,2,0,L|330:279,1,96.875,8|0,0:2|0:0,0:0:0:0:
279,151,144951,2,0,L|257:256,1,96.875,0|0,3:0|0:0,0:0:0:0:
332,289,145166,1,0,3:0:0:0:
395,232,145273,2,0,P|485:254|476:366,1,193.75,8|2,0:2|3:2,0:0:0:0:
352,384,145594,2,0,L|330:279,1,96.875,10|0,0:2|0:0,0:0:0:0:
215,86,145809,1,2,0:0:0:0:
215,86,145916,1,0,0:0:0:0:
215,86,146023,6,0,P|246:167|365:124,1,193.75,2|0,3:2|0:0,0:0:0:0:
450,82,146344,1,0,3:0:0:0:
450,82,146451,2,0,L|423:192,1,96.875,8|0,0:2|0:0,0:0:0:0:
331,290,146666,2,0,B|466:265|466:265|442:319,2,193.75,0|0|2,3:0|3:0|0:0,0:0:0:0:
151,232,147201,1,2,3:2:0:0:
177,383,147309,2,0,B|153:330|188:291|212:314|253:271|229:214,1,193.75,10|2,0:2|3:2,0:0:0:0:
153,64,147630,1,0,3:2:0:0:
153,64,147737,6,0,B|106:115|106:115|150:231,1,193.75,2|0,3:2|0:0,0:0:0:0:
24,352,148059,2,0,P|49:312|95:299,1,96.875,0|8,3:0|0:2,0:0:0:0:
78,179,148273,1,0,0:0:0:0:
78,179,148380,2,0,P|123:191|149:231,1,96.875,0|0,3:0|0:0,0:0:0:0:
259,176,148594,1,0,3:0:0:0:
259,176,148701,2,0,P|261:223|231:260,1,96.875,8|0,0:2|0:0,0:0:0:0:
274,336,148916,1,0,3:0:0:0:
149,231,149023,2,0,L|367:267,1,193.75,8|0,0:2|0:0,0:0:0:0:
511,261,149344,1,0,0:0:0:0:
510,348,149451,6,0,P|447:325|449:198,1,193.75,0|0,3:0|0:0,0:0:0:0:
379,33,149773,1,0,3:0:0:0:
379,33,149880,2,0,L|502:57,1,96.875,8|0,0:2|0:0,0:0:0:0:
512,143,150094,2,0,L|416:124,1,96.875,0|0,3:0|0:0,0:0:0:0:
251,6,150309,2,0,P|283:40|283:87,1,96.875,0|8,3:0|0:2,0:0:0:0:
320,243,150523,2,0,P|306:197|265:173,1,96.875,0|0,3:0|3:2,0:0:0:0:
54,23,150737,5,8,3:2:0:0:
0,95,150844,1,8,0:2:0:0:
31,179,150951,1,0,3:0:0:0:
116,203,151059,1,0,3:0:0:0:
184,145,151166,6,0,L|417:183,1,193.75,6|0,3:2|0:0,0:0:0:0:
504,199,151487,1,10,0:2:0:0:
504,199,151594,2,0,P|461:218|444:262,1,96.875,0|0,3:0|0:0,0:0:0:0:
263,266,151809,2,0,P|353:283|382:370,1,193.75,10|0,0:2|3:0,0:0:0:0:
162,384,152130,1,8,0:2:0:0:
161,384,152237,2,0,L|182:281,1,96.875,2|8,0:0|0:2,0:0:0:0:
196,207,152451,1,0,3:0:0:0:
307,104,152666,2,0,L|183:131,1,96.875,10|0,0:2|0:0,0:0:0:0:
46,131,152880,6,0,P|92:122|132:148,1,96.875,2|0,3:2|0:0,0:0:0:0:
184,41,153093,1,0,0:0:0:0:
184,41,153201,2,0,P|214:77|212:124,1,96.875,10|0,0:2|3:0,0:0:0:0:
115,231,153416,1,0,0:0:0:0:
212,125,153523,2,0,B|271:101|309:137|285:165|323:201|381:180,1,193.75,10|0,0:2|3:0,0:0:0:0:
463,177,153844,1,8,0:2:0:0:
419,101,153951,2,0,P|380:142|385:198,1,96.875,2|8,0:0|0:2,0:0:0:0:
436,254,154166,1,0,3:0:0:0:
333,65,154380,1,10,0:2:0:0:
454,342,154594,6,0,B|502:304|502:304|463:177,1,193.75,6|0,3:2|0:0,0:0:0:0:
512,3,154916,1,10,0:2:0:0:
512,3,155023,2,0,L|471:107,1,96.875,0|0,3:0|0:0,0:0:0:0:
339,33,155237,2,0,P|428:15|476:93,1,193.75,10|0,0:2|3:0,0:0:0:0:
334,240,155559,1,8,0:2:0:0:
463,177,155666,2,0,L|345:156,1,96.875,2|8,0:0|0:2,0:0:0:0:
278,146,155880,1,0,3:0:0:0:
430,257,156094,2,0,L|323:238,1,96.875,10|0,0:2|0:0,0:0:0:0:
249,44,156309,6,0,B|301:14|301:14|277:148,1,193.75,2|0,3:2|0:0,0:0:0:0:
218,261,156630,1,10,0:2:0:0:
154,204,156737,2,0,P|130:245|140:294,1,96.875,0|0,3:0|0:0,0:0:0:0:
355,327,156951,2,0,P|309:248|219:261,1,193.75,10|0,0:2|3:0,0:0:0:0:
38,272,157273,1,8,0:2:0:0:
38,272,157380,2,0,L|78:400,1,96.875,2|8,0:0|0:2,0:0:0:0:
167,384,157594,2,0,L|131:269,1,96.875,0|0,3:0|0:0,0:0:0:0:
62,176,157809,1,10,0:2:0:0:
66,364,158023,6,0,B|106:317|106:317|233:352,1,193.75,6|0,3:2|0:0,0:0:0:0:
304,265,158344,1,10,0:2:0:0:
304,265,158451,2,0,L|341:389,1,96.875,0|0,3:0|0:0,0:0:0:0:
489,290,158666,2,0,P|457:204|366:206,1,193.75,10|0,0:2|3:0,0:0:0:0:
180,153,158987,1,8,0:2:0:0:
249,89,159094,2,0,L|280:193,1,96.875,2|8,0:0|0:2,0:0:0:0:
304,265,159309,1,0,3:0:0:0:
362,53,159523,2,0,P|332:16|284:12,1,96.875,10|0,0:2|0:0,0:0:0:0:
180,153,159737,6,0,L|62:130,1,96.875,2|0,3:2|0:0,0:0:0:0:
1,47,159951,1,0,0:0:0:0:
78,14,160059,2,0,L|172:33,1,96.875,10|0,0:2|3:0,0:0:0:0:
295,94,160273,1,0,0:0:0:0:
172,33,160380,2,0,L|227:271,1,193.75,10|0,0:2|3:0,0:0:0:0:
64,264,160701,2,0,B|98:232|139:257|139:257|165:318|234:301,1,193.75,8|8,0:2|0:2,0:0:0:0:
298,254,161023,2,0,P|262:222|215:221,1,96.875,0|0,3:0|0:0,0:0:0:0:
89,345,161237,1,10,0:2:0:0:
230,303,161451,6,0,B|282:279|322:314|299:338|342:379|399:355,1,193.75,2|0,3:2|0:0,0:0:0:0:
505,342,161773,1,8,0:2:0:0:
505,342,161880,2,0,P|469:310|465:263,1,96.875,2|0,3:2|0:0,0:0:0:0:
387,244,162094,2,0,P|405:200|449:182,1,96.875,8|0,0:2|0:0,0:0:0:0:
485,23,162309,6,0,P|432:98|341:85,1,193.75,2|0,3:2|0:0,0:0:0:0:
93,76,162630,1,8,0:2:0:0:
93,76,162737,2,0,P|140:77|177:48,1,96.875,2|0,3:2|0:0,0:0:0:0:
299,14,162951,2,0,P|264:46|259:93,1,96.875,8|0,0:2|0:0,0:0:0:0:
289,173,163166,5,2,3:2:0:0:
289,173,163380,2,0,L|261:288,1,96.875,8|8,0:2|0:2,0:0:0:0:
323,334,163594,5,8,3:2:0:0:
266,267,163701,1,8,0:2:0:0:
178,259,163809,1,8,0:2:0:0:
110,315,163916,1,8,0:2:0:0:
192,345,164023,5,2,3:2:0:0:
185,302,164130,1,0,3:0:0:0:
178,259,164237,1,2,3:2:0:0:
171,216,164344,1,0,3:0:0:0:
141,200,164451,5,2,3:2:0:0:
144,178,164558,1,0,3:0:0:0:
148,157,164665,1,2,3:2:0:0:
151,135,164772,1,0,3:0:0:0:
125,111,164880,5,14,0:2:0:0:
125,111,165309,1,8,0:2:0:0:
106,197,165523,2,0,L|78:329,2,108.499996688843,2|8|0,3:2|0:2|0:0,0:0:0:0:
125,111,166166,1,10,0:2:0:0:
194,180,166380,1,2,3:2:0:0:
0,220,166594,2,0,L|106:197,1,108.499996688843,10|0,0:2|0:0,0:0:0:0:
194,180,167023,1,0,0:0:0:0:
194,180,167237,1,2,3:2:0:0:
147,4,167451,6,0,L|116:152,1,108.499996688843,10|0,0:2|3:0,0:0:0:0:
106,197,167880,1,8,0:2:0:0:
106,197,168094,1,2,3:2:0:0:
165,265,168309,5,10,3:2:0:0:
194,180,168523,1,0,0:0:0:0:
106,197,168737,1,10,0:2:0:0:
165,265,168951,1,2,3:2:0:0:
194,180,169166,2,0,L|300:202,2,108.499996688843,8|0|8,0:2|0:0|0:2,0:0:0:0:
194,180,169809,1,2,3:2:0:0:
258,377,170023,5,10,0:2:0:0:
279,289,170237,1,0,0:0:0:0:
300,202,170451,1,10,0:2:0:0:
321,115,170666,1,2,3:2:0:0:
342,28,170880,2,0,L|453:54,1,108.499996688843,10|0,0:2|3:0,0:0:0:0:
215,90,171309,2,0,L|326:116,1,108.499996688843,10|0,0:2|3:0,0:0:0:0:
512,157,171737,5,14,0:2:0:0:
512,157,172166,1,8,0:2:0:0:
426,139,172380,2,0,L|320:114,2,108.499996688843,2|8|2,3:2|0:2|0:0,0:0:0:0:
512,157,173023,1,10,0:2:0:0:
483,73,173237,1,2,3:2:0:0:
471,332,173451,6,0,L|446:226,1,108.499996688843,10|0,0:2|0:0,0:0:0:0:
425,139,173880,1,0,0:0:0:0:
425,139,174094,1,2,3:2:0:0:
365,307,174309,6,0,L|340:201,1,108.499996688843,10|0,0:2|3:0,0:0:0:0:
320,114,174738,1,8,0:2:0:0:
320,114,174952,1,2,3:2:0:0:
254,174,175166,5,10,0:2:0:0:
194,109,175380,1,0,0:0:0:0:
128,169,175594,1,10,0:2:0:0:
68,104,175809,1,2,3:2:0:0:
2,164,176023,2,0,L|36:282,1,108.499996688843,10|0,0:2|0:0,0:0:0:0:
68,104,176451,2,0,L|37:-1,1,108.499996688843,10|2,0:2|3:2,0:0:0:0:
32,268,176880,5,10,0:2:0:0:
128,169,177094,2,0,L|251:198,1,108.499996688843,10|2,0:2|0:0,0:0:0:0:
233,193,177416,1,10,0:2:0:0:
233,193,177523,1,2,3:2:0:0:
295,286,177737,5,10,0:2:0:0:
308,332,177845,1,8,0:2:0:0:
349,356,177951,1,8,3:2:0:0:
397,347,178059,1,8,0:2:0:0:
468,294,178166,5,10,0:2:0:0:
474,319,178274,1,8,0:2:0:0:
482,346,178380,1,0,3:0:0:0:
488,371,178488,1,0,3:0:0:0:
397,347,178594,5,6,3:2:0:0:
397,347,179023,5,8,0:2:0:0:
494,216,179237,1,2,3:2:0:0:
329,198,179451,5,8,0:2:0:0:
467,294,179665,1,2,3:2:0:0:
372,118,179880,5,10,0:2:0:0:
289,280,180094,1,0,3:0:0:0:
258,70,180308,5,10,0:2:0:0:
405,229,180523,1,0,3:0:0:0:
192,175,180737,5,8,0:2:0:0:
372,118,180952,1,0,3:0:0:0:
174,260,181166,5,10,0:2:0:0:
58,82,181381,1,0,3:0:0:0:
38,223,181594,5,8,0:2:0:0:
135,34,181810,1,2,3:2:0:0:
174,260,182023,5,10,0:2:0:0:
0,141,182237,1,0,3:0:0:0:
210,151,182451,5,10,0:2:0:0:
83,302,182666,1,2,3:2:0:0:
62,69,182880,5,8,0:2:0:0:
262,240,183094,1,0,3:0:0:0:
0,296,183308,5,8,0:2:0:0:
210,151,183523,1,2,3:2:0:0:
223,321,183737,5,10,0:2:0:0:
1,133,183951,1,0,3:0:0:0:
313,167,184166,5,10,0:2:0:0:
83,302,184380,1,2,3:2:0:0:
303,384,184594,5,8,0:2:0:0:
477,263,184809,1,0,3:0:0:0:
477,263,184916,1,0,3:0:0:0:
476,263,185023,2,0,P|482:225|465:191,1,77.5,0|0,3:0|0:0,0:0:0:0:
512,105,185237,2,0,P|482:80|444:78,1,77.5,0|0,3:0|3:0,0:0:0:0:
339,15,185451,5,12,3:2:0:0:
339,15,185880,5,8,0:2:0:0:
398,146,186094,1,2,3:2:0:0:
259,37,186309,5,8,0:2:0:0:
321,168,186523,1,2,3:2:0:0:
179,59,186737,5,10,0:2:0:0:
241,190,186951,1,0,3:0:0:0:
339,15,187166,5,10,0:2:0:0:
321,168,187380,1,0,0:0:0:0:
179,59,187594,5,0,0:0:0:0:
398,146,187809,1,2,3:2:0:0:
99,81,188023,5,8,0:2:0:0:
339,15,188237,1,0,3:0:0:0:
205,267,188451,5,8,0:2:0:0:
115,5,188666,2,0,L|98:80,1,77.5,2|8,3:2|3:2,0:0:0:0:
60,216,188880,5,10,0:2:0:0:
0,28,189094,1,8,0:2:0:0:
54,299,189309,5,0,3:2:0:0:
115,282,189416,1,0,3:0:0:0:
144,226,189523,1,2,3:2:0:0:
135,287,189630,1,0,0:0:0:0:
175,334,189737,2,0,P|206:347|241:342,3,69.749997871399,10|8|8|0,0:2|0:2|3:2|0:0,0:0:0:0:
323,384,190166,2,0,P|350:363|363:331,3,69.749997871399,2|0|0|0,3:2|3:0|3:0|3:0,0:0:0:0:
315,251,190594,5,6,3:2:0:0:
492,121,190809,5,8,0:2:0:0:
480,182,190916,1,8,0:2:0:0:
468,243,191023,5,0,3:0:0:0:
467,246,191130,1,0,3:0:0:0:
466,249,191237,1,2,3:2:0:0:
465,252,191344,1,0,3:0:0:0:
464,255,191451,6,0,P|441:234|410:232,1,62,10|0,0:2|0:0,0:0:0:0:
316,251,191666,6,0,P|330:217|322:182,1,73.6249980340005,10|0,0:2|0:0,0:0:0:0:
228,108,191880,6,0,P|269:111|305:90,1,85.2500026016236,10|0,0:2|0:0,0:0:0:0:
375,0,192094,6,0,P|385:46|422:75,1,96.875,10|0,0:2|0:0,0:0:0:0:
468,243,192309,5,14,0:2:0:0:
389,207,192523,1,0,3:0:0:0:
316,251,192737,1,2,3:2:0:0:
235,121,192951,5,8,0:2:0:0:
309,166,193165,1,0,3:2:0:0:
316,251,193379,1,0,3:0:0:0:
220,374,193594,5,10,0:2:0:0:
238,289,193808,1,0,3:0:0:0:
120,144,194023,5,10,0:2:0:0:
138,229,194237,1,0,3:0:0:0:
156,314,194451,1,0,3:0:0:0:
286,198,194666,5,10,0:2:0:0:
203,171,194880,1,0,3:0:0:0:
120,144,195094,1,0,3:0:0:0:
156,314,195309,5,10,0:2:0:0:
286,198,195523,1,2,3:2:0:0:
120,144,195737,5,10,0:2:0:0:
138,229,195951,1,0,3:2:0:0:
203,171,196165,1,0,3:0:0:0:
102,59,196380,5,10,0:2:0:0:
37,117,196594,1,0,3:0:0:0:
120,144,196808,1,2,3:2:0:0:
236,14,197023,5,8,0:2:0:0:
184,83,197237,1,2,3:2:0:0:
301,198,197451,5,10,0:2:0:0:
270,114,197666,1,0,3:2:0:0:
327,45,197879,1,0,3:0:0:0:
436,169,198094,5,10,0:2:0:0:
270,114,198308,1,8,3:2:0:0:
403,0,198522,1,10,0:2:0:0:
403,0,198630,1,8,0:2:0:0:
403,0,198737,2,0,L|418:83,1,62,8|0,3:2|0:0,0:0:0:0:
492,62,198951,2,0,L|507:145,1,62,0|0,3:0|0:0,0:0:0:0:
436,169,199166,5,10,0:2:0:0:
353,141,199380,1,0,3:0:0:0:
270,114,199594,1,0,3:0:0:0:
419,84,199809,5,10,0:2:0:0:
353,141,200023,1,0,3:0:0:0:
288,200,200237,1,0,3:0:0:0:
336,55,200451,5,10,0:2:0:0:
353,141,200666,1,0,3:0:0:0:
305,286,200880,5,10,0:2:0:0:
288,200,201095,1,0,3:0:0:0:
288,200,201309,1,0,3:0:0:0:
191,145,201523,5,10,0:2:0:0:
208,231,201738,1,0,3:0:0:0:
208,231,201951,1,0,3:0:0:0:
305,286,202166,5,10,0:2:0:0:
191,145,202381,1,2,3:2:0:0:
122,303,202594,5,10,0:2:0:0:
288,200,202808,1,0,3:2:0:0:
98,91,203022,1,0,3:0:0:0:
306,2,203237,6,0,L|285:85,1,62,10|0,0:2|0:0,0:0:0:0:
195,93,203451,6,0,L|216:176,1,69.749997871399,8|0,0:2|0:0,0:0:0:0:
386,134,203666,6,0,L|365:217,1,77.5,10|0,0:2|0:0,0:0:0:0:
128,228,203880,6,0,L|153:328,1,89.1250016999245,8|0,0:2|0:0,0:0:0:0:
438,287,204094,6,0,L|410:394,1,100.749995388031,10|0,0:2|0:0,0:0:0:0:
480,68,205594,6,0,L|465:-13,3,69.749997871399,8|8|8|8,0:2|0:2|0:2|0:2,0:0:0:0:
494,152,206023,6,0,B|419:138|419:138|399:159|399:159|292:140,1,193.75,4|0,3:2|0:0,0:0:0:0:
195,101,206344,1,0,3:0:0:0:
210,181,206451,2,0,L|232:298,1,96.875,8|0,0:2|0:0,0:0:0:0:
230,11,206666,2,0,P|189:92|98:81,1,193.75,0|0,3:0|3:0,0:0:0:0:
0,39,206987,1,8,0:2:0:0:
0,39,207094,2,0,L|27:164,1,96.875,2|2,0:0|3:2,0:0:0:0:
229,153,207309,2,0,P|188:71|97:82,1,193.75,10|2,0:2|0:0,0:0:0:0:
3,308,207630,1,0,0:0:0:0:
56,241,207737,6,0,B|109:206|154:250|124:274|178:313|222:288,1,193.75,2|0,3:2|0:0,0:0:0:0:
293,338,208059,1,0,3:0:0:0:
353,275,208166,2,0,L|323:159,1,96.875,8|0,0:2|0:0,0:0:0:0:
391,71,208380,1,0,3:0:0:0:
391,71,208487,1,0,0:0:0:0:
391,71,208594,2,0,L|275:101,1,96.875,0|8,3:0|0:2,0:0:0:0:
224,24,208809,2,0,L|340:-6,1,96.875,2|2,0:0|3:2,0:0:0:0:
470,105,209023,2,0,P|442:191|351:194,1,193.75,10|2,0:2|0:0,0:0:0:0:
160,115,209344,1,0,0:0:0:0:
223,23,209451,6,0,B|266:72|266:72|223:200,1,193.75,2|0,3:2|0:0,0:0:0:0:
300,272,209773,2,0,P|254:281|225:319,1,96.875,0|8,3:0|0:2,0:0:0:0:
17,300,209987,1,0,0:0:0:0:
17,300,210094,2,0,L|111:278,1,96.875,0|0,3:0|0:0,0:0:0:0:
61,382,210309,1,0,3:0:0:0:
61,382,210416,1,8,0:2:0:0:
61,382,210523,2,0,L|155:360,1,96.875,0|0,0:0|3:0,0:0:0:0:
338,241,210737,2,0,L|149:198,1,193.75,8|0,0:2|0:0,0:0:0:0:
111,278,211059,1,0,0:0:0:0:
78,105,211166,6,0,B|28:70|28:70|59:209,1,193.75,0|0,3:0|0:0,0:0:0:0:
17,300,211487,1,0,3:0:0:0:
17,300,211594,2,0,L|111:278,1,96.875,8|0,0:2|0:0,0:0:0:0:
350,361,211809,5,2,3:2:0:0:
345,349,211916,1,0,0:0:0:0:
235,243,212023,5,2,3:2:0:0:
246,237,212130,1,8,0:2:0:0:
272,323,212237,5,2,0:0:0:0:
276,311,212344,1,0,3:0:0:0:
261,160,212452,5,10,0:2:0:0:
235,243,212559,1,8,0:2:0:0:
159,284,212666,1,2,3:2:0:0:
77,258,212773,1,0,3:0:0:0:
38,182,212880,6,0,B|53:264|53:264|40:283|40:283|55:368,1,193.75,4|0,3:2|0:0,0:0:0:0:
105,125,213201,1,0,3:0:0:0:
178,171,213309,2,0,P|225:166|258:132,1,96.875,8|0,0:2|0:0,0:0:0:0:
113,40,213523,2,0,P|65:45|33:80,1,96.875,0|0,3:0|0:0,0:0:0:0:
279,226,213737,1,0,3:0:0:0:
279,226,213844,1,8,0:2:0:0:
279,226,213951,2,0,L|255:122,1,96.875,2|2,0:0|3:2,0:0:0:0:
230,15,214166,2,0,P|262:99|351:89,1,193.75,10|2,0:2|0:0,0:0:0:0:
391,15,214487,1,0,0:0:0:0:
475,16,214594,6,0,B|525:56|525:56|475:229,1,193.75,2|0,3:2|0:0,0:0:0:0:
400,365,214916,2,0,L|377:265,1,96.875,0|8,3:0|0:2,0:0:0:0:
411,140,215130,1,0,0:0:0:0:
411,140,215237,2,0,P|453:142|492:209,1,96.875,0|0,3:0|0:0,0:0:0:0:
378,270,215451,1,0,3:0:0:0:
379,271,215559,2,0,B|322:247|284:288|307:310|267:350|212:325,1,193.75,8|2,0:2|3:2,0:0:0:0:
199,149,215880,2,0,P|224:195|213:242,1,96.875,10|0,0:2|0:0,0:0:0:0:
152,384,216094,2,0,P|126:337|137:290,1,96.875,2|0,3:2|3:0,0:0:0:0:
9,121,216309,6,0,P|41:204|174:150,1,193.75,2|0,3:2|0:0,0:0:0:0:
178,54,216630,1,0,3:0:0:0:
178,54,216737,2,0,L|198:148,1,96.875,8|0,0:2|0:0,0:0:0:0:
307,214,216951,2,0,L|286:119,1,96.875,0|0,3:0|0:0,0:0:0:0:
272,33,217166,2,0,L|177:54,2,96.875,0|8|0,3:0|0:2|0:0,0:0:0:0:
386,124,217487,1,0,3:0:0:0:
409,26,217594,2,0,B|357:-5|357:-5|392:147,1,193.75,8|0,0:2|0:0,0:0:0:0:
423,286,217916,1,0,0:0:0:0:
349,235,218023,6,0,P|394:160|468:207,1,193.75,0|0,3:0|0:0,0:0:0:0:
354,362,218344,1,0,3:0:0:0:
354,362,218451,2,0,L|237:340,1,96.875,8|0,0:2|0:0,0:0:0:0:
34,142,218666,1,0,3:0:0:0:
46,228,218773,1,0,0:0:0:0:
58,314,218880,2,0,L|175:292,1,96.875,0|8,3:0|0:2,0:0:0:0:
353,227,219094,2,0,L|236:205,1,96.875,0|0,0:0|3:0,0:0:0:0:
96,3,219309,5,8,3:2:0:0:
22,54,219416,1,8,0:2:0:0:
34,142,219523,1,0,3:0:0:0:
114,180,219630,1,0,3:0:0:0:
186,126,219737,6,0,B|237:85|237:85|381:139,1,193.75,6|0,3:2|0:0,0:0:0:0:
386,46,220059,1,10,0:2:0:0:
386,46,220166,2,0,P|355:85|366:144,1,96.875,0|0,3:0|0:0,0:0:0:0:
509,129,220380,2,0,P|468:38|369:62,1,193.75,10|0,0:2|3:0,0:0:0:0:
348,214,220701,1,8,0:2:0:0:
276,166,220809,2,0,P|310:133|357:130,1,96.875,2|8,0:0|0:2,0:0:0:0:
417,274,221023,1,0,3:0:0:0:
386,46,221237,2,0,P|355:85|366:144,1,96.875,10|0,0:2|0:0,0:0:0:0:
512,290,221451,6,0,L|402:271,1,96.875,2|0,3:2|0:0,0:0:0:0:
348,214,221666,1,0,0:0:0:0:
408,361,221773,2,0,P|429:318|416:273,1,96.875,10|0,0:2|3:0,0:0:0:0:
436,182,221987,1,0,0:0:0:0:
340,312,222094,2,0,B|265:298|265:298|245:319|245:319|157:303,1,193.75,10|0,0:2|3:0,0:0:0:0:
6,273,222416,1,8,0:2:0:0:
2,384,222523,2,0,L|96:365,1,96.875,2|8,0:0|0:2,0:0:0:0:
215,224,222737,2,0,L|121:205,1,96.875,0|0,3:0|0:0,0:0:0:0:
157,303,222951,1,10,0:2:0:0:
33,144,223166,6,0,B|4:89|4:89|163:120,1,193.75,6|0,3:2|0:0,0:0:0:0:
300,81,223487,1,10,0:2:0:0:
262,4,223594,2,0,P|225:33|216:80,1,96.875,0|0,3:0|0:0,0:0:0:0:
304,236,223809,2,0,B|356:195|356:195|289:59,1,193.75,10|0,0:2|3:0,0:0:0:0:
121,205,224130,1,8,0:2:0:0:
121,205,224237,2,0,L|215:224,1,96.875,2|8,0:0|0:2,0:0:0:0:
304,236,224451,1,0,3:0:0:0:
398,70,224666,2,0,B|371:114|371:114|387:156,1,96.875,10|0,0:2|0:0,0:0:0:0:
453,260,224880,6,0,B|398:235|358:271|381:296|342:339|287:315,1,193.75,2|0,3:2|0:0,0:0:0:0:
96,343,225201,1,10,0:2:0:0:
177,378,225309,2,0,B|194:331|194:331|169:292,1,96.875,0|0,3:0|0:0,0:0:0:0:
104,120,225523,2,0,P|194:134|215:223,1,193.75,10|0,0:2|3:0,0:0:0:0:
96,343,225844,1,8,0:2:0:0:
96,343,225951,2,0,L|1:321,1,96.875,2|8,0:0|0:2,0:0:0:0:
0,225,226166,2,0,L|95:247,1,96.875,8|0,3:2|0:0,0:0:0:0:
177,378,226380,1,10,0:2:0:0:
215,223,226594,6,0,P|194:134|104:120,1,193.75,6|0,3:2|0:0,0:0:0:0:
0,225,226916,1,10,0:2:0:0:
0,225,227023,2,0,L|27:109,1,96.875,0|0,3:0|0:0,0:0:0:0:
138,27,227237,2,0,L|94:215,1,193.75,10|0,0:2|3:0,0:0:0:0:
151,282,227559,1,8,0:2:0:0:
215,223,227666,2,0,L|310:208,1,96.875,2|8,0:0|0:2,0:0:0:0:
458,254,227880,1,0,3:0:0:0:
434,110,228094,2,0,P|399:142|395:190,1,96.875,10|0,0:2|0:0,0:0:0:0:
493,361,228309,6,0,B|476:286|476:286|496:265|496:265|478:179,1,193.75,2|0,3:2|0:0,0:0:0:0:
455,15,228630,1,10,0:2:0:0:
455,15,228737,2,0,L|433:113,1,96.875,0|0,3:0|0:0,0:0:0:0:
310,207,228951,2,0,P|219:211|193:106,1,193.75,10|0,0:2|3:0,0:0:0:0:
294,43,229273,2,0,B|335:41|353:7|353:7|325:138,1,193.75,8|8,0:2|0:2,0:0:0:0:
288,301,229594,2,0,L|309:206,1,96.875,0|0,3:0|0:0,0:0:0:0:
327,125,229809,1,10,0:2:0:0:
287,300,230023,6,0,P|228:230|138:256,1,193.75,2|0,3:2|0:0,0:0:0:0:
80,316,230344,1,8,0:2:0:0:
80,316,230451,2,0,P|57:283|75:206,1,96.875,2|0,3:2|0:0,0:0:0:0:
66,75,230666,2,0,P|76:121|113:151,1,96.875,8|0,0:2|0:0,0:0:0:0:
139,253,230880,6,0,L|346:205,1,193.75,2|0,3:2|0:0,0:0:0:0:
453,51,231201,1,8,0:2:0:0:
453,51,231309,2,0,L|358:30,1,96.875,2|0,3:2|0:0,0:0:0:0:
263,102,231523,2,0,L|357:122,1,96.875,8|0,0:2|0:0,0:0:0:0:
433,187,231737,5,2,3:2:0:0:
453,51,231951,5,8,0:2:0:0:
499,127,232059,1,8,0:2:0:0:
433,187,232166,1,0,3:0:0:0:
497,322,232380,5,8,0:2:0:0:
504,236,232488,1,8,0:2:0:0:
433,187,232595,1,2,3:2:0:0:
355,223,232701,1,8,0:2:0:0:
284,173,232809,1,10,0:2:0:0:
291,86,232916,1,8,0:2:0:0:
369,48,233023,5,10,3:2:0:0:
378,50,233130,1,8,3:2:0:0:
387,52,233237,1,2,3:2:0:0:
396,54,233344,1,0,3:0:0:0:
405,56,233451,6,0,L|364:260,1,185.999994323731,6|0,3:2|0:0,0:0:0:0:
504,331,233773,1,2,3:2:0:0:
504,331,233880,2,0,P|469:301|419:305,1,92.9999971618653,8|0,0:2|0:0,0:0:0:0:
360,361,234094,2,0,P|273:376|222:304,1,185.999994323731,2|0,3:2|0:0,0:0:0:0:
94,173,234416,1,8,0:2:0:0:
188,153,234523,2,0,L|161:265,1,92.9999971618653,2|0,3:2|0:0,0:0:0:0:
94,354,234737,2,0,B|52:385|52:385|87:226,1,185.999994323731,8|2,0:2|0:0,0:0:0:0:
108,89,235059,1,0,3:0:0:0:
14,138,235166,6,0,B|-18:201|-18:201|113:168,1,185.999994323731,2|0,3:2|0:0,0:0:0:0:
143,11,235487,1,2,3:2:0:0:
143,11,235594,2,0,P|110:43|107:89,1,92.9999971618653,8|0,0:2|0:0,0:0:0:0:
166,243,235809,2,0,L|188:153,1,92.9999971618653,2|0,3:2|0:0,0:0:0:0:
262,10,236023,1,0,0:0:0:0:
262,10,236130,1,8,0:2:0:0:
262,10,236237,2,0,L|284:100,1,92.9999971618653,2|0,3:2|0:0,0:0:0:0:
188,152,236451,2,0,B|244:114|244:114|359:179,1,185.999994323731,8|2,0:2|3:2,0:0:0:0:
404,232,236773,1,10,0:2:0:0:
404,232,236880,6,0,P|429:194|425:149,1,92.9999971618653,6|0,3:2|0:0,0:0:0:0:
371,80,237094,2,0,P|412:98|432:140,1,92.9999971618653,0|0,0:0|3:0,0:0:0:0:
258,188,237309,6,0,P|258:142|287:107,1,92.9999971618653,10|0,0:2|0:0,0:0:0:0:
371,80,237523,2,0,P|326:71|286:94,1,92.9999971618653,0|0,3:0|0:0,0:0:0:0:
96,248,237737,6,0,P|70:210|74:165,1,92.9999971618653,2|8,3:2|0:2,0:0:0:0:
132,89,237951,2,0,P|90:107|70:149,1,92.9999971618653,0|0,3:0|0:0,0:0:0:0:
258,188,238166,6,0,P|253:142|221:110,1,92.9999971618653,10|0,0:2|0:0,0:0:0:0:
132,89,238380,2,0,P|175:76|217:95,1,92.9999971618653,0|0,0:0|3:0,0:0:0:0:
364,335,238594,6,0,L|141:308,1,185.999994323731,2|0,3:2|0:0,0:0:0:0:
5,292,238916,1,0,3:0:0:0:
85,350,239023,2,0,L|102:244,1,92.9999971618653,8|0,0:0|0:0,0:0:0:0:
39,97,239237,2,0,L|24:188,1,92.9999971618653,0|8,3:0|0:2,0:0:0:0:
186,336,239451,5,2,3:2:0:0:
236,376,239559,1,8,0:2:0:0:
300,378,239666,1,2,3:2:0:0:
355,344,239773,1,0,0:2:0:0:
377,284,239880,1,2,1:2:0:0:
361,223,239987,1,0,3:0:0:0:
312,179,240094,1,10,3:2:0:0:
245,171,240201,1,8,3:2:0:0:
188,203,240309,6,0,B|263:191|263:191|291:215|291:215|382:200,1,185.999994323731,6|0,3:2|0:0,0:0:0:0:
487,90,240630,1,2,3:2:0:0:
487,90,240737,2,0,L|462:195,1,92.9999971618653,8|0,0:2|0:0,0:0:0:0:
405,22,240951,1,2,3:2:0:0:
405,22,241059,1,0,0:0:0:0:
405,22,241166,2,0,L|358:221,1,185.999994323731,0|2,0:0|3:2,0:0:0:0:
231,284,241487,1,0,0:0:0:0:
188,203,241594,2,0,B|263:191|263:191|291:215|291:215|382:200,1,185.999994323731,8|2,0:2|3:2,0:0:0:0:
438,258,241916,1,2,3:2:0:0:
466,107,242023,6,0,P|380:118|362:203,1,185.999994323731,2|0,3:2|0:0,0:0:0:0:
312,344,242344,1,2,3:2:0:0:
398,355,242451,2,0,L|491:372,2,92.9999971618653,8|0|2,0:2|0:0|3:2,0:0:0:0:
122,270,242773,1,0,0:0:0:0:
175,204,242880,2,0,P|204:239|205:284,1,92.9999971618653,0|8,0:0|0:2,0:0:0:0:
229,384,243094,2,0,L|138:364,1,92.9999971618653,2|0,3:2|0:0,0:0:0:0:
31,289,243309,2,0,L|121:269,1,92.9999971618653,8|0,0:2|0:0,0:0:0:0:
252,27,243523,5,2,3:2:0:0:
252,27,243630,1,2,3:2:0:0:
252,27,243737,2,0,B|225:80|259:122|282:99|318:138|288:191,1,185.999994323731,2|8,3:2|0:2,0:0:0:0:
240,258,244059,1,0,0:0:0:0:
175,204,244166,2,0,P|129:199|93:227,1,92.9999971618653,8|0,0:2|0:0,0:0:0:0:
306,314,244380,2,0,P|351:318|387:290,1,92.9999971618653,10|8,0:2|0:2,0:0:0:0:
497,167,244594,5,8,0:2:0:0:
497,167,244701,1,8,0:2:0:0:
497,167,244809,2,0,L|378:145,1,92.9999971618653,0|0,3:0|0:0,0:0:0:0:
321,137,245023,1,10,0:2:0:0:
460,1,245237,5,8,0:2:0:0:
478,84,245344,1,8,0:2:0:0:
497,167,245451,6,0,B|386:147|386:147|356:182|356:182|226:159,1,278.999991485596,6|0,3:2|0:0,0:0:0:0:
217,158,245880,5,8,3:2:0:0:
223,185,245987,1,8,0:2:0:0:
229,212,246094,1,8,0:2:0:0:
235,239,246201,1,8,0:2:0:0:
241,266,246309,5,8,3:2:0:0:
205,308,246416,1,8,0:2:0:0:
149,316,246523,1,8,0:2:0:0:
107,279,246630,1,8,0:2:0:0:
105,223,246737,1,8,3:2:0:0:
142,182,246844,1,8,0:2:0:0:
170,123,246951,1,8,0:2:0:0:
154,49,247059,1,8,0:2:0:0:
145,43,247166,5,6,0:2:0:0:
