osu file format v14

[General]
AudioFilename: audio.mp3
AudioLeadIn: 0
PreviewTime: 203171
Countdown: 0
SampleSet: Soft
StackLeniency: 0.7
Mode: 0
LetterboxInBreaks: 0
WidescreenStoryboard: 1

[Editor]
DistanceSpacing: 0.9
BeatDivisor: 4
GridSize: 4
TimelineZoom: 1

[Metadata]
Title:ARIA
TitleUnicode:ARIA
Artist:FROZEN QUALIA
ArtistUnicode:FROZEN QUALIA
Creator:Hishiro Chizuru
Version:Hymn
Source:
Tags:夢乃ゆき yumeno yuki japanese pop amb1d3x
BeatmapID:1873114
BeatmapSetID:896551

[Difficulty]
HPDrainRate:5
CircleSize:4
OverallDifficulty:8
ApproachRate:8.8
SliderMultiplier:2.1
SliderTickRate:1

[Events]
//Background and Video events
0,0,"bgbg hymn.png",0,0
//Break Periods
//Storyboard Layer 0 (Background)
//Storyboard Layer 1 (Fail)
//Storyboard Layer 2 (Pass)
//Storyboard Layer 3 (Foreground)
//Storyboard Layer 4 (Overlay)
//Storyboard Sound Samples

[TimingPoints]
-828,428.571428571429,4,2,69,75,1,0
886,-133.333333333333,4,2,69,60,0,0
14600,-142.857142857143,4,2,69,40,0,0
28314,-142.857142857143,4,2,69,55,0,0
35493,-142.857142857143,4,2,69,5,0,0
35600,-142.857142857143,4,2,69,55,0,0
55743,-142.857142857143,4,2,69,65,0,0
59172,-100,4,2,69,75,0,1
59493,-100,4,2,69,5,0,0
59600,-100,4,2,69,75,0,1
59922,-100,4,2,69,5,0,0
60029,-100,4,2,69,75,0,1
60350,-100,4,2,69,5,0,0
60457,-100,4,2,69,75,0,1
60779,-100,4,2,69,5,0,0
60886,-100,4,2,69,75,0,0
72886,-100,4,2,69,75,0,1
73207,-100,4,2,69,5,0,0
73314,-100,4,2,69,75,0,1
73636,-100,4,2,69,5,0,0
73743,-100,4,2,69,75,0,1
74064,-100,4,2,69,5,0,0
74172,-100,4,2,69,75,0,1
74493,-100,4,2,69,5,0,0
74600,-100,4,2,69,75,0,0
80922,-100,4,2,69,5,0,0
81029,-100,4,2,69,75,0,0
81350,-100,4,2,69,5,0,0
81457,-100,4,2,69,75,0,0
81779,-100,4,2,69,5,0,0
81886,-100,4,2,69,75,0,0
84350,-100,4,2,69,5,0,0
84457,-100,4,2,69,75,0,0
84779,-100,4,2,69,5,0,0
84886,-100,4,2,69,75,0,0
85207,-100,4,2,69,5,0,0
85314,-100,4,2,69,75,0,0
86600,-111.111111111111,4,2,69,60,0,0
88636,-111.111111111111,4,2,69,5,0,0
88743,-111.111111111111,4,2,69,60,0,0
90350,-111.111111111111,4,2,69,5,0,0
90457,-111.111111111111,4,2,69,60,0,0
92064,-111.111111111111,4,2,69,5,0,0
92172,-111.111111111111,4,2,69,60,0,0
93779,-111.111111111111,4,2,69,5,0,0
93886,-111.111111111111,4,2,69,60,0,0
95493,-111.111111111111,4,2,69,5,0,0
95600,-111.111111111111,4,2,69,60,0,0
100314,-142.857142857143,4,2,69,50,0,0
113493,-142.857142857143,4,2,69,5,0,0
113600,-142.857142857143,4,2,69,50,0,0
114028,-142.857142857143,4,2,69,55,0,0
117779,-142.857142857143,4,2,69,5,0,0
117886,-142.857142857143,4,2,69,55,0,0
119064,-142.857142857143,4,2,69,5,0,0
119172,-142.857142857143,4,2,69,55,0,0
119493,-142.857142857143,4,2,69,5,0,0
119600,-142.857142857143,4,2,69,55,0,0
122922,-142.857142857143,4,2,69,5,0,0
123029,-142.857142857143,4,2,69,55,0,0
127743,-142.857142857143,4,2,69,60,0,0
141457,-142.857142857143,4,2,69,65,0,0
144886,-100,4,2,69,75,0,1
145207,-100,4,2,69,5,0,0
145314,-100,4,2,69,75,0,1
145636,-100,4,2,69,5,0,0
145743,-100,4,2,69,75,0,1
146064,-100,4,2,69,5,0,0
146172,-100,4,2,69,75,0,1
146493,-100,4,2,69,5,0,0
146600,-100,4,2,69,75,0,0
157207,-100,4,2,69,5,0,0
157314,-100,4,2,69,75,0,0
158600,-100,4,2,69,75,0,1
158922,-100,4,2,69,5,0,0
159029,-100,4,2,69,75,0,1
159350,-100,4,2,69,5,0,0
159457,-100,4,2,69,75,0,0
159779,-100,4,2,69,5,0,0
159886,-100,4,2,69,75,0,1
160207,-100,4,2,69,5,0,0
160314,-100,4,2,69,75,0,0
174243,-100,4,2,69,5,0,0
174350,-100,4,2,69,75,0,0
174564,-100,4,2,69,5,0,0
174672,-100,4,2,69,75,0,0
175743,-111.111111111111,4,2,69,65,0,0
186028,-111.111111111111,4,2,69,70,0,0
186457,-133.333333333333,4,2,69,70,0,0
187743,-111.111111111111,4,2,69,70,0,0
188386,-133.333333333333,4,2,69,70,0,0
192457,-111.111111111111,4,2,69,70,0,0
203171,-200,4,2,69,15,0,0
206600,-200,4,2,69,25,0,0
208314,-200,4,2,69,20,0,0
210028,-200,4,2,69,40,0,0
213457,-200,4,2,69,60,0,0
217314,-100,4,2,69,75,0,1
217636,-100,4,2,69,5,0,0
217743,-100,4,2,69,75,0,1
218064,-100,4,2,69,5,0,0
218172,-100,4,2,69,75,0,1
218493,-100,4,2,69,5,0,0
218600,-100,4,2,69,75,0,1
218922,-100,4,2,69,5,0,0
219029,-100,4,2,69,75,0,0
229207,-100,4,2,69,5,0,0
229314,-100,4,2,69,75,0,0
230600,-100,4,2,69,75,0,1
230922,-100,4,2,69,5,0,0
231029,-100,4,2,69,75,0,1
231350,-100,4,2,69,5,0,0
231457,-100,4,2,69,75,0,1
231779,-100,4,2,69,5,0,0
231886,-100,4,2,69,75,0,1
232207,-100,4,2,69,5,0,0
232314,-100,4,2,69,75,0,0
236064,-100,4,2,69,5,0,0
236172,-100,4,2,69,75,0,0
238636,-100,4,2,69,5,0,0
238743,-100,4,2,69,75,0,0
239064,-100,4,2,69,5,0,0
239172,-100,4,2,69,75,0,0
239493,-100,4,2,69,5,0,0
239600,-100,4,2,69,75,0,0
242922,-100,4,2,69,5,0,0
243029,-100,4,2,69,75,0,0
244314,-100,4,2,69,65,0,0
252886,-133.333333333333,4,2,69,60,0,0
254922,-133.333333333333,4,2,69,5,0,0
255029,-133.333333333333,4,2,69,60,0,0
275493,-133.333333333333,4,2,69,5,0,0
275600,-133.333333333333,4,2,69,60,0,0
282028,-133.333333333333,4,2,69,5,0,0

[Colours]
Combo1 : 250,190,230
Combo2 : 130,200,230
Combo3 : 255,230,140
Combo4 : 170,245,170

[HitObjects]
64,68,457,5,2,0:2:0:0:
87,56,564,1,2,0:2:0:0:
113,56,671,1,2,0:2:0:0:
138,63,778,1,2,0:2:0:0:
154,73,886,6,0,L|162:164,1,78.7500030040742,6|0,1:2|0:2,0:2:0:0:
226,215,1314,2,0,L|217:306,1,78.7500030040742,0|0,1:2|0:2,0:2:0:0:
243,129,1743,2,0,P|279:116|317:125,1,78.7500030040742,0|0,1:2|0:2,0:2:0:0:
372,197,2171,1,0,1:2:0:0:
415,107,2386,1,2,0:2:0:0:
451,280,2600,6,0,P|377:303|307:271,1,157.500006008148,2|2,1:2|1:2,0:2:0:0:
252,175,3243,2,0,L|341:167,1,78.7500030040742,2|0,0:2|1:2,0:2:0:0:
203,265,3671,2,0,L|113:257,2,78.7500030040742,2|0|0,0:2|1:2|0:2,0:2:0:0:
150,99,4314,6,0,L|155:182,1,78.7500030040742,2|0,1:2|0:2,0:2:0:0:
60,32,4743,2,0,L|54:115,1,78.7500030040742,0|0,1:2|0:2,0:2:0:0:
220,31,5171,2,0,P|259:23|298:28,1,78.7500030040742,0|0,1:2|0:2,0:2:0:0:
354,94,5600,1,0,1:2:0:0:
286,163,5814,1,2,0:2:0:0:
396,12,6028,6,0,P|470:32|496:103,1,157.500006008148,2|2,1:2|1:2,0:2:0:0:
417,237,6671,2,0,L|425:141,1,78.7500030040742,2|0,0:2|1:2,0:2:0:0:
491,306,7100,2,0,L|497:384,2,78.7500030040742,2|0|0,0:2|1:2|0:2,0:2:0:0:
343,185,7743,6,0,P|304:178|266:189,1,78.7500030040742,2|0,1:2|0:2,0:2:0:0:
216,264,8171,2,0,P|177:270|139:259,1,78.7500030040742,0|0,1:2|0:2,0:2:0:0:
67,206,8600,2,0,L|58:301,1,78.7500030040742,0|0,1:2|0:2,0:2:0:0:
49,372,9028,1,0,1:2:0:0:
149,348,9243,1,2,0:2:0:0:
6,150,9457,6,0,P|78:123|152:145,1,157.500006008148,2|0,1:2|1:2,0:2:0:0:
228,212,10100,2,0,L|236:116,1,78.7500030040742,2|0,0:2|1:2,0:2:0:0:
289,287,10528,2,0,P|323:304|361:299,2,78.7500030040742,2|0|0,0:2|1:2|0:2,0:2:0:0:
464,252,11171,6,0,L|472:347,1,78.7500030040742,2|0,1:2|0:2,0:2:0:0:
375,148,11600,2,0,L|366:243,1,78.7500030040742,0|0,1:2|0:2,0:2:0:0:
479,48,12028,2,0,L|487:143,1,78.7500030040742,0|0,1:2|0:2,0:2:0:0:
375,0,12457,1,8,1:2:0:0:
359,1,12564,1,8,0:2:0:0:
343,10,12671,1,8,0:2:0:0:
327,12,12778,1,8,0:2:0:0:
310,20,12886,6,0,P|318:59|313:98,1,78.7500030040742,4|0,1:2|1:2,0:2:0:0:
300,125,13207,1,0,1:2:0:0:
300,127,13314,1,0,1:2:0:0:
240,220,13528,2,0,P|278:216|314:232,1,78.7500030040742,10|0,0:2|1:2,0:2:0:0:
384,318,13957,1,8,0:2:0:0:
384,318,14064,1,8,0:2:0:0:
384,318,14171,1,8,1:2:0:0:
420,186,14386,1,8,0:2:0:0:
235,56,14600,6,0,P|162:56|92:76,1,146.999995513916,6|0,1:2|1:2,0:2:0:0:
10,134,15243,2,0,L|3:60,1,73.4999977569581,2|0,0:2|1:2,0:2:0:0:
3,60,15886,1,0,1:2:0:0:
23,222,16314,5,0,1:2:0:0:
68,291,16528,1,2,0:2:0:0:
139,242,16743,1,0,1:2:0:0:
180,324,16957,2,0,L|277:316,1,73.4999977569581,2|0,0:2|1:2,0:2:0:0:
253,317,17600,1,0,1:2:0:0:
403,345,18028,6,0,P|417:273|408:200,1,146.999995513916,2|0,1:2|1:2,0:2:0:0:
305,38,18886,2,0,P|364:-2|431:20,1,146.999995513916,2|0,1:2|1:2,0:2:0:0:
125,67,19743,6,0,P|66:27|-1:50,1,146.999995513916,2|0,1:2|1:2,0:2:0:0:
80,377,20600,2,0,P|78:303|91:231,1,146.999995513916,2|0,1:2|1:2,0:2:0:0:
399,161,21457,6,0,P|328:143|260:168,1,146.999995513916,2|0,1:2|1:2,0:2:0:0:
193,221,22100,2,0,L|185:133,1,73.4999977569581,2|0,0:2|1:2,0:2:0:0:
187,147,22743,1,0,1:2:0:0:
405,234,23171,6,0,P|334:216|266:241,1,146.999995513916,2|0,1:2|1:2,0:2:0:0:
199,294,23814,2,0,L|191:206,1,73.4999977569581,2|0,0:2|1:2,0:2:0:0:
335,295,24457,2,0,L|327:382,1,73.4999977569581,0|2,1:2|0:2,0:2:0:0:
199,294,24886,6,0,L|185:134,1,146.999995513916,2|0,1:2|1:2,0:2:0:0:
177,56,25528,2,0,P|211:68|247:64,1,73.4999977569581,2|0,0:2|1:2,0:2:0:0:
318,28,25957,1,2,0:2:0:0:
378,86,26171,1,2,1:2:0:0:
347,163,26386,2,0,L|353:242,1,73.4999977569581,2|0,0:2|1:2,0:2:0:0:
378,86,26814,1,2,0:2:0:0:
347,163,27028,1,2,1:2:0:0:
427,223,27243,1,2,0:2:0:0:
328,341,27457,6,0,L|334:261,1,73.4999977569581,2|0,1:2|0:2,0:2:0:0:
344,249,27778,1,0,0:2:0:0:
344,249,27885,1,6,1:2:0:0:
238,365,28314,6,0,P|170:368|105:320,1,146.999995513916,6|0,1:2|1:2,0:2:0:0:
83,240,28957,1,2,0:2:0:0:
145,166,29171,2,0,L|232:173,1,73.4999977569581,0|2,1:2|0:2,0:2:0:0:
87,92,29600,2,0,L|0:99,1,73.4999977569581,0|2,1:2|0:2,0:2:0:0:
192,4,30028,6,0,P|254:39|286:105,1,146.999995513916,2|2,1:2|1:2,0:2:0:0:
301,192,30671,1,2,0:2:0:0:
437,120,30886,2,0,P|400:121|365:132,1,73.4999977569581,0|2,1:2|0:2,0:2:0:0:
290,207,31314,2,0,P|326:208|361:219,1,73.4999977569581,0|2,1:2|0:2,0:2:0:0:
199,348,31743,6,0,L|186:201,1,146.999995513916,2|2,1:2|1:2,0:2:0:0:
52,273,32386,1,2,0:2:0:0:
52,273,32600,2,0,L|64:126,1,146.999995513916,2|2,1:2|1:2,0:2:0:0:
171,174,33243,1,2,0:2:0:0:
312,42,33457,6,0,P|241:25|177:57,1,146.999995513916,2|0,1:2|1:2,0:2:0:0:
145,136,34100,1,2,0:2:0:0:
228,202,34314,2,0,L|234:122,1,73.4999977569581,0|0,1:2|0:2,0:2:0:0:
137,309,34743,2,0,L|130:229,1,73.4999977569581,0|0,1:2|0:2,0:2:0:0:
299,335,35171,6,0,B|325:346|355:340|350:330|377:326|406:335,1,110.249996635437,2|0,1:2|0:2,0:2:0:0:
423,348,35600,1,2,1:2:0:0:
458,263,35814,1,2,0:2:0:0:
407,186,36028,2,0,P|370:182|336:194,1,73.4999977569581,0|2,1:2|0:2,0:2:0:0:
291,270,36457,1,0,1:2:0:0:
244,195,36671,1,2,0:2:0:0:
103,352,36886,6,0,P|154:276|207:276,1,146.999995513916,0|2,1:2|1:2,0:2:0:0:
99,191,37528,1,0,0:2:0:0:
99,191,37743,2,0,P|69:126|0:113,1,146.999995513916,2|2,1:2|1:2,0:2:0:0:
236,98,38386,1,0,0:2:0:0:
236,98,38600,6,0,P|264:48|210:67,1,146.999995513916,2|0,1:2|1:2,0:2:0:0:
338,119,39243,1,2,0:2:0:0:
207,170,39457,2,0,P|242:177|277:166,1,73.4999977569581,0|0,1:2|0:2,0:2:0:0:
390,256,39886,2,0,P|362:231|351:197,1,73.4999977569581,0|0,1:2|0:2,0:2:0:0:
460,33,40314,6,0,L|466:106,1,73.4999977569581,0|0,1:2|0:2,0:2:0:0:
476,188,40743,1,0,1:2:0:0:
362,112,40957,1,8,0:2:0:0:
359,136,41064,1,8,0:2:0:0:
357,161,41171,1,8,1:2:0:0:
268,130,41386,1,8,0:2:0:0:
267,151,41493,1,8,0:2:0:0:
237,171,41600,1,8,1:2:0:0:
240,192,41707,1,8,0:2:0:0:
242,216,41814,1,8,0:2:0:0:
244,237,41921,1,8,0:2:0:0:
245,258,42028,6,0,L|170:252,1,73.4999977569581,4|2,0:2|0:2,0:2:0:0:
97,164,42457,1,8,0:2:0:0:
232,103,42671,1,2,1:2:0:0:
252,258,42886,2,0,L|177:252,1,73.4999977569581,8|2,0:2|0:2,0:2:0:0:
105,172,43315,1,8,0:2:0:0:
240,111,43529,1,0,1:2:0:0:
301,323,43743,5,8,0:2:0:0:
336,201,43957,1,2,0:2:0:0:
212,283,44172,5,10,0:2:0:0:
187,158,44386,1,2,1:2:0:0:
377,306,44600,5,10,0:2:0:0:
232,358,44814,1,2,1:2:0:0:
456,316,45028,5,10,0:2:0:0:
286,255,45242,1,2,1:2:0:0:
466,153,45457,6,0,L|474:248,1,73.4999977569581,8|2,0:2|0:2,0:2:0:0:
325,157,45886,1,8,0:2:0:0:
407,38,46100,1,2,1:2:0:0:
458,161,46314,2,0,L|466:256,1,73.4999977569581,8|2,0:2|0:2,0:2:0:0:
317,165,46743,1,10,0:2:0:0:
399,46,46957,1,2,1:2:0:0:
223,106,47171,5,8,0:2:0:0:
167,5,47386,1,2,0:2:0:0:
187,188,47600,5,8,0:2:0:0:
249,21,47814,1,0,1:2:0:0:
292,224,48028,5,10,0:2:0:0:
126,130,48243,1,2,1:2:0:0:
330,142,48457,5,10,0:2:0:0:
160,224,48671,1,2,1:2:0:0:
460,291,48886,6,0,P|426:305|389:305,1,73.4999977569581,8|2,0:2|0:2,0:2:0:0:
286,246,49315,1,10,0:2:0:0:
406,116,49528,1,2,1:2:0:0:
463,301,49743,2,0,P|429:315|392:315,1,73.4999977569581,8|2,0:2|0:2,0:2:0:0:
289,257,50172,1,10,0:2:0:0:
409,127,50386,1,2,1:2:0:0:
287,67,50600,5,8,0:2:0:0:
412,18,50814,1,2,0:2:0:0:
183,57,51028,5,10,0:2:0:0:
358,117,51242,1,2,1:2:0:0:
64,220,51457,5,10,0:2:0:0:
23,71,51671,1,2,1:2:0:0:
194,303,51886,5,10,0:2:0:0:
229,149,52100,1,2,1:2:0:0:
37,341,52314,6,0,P|31:270|85:224,1,146.999995513916,14|2,0:2|1:2,0:2:0:0:
168,150,52957,2,0,L|93:145,1,73.4999977569581,10|0,0:2|0:2,0:2:0:0:
182,266,53386,2,0,L|269:258,1,73.4999977569581,2|0,1:2|1:2,0:2:0:0:
357,250,53814,1,10,0:2:0:0:
364,142,54886,2,0,P|349:194|356:249,2,110.249996635437,2|2|2,0:2|0:2|0:2,0:2:0:0:
416,62,55743,5,2,1:2:0:0:
458,162,55957,1,0,1:2:0:0:
430,281,56171,1,0,1:2:0:0:
288,305,56386,1,2,1:2:0:0:
111,50,56600,5,2,1:2:0:0:
120,158,56814,1,0,1:2:0:0:
201,249,57028,1,0,1:2:0:0:
338,204,57243,1,2,1:2:0:0:
244,22,57457,2,0,P|163:15|99:67,1,146.999995513916,14|0,1:2|0:2,0:2:0:0:
65,123,58100,1,2,0:2:0:0:
146,200,58314,2,0,P|199:186|282:222,1,146.999995513916,2|0,0:2|0:2,0:2:0:0:
300,352,58886,1,2,0:2:0:0:
296,356,58958,1,2,0:2:0:0:
292,360,59029,1,2,0:2:0:0:
288,364,59100,1,2,0:2:0:0:
284,368,59172,6,0,P|218:330|143:349,1,157.5,6|0,1:2|0:2,0:2:0:0:
54,335,59600,2,0,P|108:280|184:279,1,157.5,2|0,1:2|0:2,0:2:0:0:
281,269,60028,2,0,P|226:214|150:213,1,157.5,2|0,1:2|0:2,0:2:0:0:
62,202,60457,2,0,P|116:147|192:146,1,157.5,2|0,1:2|0:2,0:2:0:0:
345,349,60886,6,0,L|353:241,1,105,2|0,1:2|0:2,0:2:0:0:
361,156,61314,1,0,1:2:0:0:
433,358,61528,1,2,0:2:0:0:
493,292,61743,2,0,P|473:242|410:208,1,105,0|0,1:2|0:2,0:2:0:0:
277,196,62171,1,2,1:2:0:0:
427,26,62386,1,2,0:2:0:0:
427,26,62493,1,2,0:2:0:0:
426,25,62600,6,0,P|448:71|438:122,1,105,0|0,1:2|0:2,0:2:0:0:
361,156,63028,1,0,1:2:0:0:
264,82,63243,1,0,0:2:0:0:
264,81,63457,2,0,P|312:63|363:75,1,105,2|0,1:2|0:2,0:2:0:0:
224,169,63886,2,0,P|175:151|124:163,1,105,2|2,1:2|0:2,0:2:0:0:
240,321,64314,6,0,P|320:260|320:158,1,210,2|2,1:2|1:2,0:2:0:0:
274,69,64957,2,0,L|399:79,1,105,2|0,0:2|1:2,0:2:0:0:
227,157,65386,1,2,0:2:0:0:
176,70,65600,1,0,1:2:0:0:
320,158,65814,1,2,0:2:0:0:
378,78,66028,5,0,1:2:0:0:
278,20,66243,1,2,0:2:0:0:
226,156,66457,2,0,L|116:165,1,105,0|2,1:2|0:2,0:2:0:0:
65,244,66778,1,2,0:2:0:0:
65,244,66886,2,0,L|175:253,1,105,0|2,1:2|0:2,0:2:0:0:
260,263,67314,1,0,1:2:0:0:
292,106,67528,1,2,0:2:0:0:
292,106,67636,1,2,0:2:0:0:
292,106,67743,6,0,P|240:138|217:201,1,105,0|2,1:2|0:2,0:2:0:0:
310,22,68171,2,0,P|361:54|384:117,1,105,0|2,1:2|0:2,0:2:0:0:
347,170,68493,1,2,0:2:0:0:
347,170,68600,2,0,L|356:273,1,105,0|0,1:2|0:2,0:2:0:0:
248,253,69028,1,2,1:2:0:0:
440,160,69243,1,2,0:2:0:0:
184,78,69457,6,0,P|101:134|108:234,1,210,2|2,1:2|1:2,0:2:0:0:
166,317,70100,1,2,0:2:0:0:
309,219,70314,2,0,L|205:228,1,105,0|2,1:2|0:2,0:2:0:0:
365,307,70743,1,0,1:2:0:0:
409,210,70957,1,2,0:2:0:0:
205,228,71171,6,0,L|308:218,1,105,2|0,1:2|0:2,0:2:0:0:
409,210,71600,1,2,1:2:0:0:
353,133,71814,1,2,0:2:0:0:
287,301,72028,1,0,1:2:0:0:
186,112,72243,1,2,1:2:0:0:
136,328,72457,1,2,1:2:0:0:
242,225,72671,1,8,0:2:0:0:
284,214,72778,1,8,0:2:0:0:
335,223,72886,6,0,P|411:211|447:145,1,157.5,14|0,1:2|0:2,0:2:0:0:
242,225,73314,2,0,P|317:232|370:177,1,157.5,2|0,1:2|0:2,0:2:0:0:
150,201,73743,2,0,P|221:228|286:188,1,157.5,2|0,1:2|0:2,0:2:0:0:
67,154,74171,2,0,P|128:198|201:177,1,157.5,2|0,1:2|0:2,0:2:0:0:
28,80,74600,6,0,L|18:191,1,105,2|0,1:2|0:2,0:2:0:0:
10,272,75028,1,0,1:2:0:0:
192,233,75243,1,2,0:2:0:0:
192,233,75457,2,0,P|142:216|92:230,1,105,0|0,1:2|0:2,0:2:0:0:
214,326,75886,1,0,1:2:0:0:
276,157,76100,1,2,0:2:0:0:
276,157,76207,1,2,0:2:0:0:
276,157,76314,6,0,P|325:173|375:159,1,105,2|0,1:2|0:2,0:2:0:0:
418,75,76743,1,0,1:2:0:0:
471,167,76957,1,2,0:2:0:0:
310,62,77171,2,0,L|186:72,1,105,2|2,1:2|0:2,0:2:0:0:
51,139,77600,2,0,L|174:149,1,105,0|2,1:2|0:2,0:2:0:0:
256,340,78028,6,0,P|213:240|251:151,1,210,2|2,1:2|1:2,0:2:0:0:
303,71,78671,2,0,L|195:61,1,105,2|0,0:2|1:2,0:2:0:0:
357,162,79100,1,2,0:2:0:0:
391,13,79314,2,0,L|510:2,1,105,0|2,1:2|0:2,0:2:0:0:
250,152,79743,6,0,P|239:203|248:254,1,105,2|0,1:2|0:2,0:2:0:0:
329,379,80171,2,0,P|339:327|330:276,1,105,0|0,1:2|0:2,0:2:0:0:
103,261,80600,2,0,P|173:230|247:253,1,157.5,2|0,1:2|0:2,0:2:0:0:
305,190,81028,2,0,P|228:179|163:220,1,157.5,2|0,1:2|0:2,0:2:0:0:
124,145,81457,6,0,P|200:154|252:210,1,157.5,2|0,1:2|0:2,0:2:0:0:
273,306,81886,1,2,1:2:0:0:
446,240,82100,2,0,P|395:226|346:240,1,105,2|0,0:2|1:2,0:2:0:0:
156,184,82528,2,0,P|207:183|252:210,1,105,2|0,0:2|1:2,0:2:0:0:
273,306,82957,1,0,0:2:0:0:
337,136,83171,6,0,L|346:243,1,105,2|0,1:2|0:2,0:2:0:0:
191,113,83600,2,0,L|181:217,1,105,2|0,1:2|0:2,0:2:0:0:
210,30,84028,2,0,P|134:42|98:108,1,157.5,2|0,1:2|0:2,0:2:0:0:
303,28,84457,2,0,P|228:21|175:76,1,157.5,2|0,1:2|0:2,0:2:0:0:
395,52,84885,6,0,P|324:25|259:65,1,157.5,2|0,1:2|0:2,0:2:0:0:
282,151,85314,2,0,L|272:259,1,105,2|2,1:2|0:2,0:2:0:0:
267,338,85636,1,0,1:2:0:0:
281,348,85743,1,8,1:2:0:0:
292,357,85850,1,8,0:2:0:0:
305,366,85957,1,10,0:2:0:0:
344,250,86171,1,0,1:2:0:0:
198,157,86386,1,10,0:2:0:0:
161,148,86493,1,8,0:2:0:0:
122,162,86600,6,0,P|96:213|108:279,1,94.499997116089,10|0,1:2|0:2,0:2:0:0:
257,302,87028,2,0,P|225:253|162:231,1,94.499997116089,0|2,1:2|0:2,0:2:0:0:
64,349,87457,2,0,P|121:346|172:302,1,94.499997116089,2|2,1:2|0:2,0:2:0:0:
222,253,87886,1,0,1:2:0:0:
256,358,88100,1,2,0:2:0:0:
477,285,88314,6,0,B|445:275|403:281|412:296|379:304|338:292,1,141.749995674133,2|0,1:2|0:2,0:2:0:0:
320,275,88743,1,2,1:2:0:0:
286,181,88957,1,2,0:2:0:0:
390,67,89171,2,0,L|280:57,1,94.499997116089,0|2,1:2|0:2,0:2:0:0:
114,123,89600,2,0,L|223:113,1,94.499997116089,0|0,1:2|0:2,0:2:0:0:
30,81,90028,6,0,P|6:147|20:216,1,141.749995674133,2|0,1:2|0:2,0:2:0:0:
36,235,90457,1,0,1:2:0:0:
122,202,90671,1,0,0:2:0:0:
196,311,90886,2,0,P|150:319|108:298,1,94.499997116089,0|0,1:2|0:2,0:2:0:0:
245,223,91314,1,0,1:2:0:0:
286,333,91528,1,2,0:2:0:0:
489,223,91743,6,0,P|423:198|358:223,1,141.749995674133,2|0,1:2|0:2,0:2:0:0:
346,246,92171,1,2,1:2:0:0:
377,334,92386,1,2,0:2:0:0:
497,231,92600,2,0,L|486:129,1,94.499997116089,0|2,1:2|0:2,0:2:0:0:
476,26,93028,2,0,P|452:65|407:91,1,94.499997116089,0|0,1:2|0:2,0:2:0:0:
244,123,93457,6,0,P|313:122|370:162,1,141.749995674133,2|0,1:2|0:2,0:2:0:0:
378,186,93886,1,0,1:2:0:0:
324,254,94100,1,0,0:2:0:0:
185,197,94314,1,0,1:2:0:0:
248,127,94528,1,0,0:2:0:0:
328,258,94743,1,0,1:2:0:0:
267,320,94957,1,2,0:2:0:0:
58,218,95171,6,0,P|74:150|133:115,1,141.749995674133,2|0,1:2|0:2,0:2:0:0:
161,116,95600,1,2,1:2:0:0:
233,177,95814,1,2,0:2:0:0:
341,81,96028,2,0,L|245:89,1,94.499997116089,0|2,1:2|0:2,0:2:0:0:
144,200,96457,2,0,P|190:193|230:215,1,94.499997116089,0|0,1:2|0:2,0:2:0:0:
180,370,96886,6,0,L|171:270,1,94.499997116089,2|0,1:2|0:2,0:2:0:0:
51,309,97314,2,0,L|59:209,1,94.499997116089,0|0,1:2|0:2,0:2:0:0:
224,167,97743,2,0,P|179:152|134:161,1,94.499997116089,0|0,1:2|0:2,0:2:0:0:
0,81,98171,1,8,1:2:0:0:
22,98,98278,1,8,0:2:0:0:
50,100,98386,1,8,0:2:0:0:
78,98,98493,1,8,0:2:0:0:
104,80,98600,6,0,P|148:62|195:65,1,94.499997116089,0|0,1:2|0:2,0:2:0:0:
220,78,98921,1,8,0:2:0:0:
220,78,99028,1,0,1:2:0:0:
294,147,99243,1,8,0:2:0:0:
352,63,99457,1,0,1:2:0:0:
491,151,99671,1,8,0:2:0:0:
463,142,99778,1,8,0:2:0:0:
430,165,99886,1,8,1:2:0:0:
402,172,99993,1,8,0:2:0:0:
379,189,100100,1,8,0:2:0:0:
362,211,100207,1,8,0:2:0:0:
352,236,100314,6,0,P|356:274|381:318,1,73.4999977569581,0|0,1:2|0:2,0:2:0:0:
286,373,100743,2,0,P|282:335|257:291,1,73.4999977569581,0|2,1:2|0:2,0:2:0:0:
187,202,101171,2,0,L|260:208,1,73.4999977569581,0|2,1:2|0:2,0:2:0:0:
75,192,101600,1,8,0:2:0:0:
329,51,102028,6,0,L|336:138,1,73.4999977569581,2|0,1:2|0:2,0:2:0:0:
277,195,102457,2,0,L|269:282,1,73.4999977569581,0|0,1:2|0:2,0:2:0:0:
244,107,102886,2,0,P|207:100|171:107,1,73.4999977569581,0|0,1:2|0:2,0:2:0:0:
75,192,103314,1,8,0:2:0:0:
168,382,103743,6,0,P|204:380|236:362,1,73.4999977569581,2|0,1:2|0:2,0:2:0:0:
184,227,104171,2,0,L|175:318,1,73.4999977569581,0|0,1:2|0:2,0:2:0:0:
327,309,104600,2,0,P|290:307|258:289,1,73.4999977569581,0|0,1:2|0:2,0:2:0:0:
75,192,105028,1,8,0:2:0:0:
366,321,105457,6,0,P|402:319|435:335,1,73.4999977569581,2|0,1:2|0:2,0:2:0:0:
286,302,105886,2,0,P|302:269|332:249,1,73.4999977569581,0|0,1:2|0:2,0:2:0:0:
206,294,106314,2,0,P|208:330|228:360,1,73.4999977569581,0|0,1:2|0:2,0:2:0:0:
75,192,106743,1,10,0:2:0:0:
383,188,107171,6,0,P|341:130|368:65,1,146.999995513916,2|0,1:2|1:2,0:2:0:0:
260,149,107814,1,0,0:2:0:0:
202,68,108028,2,0,L|289:60,1,73.4999977569581,0|0,1:2|0:2,0:2:0:0:
75,192,108457,1,8,0:2:0:0:
310,219,108886,6,0,P|308:161|350:200,1,146.999995513916,2|2,1:2|1:2,0:2:0:0:
228,125,109528,1,0,0:2:0:0:
374,100,109743,2,0,P|340:86|303:87,1,73.4999977569581,0|0,1:2|0:2,0:2:0:0:
75,192,110171,1,10,0:2:0:0:
258,376,110600,6,0,B|246:334|252:299|268:306|273:271|257:228,1,146.999995513916,2|2,1:2|1:2,0:2:0:0:
179,141,111457,2,0,P|110:131|74:191,1,146.999995513916,2|8,1:2|1:2,0:2:0:0:
333,141,112314,2,0,P|401:131|437:191,1,146.999995513916,2|0,1:2|1:2,0:2:0:0:
196,222,113171,2,0,P|151:238|78:203,1,110.249996635437,2|0,1:2|0:2,0:2:0:0:
75,192,113600,1,8,1:2:0:0:
143,95,113814,1,8,0:2:0:0:
145,117,113921,1,8,0:2:0:0:
147,141,114028,6,0,L|219:147,1,73.4999977569581,10|0,1:2|0:2,0:2:0:0:
323,226,114457,2,0,L|251:232,1,73.4999977569581,0|0,1:2|0:2,0:2:0:0:
367,142,114886,1,0,1:2:0:0:
389,144,114993,1,8,0:2:0:0:
414,146,115100,1,8,0:2:0:0:
511,161,115314,1,0,1:2:0:0:
451,247,115528,1,2,0:2:0:0:
358,53,115743,6,0,L|210:65,1,146.999995513916,10|2,1:2|1:2,0:2:0:0:
118,73,116386,1,2,0:2:0:0:
24,103,116600,1,0,1:2:0:0:
26,81,116707,1,8,0:2:0:0:
28,56,116814,1,2,0:2:0:0:
98,176,117028,2,0,L|104:249,1,73.4999977569581,0|2,1:2|2:2,2:2:0:0:
239,364,117457,6,0,P|288:341|311:293,1,110.249996635437,10|0,1:2|0:2,0:2:0:0:
396,299,117886,2,0,P|342:290|307:249,1,110.249996635437,2|0,1:2|0:2,0:2:0:0:
387,164,118314,1,0,1:2:0:0:
385,186,118421,1,8,0:2:0:0:
383,211,118528,1,2,0:2:0:0:
207,191,118743,2,0,P|254:165|308:171,1,110.249996635437,0|0,1:2|0:2,0:2:0:0:
234,122,119171,6,0,P|186:96|132:102,1,110.249996635437,10|0,1:2|0:2,0:2:0:0:
51,145,119600,2,0,L|44:65,1,73.4999977569581,0|0,1:2|0:2,0:2:0:0:
125,194,120028,1,0,1:2:0:0:
123,216,120135,1,8,0:2:0:0:
121,241,120242,1,0,0:2:0:0:
112,332,120457,1,0,1:2:0:0:
37,272,120671,1,0,0:2:0:0:
210,143,120886,6,0,P|283:145|342:187,1,146.999995513916,10|2,1:2|1:2,0:2:0:0:
371,273,121528,1,2,0:2:0:0:
473,199,121743,1,0,1:2:0:0:
451,201,121850,1,8,0:2:0:0:
426,203,121957,1,2,0:2:0:0:
272,140,122171,2,0,L|345:146,1,73.4999977569581,0|2,1:2|0:2,0:2:0:0:
287,306,122600,6,0,P|233:302|196:263,1,110.249996635437,2|0,1:2|0:2,0:2:0:0:
353,340,123028,2,0,P|301:322|276:275,1,110.249996635437,2|0,1:2|0:2,0:2:0:0:
353,214,123457,1,0,1:2:0:0:
351,236,123564,1,8,0:2:0:0:
349,261,123671,1,0,0:2:0:0:
361,137,123886,2,0,P|395:147|418:176,1,73.4999977569581,0|0,1:2|0:2,0:2:0:0:
460,272,124314,6,0,P|449:199|460:127,1,146.999995513916,2|0,1:2|1:2,0:2:0:0:
499,49,124957,1,2,0:2:0:0:
363,56,125171,1,0,1:2:0:0:
385,54,125278,1,10,0:2:0:0:
410,52,125385,1,0,0:2:0:0:
277,130,125600,2,0,L|189:122,1,73.4999977569581,0|0,1:2|0:2,0:2:0:0:
399,143,126028,6,0,P|414:213|390:282,1,146.999995513916,0|8,1:2|1:2,0:2:0:0:
326,340,126671,1,8,0:2:0:0:
236,260,126886,2,0,L|315:253,1,73.4999977569581,0|8,1:2|0:2,0:2:0:0:
213,361,127314,1,0,1:2:0:0:
125,233,127528,1,8,0:2:0:0:
127,255,127635,1,8,0:2:0:0:
129,280,127743,6,0,L|53:273,1,73.4999977569581,14|2,1:2|0:2,0:2:0:0:
102,125,128171,1,10,0:2:0:0:
247,198,128386,1,2,1:2:0:0:
121,288,128600,2,0,L|45:281,1,73.4999977569581,8|2,0:2|0:2,0:2:0:0:
94,133,129028,1,8,0:2:0:0:
239,206,129243,1,0,1:2:0:0:
30,197,129457,5,8,0:2:0:0:
10,79,129671,1,2,0:2:0:0:
124,290,129886,5,8,0:2:0:0:
169,183,130100,1,2,1:2:0:0:
187,346,130314,5,10,0:2:0:0:
91,208,130528,1,2,1:2:0:0:
312,220,130743,5,10,0:2:0:0:
264,381,130957,1,2,1:2:0:0:
159,172,131171,6,0,P|182:143|214:126,1,73.4999977569581,8|2,0:2|0:2,0:2:0:0:
333,130,131600,1,10,0:2:0:0:
288,301,131814,1,2,1:2:0:0:
151,164,132028,2,0,P|174:135|206:118,1,73.4999977569581,8|2,0:2|0:2,0:2:0:0:
325,122,132457,1,10,0:2:0:0:
280,293,132671,1,2,1:2:0:0:
206,118,132886,5,8,0:2:0:0:
336,220,133100,1,2,0:2:0:0:
164,195,133314,5,10,0:2:0:0:
360,141,133528,1,2,1:2:0:0:
281,302,133743,5,10,0:2:0:0:
261,159,133957,1,2,1:2:0:0:
379,355,134171,5,10,0:2:0:0:
423,217,134385,1,2,1:2:0:0:
207,295,134600,6,0,L|294:302,1,73.4999977569581,8|2,0:2|0:2,0:2:0:0:
207,162,135028,1,10,0:2:0:0:
84,222,135243,1,2,1:2:0:0:
215,303,135457,2,0,L|302:310,1,73.4999977569581,8|2,0:2|0:2,0:2:0:0:
215,170,135885,1,10,0:2:0:0:
92,230,136100,1,2,1:2:0:0:
144,65,136314,5,8,0:2:0:0:
181,258,136528,1,2,0:2:0:0:
310,135,136743,5,10,0:2:0:0:
273,328,136957,1,2,1:2:0:0:
142,140,137171,5,10,0:2:0:0:
402,180,137386,1,10,0:2:0:0:
130,239,137600,5,2,0:2:0:0:
419,95,137814,1,2,0:2:0:0:
260,286,138028,6,0,P|330:269|400:291,1,146.999995513916,14|2,0:2|1:2,0:2:0:0:
512,384,138671,2,0,P|486:358|479:323,1,73.4999977569581,10|0,0:2|0:2,0:2:0:0:
478,148,139100,2,0,L|398:154,1,73.4999977569581,10|0,0:2|1:2,0:2:0:0:
292,164,139528,1,2,1:2:0:0:
194,119,140600,2,0,P|246:131|291:163,2,110.249996635437,2|2|2,0:2|0:2|0:2,0:2:0:0:
271,264,141457,5,2,1:2:0:0:
373,228,141671,1,0,1:2:0:0:
443,127,141885,1,0,1:2:0:0:
365,6,142100,1,2,1:2:0:0:
82,31,142314,5,2,1:2:0:0:
107,135,142528,1,0,1:2:0:0:
199,215,142742,1,0,1:2:0:0:
328,150,142957,1,2,1:2:0:0:
196,11,143171,5,14,1:2:0:0:
299,252,143493,1,0,1:2:0:0:
196,11,143814,1,2,1:2:0:0:
182,141,144028,1,2,1:2:0:0:
441,43,144457,1,8,1:2:0:0:
458,56,144564,1,8,0:2:0:0:
470,74,144671,1,8,0:2:0:0:
473,95,144778,1,8,0:2:0:0:
465,118,144886,6,0,P|399:156|324:137,1,157.5,6|0,1:2|0:2,0:2:0:0:
241,155,145315,2,0,P|295:209|371:210,1,157.5,2|0,1:2|0:2,0:2:0:0:
460,219,145743,2,0,P|405:273|329:274,1,157.5,2|0,1:2|0:2,0:2:0:0:
241,284,146171,2,0,P|295:338|371:339,1,157.5,2|0,1:2|0:2,0:2:0:0:
352,84,146600,6,2,L|248:93,1,105,0|0,1:2|0:2,0:2:0:0:
150,104,147028,1,0,1:2:0:0:
209,178,147243,1,2,0:2:0:0:
94,33,147457,2,0,P|63:74|60:126,1,105,2|0,1:2|0:2,0:2:0:0:
99,216,147886,1,2,1:2:0:0:
40,320,148100,1,2,0:2:0:0:
68,334,148207,1,2,0:2:0:0:
98,330,148314,6,0,P|148:312|199:319,1,105,2|0,1:2|0:2,0:2:0:0:
268,374,148743,1,0,1:2:0:0:
297,236,148957,1,2,0:2:0:0:
443,327,149171,2,0,P|393:344|342:337,1,105,2|2,1:2|0:2,0:2:0:0:
374,155,149600,2,0,L|383:258,1,105,0|2,1:2|0:2,0:2:0:0:
305,60,150028,6,0,B|241:42|195:50|204:67|153:84|89:60,1,210,2|2,1:2|1:2,0:2:0:0:
26,18,150671,1,2,0:2:0:0:
165,104,150886,2,0,P|176:154|155:207,1,105,0|2,1:2|0:2,0:2:0:0:
107,282,151314,2,0,L|226:292,1,105,0|2,1:2|0:2,0:2:0:0:
344,304,151743,5,0,1:2:0:0:
286,214,151957,1,2,0:2:0:0:
375,51,152171,2,0,P|395:98|387:149,1,105,2|2,1:2|0:2,0:2:0:0:
372,229,152493,1,2,0:2:0:0:
372,229,152600,2,0,L|475:219,1,105,0|2,1:2|0:2,0:2:0:0:
435,312,153028,1,2,1:2:0:0:
312,104,153243,1,2,0:2:0:0:
312,104,153350,1,2,0:2:0:0:
312,104,153457,6,0,L|302:215,1,105,0|2,1:2|0:2,0:2:0:0:
174,27,153886,2,0,L|183:138,1,105,2|2,1:2|0:2,0:2:0:0:
192,216,154207,1,2,0:2:0:0:
191,215,154314,2,0,P|140:211|92:233,1,105,0|2,1:2|0:2,0:2:0:0:
77,325,154743,1,2,1:2:0:0:
258,336,154957,1,2,0:2:0:0:
258,336,155064,1,2,0:2:0:0:
257,335,155171,6,0,P|282:241|380:236,1,210,2|2,1:2|1:2,0:2:0:0:
449,299,155814,1,2,0:2:0:0:
470,108,156028,2,0,L|460:215,1,105,0|2,1:2|0:2,0:2:0:0:
355,46,156457,2,0,L|361:157,1,105,0|2,1:2|0:2,0:2:0:0:
229,84,156886,6,0,P|154:65|93:109,1,157.5,2|0,1:2|0:2,0:2:0:0:
79,132,157314,2,0,L|88:239,1,105,2|2,1:2|0:2,0:2:0:0:
94,329,157743,1,0,1:2:0:0:
178,231,157957,1,10,0:2:0:0:
0,161,158171,1,2,1:2:0:0:
183,38,158386,1,8,0:2:0:0:
201,75,158493,1,8,0:2:0:0:
197,105,158600,6,0,P|121:93|85:27,1,157.5,6|0,1:2|0:2,0:2:0:0:
290,107,159028,2,0,P|215:114|162:59,1,157.5,2|0,1:2|0:2,0:2:0:0:
382,83,159457,2,0,P|311:110|246:70,1,157.5,2|0,1:2|0:2,0:2:0:0:
465,36,159885,2,0,P|404:80|331:59,1,157.5,2|0,1:2|0:2,0:2:0:0:
465,144,160314,6,0,L|455:248,1,105,2|0,1:2|0:2,0:2:0:0:
446,342,160743,1,0,1:2:0:0:
370,279,160957,1,2,0:2:0:0:
220,343,161171,2,0,P|267:363|316:347,1,105,2|0,1:2|0:2,0:2:0:0:
170,257,161600,1,2,1:2:0:0:
118,342,161814,1,2,0:2:0:0:
118,342,161921,1,2,0:2:0:0:
118,342,162028,6,0,P|57:316|38:181,1,210,2|0,1:2|1:2,0:2:0:0:
100,117,162671,1,2,0:2:0:0:
134,205,162886,1,2,1:2:0:0:
13,99,163100,1,2,0:2:0:0:
168,52,163314,2,0,P|121:22|70:31,1,105,0|2,1:2|0:2,0:2:0:0:
252,177,163743,6,0,P|165:128|85:187,1,210,2|2,1:2|1:2,0:2:0:0:
71,283,164386,1,2,0:2:0:0:
178,320,164600,2,0,L|168:216,1,105,0|2,1:2|0:2,0:2:0:0:
275,378,165028,2,0,L|284:274,1,105,2|2,1:2|0:2,0:2:0:0:
298,145,165457,6,0,P|346:104|472:198,1,210,0|0,1:2|1:2,0:2:0:0:
229,82,166100,1,0,0:2:0:0:
229,82,166314,2,0,P|181:41|55:135,1,210,2|2,1:2|1:2,0:2:0:0:
95,264,166957,1,0,0:2:0:0:
95,264,167171,6,0,L|210:253,1,105,2|0,1:2|0:2,0:2:0:0:
358,176,167600,2,0,L|242:165,1,105,2|2,1:2|0:2,0:2:0:0:
233,338,168028,2,0,P|274:307|284:257,1,105,0|2,1:2|0:2,0:2:0:0:
155,169,168457,2,0,P|160:220|199:253,1,105,0|0,1:2|0:2,0:2:0:0:
218,57,168886,5,2,1:2:0:0:
95,72,169100,1,0,0:2:0:0:
110,195,169314,1,0,1:2:0:0:
233,180,169528,1,0,0:2:0:0:
40,137,169743,2,0,P|13:181|21:232,1,105,2|0,1:2|0:2,0:2:0:0:
183,258,170171,2,0,P|157:213|109:194,1,105,2|0,1:2|0:2,0:2:0:0:
270,325,170600,6,0,B|318:224|239:217|288:113,1,210,2|2,1:2|1:2,0:2:0:0:
325,35,171243,1,10,0:2:0:0:
355,29,171350,1,8,0:2:0:0:
385,37,171457,1,8,1:2:0:0:
414,61,171564,1,8,0:2:0:0:
424,90,171671,1,10,0:2:0:0:
416,188,171886,1,0,1:2:0:0:
391,289,172100,1,8,0:2:0:0:
364,271,172207,1,8,0:2:0:0:
334,260,172314,6,0,P|285:289|270:342,1,105,2|0,1:2|0:2,0:2:0:0:
121,343,172743,2,0,P|170:314|185:261,1,105,0|2,1:2|0:2,0:2:0:0:
0,255,173171,2,0,L|103:264,1,105,0|0,1:2|0:2,0:2:0:0:
253,182,173600,2,0,L|149:191,1,105,0|0,1:2|0:2,0:2:0:0:
345,263,174028,6,0,P|360:213|349:163,1,105,0|0,1:2|0:2,0:2:0:0:
304,94,174350,2,0,P|338:132|388:147,1,105,2|0,0:2|0:2,0:2:0:0:
469,113,174671,2,0,L|478:216,1,105,2|0,0:2|1:2,0:2:0:0:
488,304,175100,1,2,0:2:0:0:
407,261,175314,1,0,1:2:0:0:
322,319,175528,1,2,0:2:0:0:
319,342,175635,1,2,0:2:0:0:
315,370,175743,6,0,L|305:262,2,94.499997116089,0|2|0,1:2|0:2|1:2,0:2:0:0:
224,244,176386,1,2,0:2:0:0:
221,275,176493,1,2,0:2:0:0:
218,303,176600,1,2,1:2:0:0:
119,196,176814,2,0,L|128:290,1,94.499997116089,2|0,0:2|1:2,0:2:0:0:
36,240,177243,1,2,0:2:0:0:
146,27,177457,6,0,P|216:85|216:177,1,188.999994232178,0|0,1:2|1:2,0:2:0:0:
34,132,178100,2,0,L|133:123,1,94.499997116089,2|0,0:2|1:2,0:2:0:0:
188,207,178528,1,2,0:2:0:0:
215,209,178636,1,2,0:2:0:0:
243,211,178743,1,2,1:2:0:0:
271,214,178850,1,2,0:2:0:0:
299,216,178957,1,2,0:2:0:0:
327,219,179064,1,2,0:2:0:0:
355,220,179171,6,0,P|392:191|412:149,2,94.499997116089,0|2|0,1:2|0:2|1:2,0:2:0:0:
484,63,179814,2,0,L|493:166,1,94.499997116089,2|0,0:2|1:2,0:2:0:0:
341,38,180243,2,0,L|331:141,1,94.499997116089,2|0,0:2|1:2,0:2:0:0:
218,97,180671,1,2,0:2:0:0:
140,184,180886,6,0,P|179:209|225:212,1,94.499997116089,2|2,1:2|0:2,0:2:0:0:
119,87,181314,1,0,1:2:0:0:
39,156,181528,2,0,L|44:214,1,47.2499985580445,2|2,0:2|0:2,0:2:0:0:
82,276,181743,2,0,L|76:334,1,47.2499985580445,2|2,1:2|0:2,0:2:0:0:
143,197,181957,1,2,0:2:0:0:
143,197,182064,1,2,0:2:0:0:
143,197,182171,2,0,L|198:201,1,47.2499985580445,2|2,1:2|0:2,0:2:0:0:
248,262,182386,2,0,L|303:257,1,47.2499985580445,2|2,0:2|0:2,0:2:0:0:
377,188,182600,5,2,1:2:0:0:
499,307,182814,2,0,L|395:297,1,94.499997116089,2|0,0:2|1:2,0:2:0:0:
200,266,183243,2,0,L|303:256,1,94.499997116089,2|0,0:2|1:2,0:2:0:0:
471,196,183671,2,0,L|367:186,1,94.499997116089,2|0,0:2|1:2,0:2:0:0:
197,18,184100,1,8,0:2:0:0:
197,18,184207,1,8,0:2:0:0:
197,18,184314,6,0,P|275:63|283:153,1,188.999994232178,2|0,1:2|1:2,0:2:0:0:
156,259,184957,2,0,P|192:230|239:222,2,94.499997116089,2|0|8,0:2|1:2|0:2,0:2:0:0:
139,341,185600,1,0,1:2:0:0:
60,195,185814,1,8,0:2:0:0:
57,218,185921,1,8,0:2:0:0:
53,246,186028,2,0,L|43:138,1,94.499997116089,6|0,1:2|0:2,0:2:0:0:
29,35,186457,5,10,0:2:0:0:
164,98,186672,2,0,L|115:105,1,39.3750015020371,2|0,1:2|0:0,0:0:0:0:
23,120,186886,5,10,0:2:0:0:
186,23,187100,1,2,1:2:0:0:
176,178,187314,5,8,0:2:0:0:
108,0,187528,1,0,1:2:0:0:
53,246,187743,6,0,L|43:138,1,94.499997116089,12|0,0:2|0:2,0:2:0:0:
264,63,188171,5,8,0:2:0:0:
305,215,188386,2,0,L|308:167,1,39.3750015020371,0|0,1:2|0:0,0:0:0:0:
337,26,188600,5,8,0:2:0:0:
258,287,188814,1,0,1:2:0:0:
182,109,189028,5,8,0:2:0:0:
389,171,189243,1,0,1:2:0:0:
53,246,189457,5,12,0:2:0:0:
255,337,189886,5,10,0:2:0:0:
216,180,190100,1,2,1:2:0:0:
340,272,190314,5,10,0:2:0:0:
365,128,190528,1,2,1:2:0:0:
237,257,190743,5,10,0:2:0:0:
189,74,190957,1,2,1:2:0:0:
53,246,191171,5,14,0:2:0:0:
36,120,191386,1,2,1:2:0:0:
168,305,191600,5,10,0:2:0:0:
193,173,191814,1,2,1:2:0:0:
228,356,192028,5,8,0:2:0:0:
163,98,192243,1,2,1:2:0:0:
154,384,192457,5,10,0:2:0:0:
243,103,192671,1,0,1:2:0:0:
53,246,192886,6,0,L|43:138,1,94.499997116089,14|0,0:2|0:2,0:2:0:0:
34,64,193314,1,2,1:2:0:0:
45,254,193528,2,0,L|35:146,1,94.499997116089,6|0,0:2|0:2,0:2:0:0:
26,72,193957,1,2,1:2:0:0:
112,111,194171,1,8,0:2:0:0:
193,57,194386,1,0,1:2:0:0:
53,246,194600,5,12,0:2:0:0:
16,145,194814,1,2,0:2:0:0:
188,192,195028,1,2,1:2:0:0:
45,254,195243,1,6,0:2:0:0:
34,64,195671,1,0,1:2:0:0:
95,129,195886,1,8,0:2:0:0:
121,43,196100,1,0,1:2:0:0:
53,246,196314,5,6,0:2:0:0:
45,254,199743,1,6,0:2:0:0:
53,246,201457,1,6,0:2:0:0:
256,332,203171,5,2,0:2:0:0:
324,291,203600,1,2,0:2:0:0:
358,210,204028,1,2,0:2:0:0:
329,110,204457,1,2,0:2:0:0:
256,16,204886,5,2,0:2:0:0:
256,104,206600,1,2,0:2:0:0:
256,208,208314,1,2,0:2:0:0:
256,332,210028,6,0,L|200:327,1,52.5,6|0,1:2|0:2,0:2:0:0:
88,270,210457,2,0,L|143:265,1,52.5,0|0,1:2|0:2,0:2:0:0:
226,186,210886,2,0,L|221:241,1,52.5,0|0,1:2|0:2,0:2:0:0:
145,127,211314,2,0,L|149:182,1,52.5,0|0,1:2|0:2,0:2:0:0:
279,122,211743,2,0,P|257:107|231:101,1,52.5,0|0,1:2|0:2,0:2:0:0:
91,67,212171,2,0,P|112:52|138:46,1,52.5,0|0,1:2|0:2,0:2:0:0:
153,253,212600,2,0,L|143:149,1,105,2|0,1:2|1:2,0:2:0:0:
252,222,213243,1,2,0:2:0:0:
50,215,213457,5,8,0:2:0:0:
53,117,213671,1,8,0:2:0:0:
160,38,213886,1,8,0:2:0:0:
339,20,214100,1,8,0:2:0:0:
452,185,214314,1,8,0:2:0:0:
351,373,214528,1,8,0:2:0:0:
181,268,214743,1,8,0:2:0:0:
254,38,214957,1,8,0:2:0:0:
476,260,215171,1,8,0:2:0:0:
342,198,215386,1,2,0:2:0:0:
340,217,215493,1,2,0:2:0:0:
338,237,215600,1,10,0:2:0:0:
269,149,215814,6,0,P|313:122|365:120,1,105,0|0,1:2|1:2,0:2:0:0:
401,284,216457,2,0,P|357:257|305:255,1,105,0|2,1:2|0:2,0:2:0:0:
208,287,217029,1,2,0:2:0:0:
203,283,217100,1,2,0:2:0:0:
199,279,217171,1,2,0:2:0:0:
195,275,217243,1,2,0:2:0:0:
191,271,217314,6,0,P|171:197|104:157,1,157.5,6|0,1:2|0:2,0:2:0:0:
22,214,217743,2,0,P|75:157|73:80,1,157.5,2|0,1:2|0:2,0:2:0:0:
1,25,218171,2,0,P|71:51|147:14,1,157.5,2|0,1:2|0:2,0:2:0:0:
288,25,218600,6,0,P|212:13|156:85,1,157.5,2|0,1:2|0:2,0:2:0:0:
202,149,219028,2,0,L|95:139,1,105,0|2,1:2|0:2,0:2:0:0:
254,226,219457,2,0,L|360:216,1,105,2|0,1:2|0:2,0:2:0:0:
456,206,219886,1,0,1:2:0:0:
375,79,220100,1,2,0:2:0:0:
375,79,220207,1,2,0:2:0:0:
374,78,220314,6,0,P|273:68|195:134,1,210,2|0,1:2|1:2,0:2:0:0:
214,221,220957,1,2,0:2:0:0:
32,211,221171,2,0,P|77:186|129:191,1,105,0|2,1:2|0:2,0:2:0:0:
279,286,221600,2,0,P|233:310|181:305,1,105,0|2,1:2|0:2,0:2:0:0:
372,177,222028,6,0,L|383:304,1,105,0|0,1:2|0:2,0:2:0:0:
282,157,222457,1,2,1:2:0:0:
341,84,222671,2,0,P|392:80|437:106,1,105,2|0,0:2|1:2,0:2:0:0:
473,182,223100,1,2,0:2:0:0:
358,247,223314,1,0,1:2:0:0:
262,85,223528,1,2,0:2:0:0:
370,140,223743,5,0,1:2:0:0:
197,171,223957,1,2,0:2:0:0:
447,200,224171,2,0,L|437:307,1,105,0|2,1:2|0:2,0:2:0:0:
475,382,224493,1,2,0:2:0:0:
474,381,224600,2,0,P|430:352|379:352,1,105,0|2,1:2|0:2,0:2:0:0:
280,379,225028,2,0,L|284:323,1,52.5,0|0,1:2|0:2,0:2:0:0:
198,245,225243,2,0,L|202:297,1,52.5,2|0,0:2|0:2,0:2:0:0:
93,368,225457,6,0,L|102:260,1,105,0|2,1:2|0:2,0:2:0:0:
116,126,225886,2,0,P|155:158|206:152,1,105,2|2,1:2|0:2,0:2:0:0:
281,111,226207,1,2,0:2:0:0:
281,111,226314,2,0,L|291:226,1,105,2|2,1:2|0:2,0:2:0:0:
336,339,226743,2,0,L|340:287,1,52.5,0|0,1:2|0:2,0:2:0:0:
429,159,226957,2,0,L|433:210,1,52.5,2|0,0:2|0:2,0:2:0:0:
207,25,227171,6,0,P|107:43|57:131,1,210,2|2,1:2|1:2,0:2:0:0:
96,213,227814,1,2,0:2:0:0:
238,148,228028,2,0,P|190:128|139:139,1,105,0|2,1:2|0:2,0:2:0:0:
313,230,228457,2,0,L|323:114,1,105,0|2,1:2|0:2,0:2:0:0:
202,295,228886,6,0,P|267:254|340:277,1,157.5,2|0,1:2|0:2,0:2:0:0:
357,297,229314,1,2,1:2:0:0:
413,188,229528,1,2,0:2:0:0:
470,323,229743,1,0,1:2:0:0:
304,182,229957,1,10,0:2:0:0:
504,126,230171,1,2,1:2:0:0:
354,338,230386,1,8,0:2:0:0:
354,338,230493,1,8,0:2:0:0:
354,338,230600,6,0,P|288:300|213:319,1,157.5,6|0,1:2|0:2,0:2:0:0:
122,298,231029,2,0,P|176:243|252:242,1,157.5,2|0,1:2|0:2,0:2:0:0:
343,231,231457,2,0,P|288:176|212:175,1,157.5,2|0,1:2|0:2,0:2:0:0:
124,164,231886,2,0,P|178:109|254:108,1,157.5,2|0,1:2|0:2,0:2:0:0:
99,240,232315,6,0,L|107:132,1,105,2|0,1:2|0:2,0:2:0:0:
51,31,232743,2,0,P|97:53|147:42,1,105,0|2,1:2|0:2,0:2:0:0:
308,131,233171,2,0,P|261:108|211:119,1,105,0|0,1:2|0:2,0:2:0:0:
356,223,233600,1,0,1:2:0:0:
409,90,233814,1,2,0:2:0:0:
409,90,233921,1,2,0:2:0:0:
408,89,234028,6,0,P|441:130|454:181,1,105,2|0,1:2|0:2,0:2:0:0:
449,275,234457,1,0,1:2:0:0:
362,199,234671,1,2,0:2:0:0:
315,328,234886,1,0,1:2:0:0:
230,152,235100,2,0,L|221:264,2,105,2|0|2,0:2|1:2|0:2,0:2:0:0:
49,345,235743,6,0,P|99:287|92:211,1,157.5,2|0,1:2|0:2,0:2:0:0:
82,191,236171,1,0,1:2:0:0:
24,86,236386,2,0,P|68:59|120:57,1,105,2|0,0:2|1:2,0:2:0:0:
201,108,236814,1,2,0:2:0:0:
272,26,237028,1,0,1:2:0:0:
348,156,237243,1,2,0:2:0:0:
502,13,237457,6,0,P|455:35|434:82,1,105,2|0,1:2|0:2,0:2:0:0:
454,255,237886,2,0,P|457:203|428:161,1,105,0|0,1:2|0:2,0:2:0:0:
227,143,238314,2,0,P|301:162|361:117,1,157.5,2|0,1:2|0:2,0:2:0:0:
140,106,238743,2,0,P|205:142|276:114,1,157.5,2|0,1:2|0:2,0:2:0:0:
65,47,239171,6,0,P|118:98|194:89,1,157.5,2|0,1:2|0:2,0:2:0:0:
215,73,239600,1,2,1:2:0:0:
257,192,239814,1,2,0:2:0:0:
341,36,240028,2,0,P|392:29|436:55,1,105,0|2,1:2|0:2,0:2:0:0:
383,219,240457,2,0,L|373:115,1,105,0|0,1:2|0:2,0:2:0:0:
471,322,240886,6,0,P|423:301|373:313,1,105,2|0,1:2|0:2,0:2:0:0:
287,354,241314,2,0,P|239:374|189:362,1,105,0|0,1:2|0:2,0:2:0:0:
71,255,241743,2,0,P|107:290|113:342,1,105,2|0,1:2|0:2,0:2:0:0:
230,193,242171,2,0,P|193:228|187:280,1,105,2|0,1:2|0:2,0:2:0:0:
318,76,242600,6,0,P|251:114|179:89,1,157.5,2|0,1:2|0:2,0:2:0:0:
169,67,243028,2,0,L|158:190,1,105,2|2,1:2|0:2,0:2:0:0:
154,262,243457,1,0,1:2:0:0:
257,188,243671,1,8,0:2:0:0:
83,96,243886,1,0,1:2:0:0:
208,338,244100,1,8,0:2:0:0:
208,338,244207,1,8,0:2:0:0:
208,338,244314,6,0,P|259:339|297:304,1,105,12|0,1:2|0:2,0:2:0:0:
360,149,244743,2,0,P|333:192|344:242,1,105,0|0,1:2|0:2,0:2:0:0:
479,323,245171,2,0,P|430:305|379:316,1,105,2|0,1:2|0:2,0:2:0:0:
246,223,245600,2,0,P|297:218|344:242,1,105,2|0,1:2|0:2,0:2:0:0:
434,100,246028,6,0,P|393:174|476:159,1,210,6|2,1:2|1:2,0:2:0:0:
340,67,246671,1,2,0:2:0:0:
500,55,246886,2,0,P|456:27|404:29,1,105,0|2,1:2|0:2,0:2:0:0:
285,124,247314,2,0,P|241:151|189:149,1,105,0|0,1:2|0:2,0:2:0:0:
49,36,247743,6,0,B|73:89|55:148|40:134|26:194|46:246,1,210,6|0,1:2|1:2,0:2:0:0:
91,313,248386,1,0,0:2:0:0:
220,249,248600,2,0,P|176:221|126:230,1,105,2|0,1:2|0:2,0:2:0:0:
284,311,249028,2,0,P|327:338|377:329,1,105,2|0,1:2|0:2,0:2:0:0:
378,97,249457,5,4,1:2:0:0:
301,184,249671,1,8,0:2:0:0:
299,206,249778,1,8,0:2:0:0:
297,231,249885,1,8,1:2:0:0:
399,243,250100,1,8,0:2:0:0:
401,265,250207,1,8,0:2:0:0:
403,290,250314,1,8,1:2:0:0:
280,91,250528,1,8,0:2:0:0:
258,93,250635,1,8,0:2:0:0:
233,95,250742,1,8,1:2:0:0:
211,97,250850,1,8,0:2:0:0:
186,99,250957,1,8,0:2:0:0:
161,101,251064,2,8,L|105:105,1,52.5,8|2,1:2|0:2,1:2:0:0:
448,316,252457,5,2,0:2:0:0:
425,328,252564,1,2,0:2:0:0:
399,328,252671,1,2,0:2:0:0:
374,321,252778,1,2,0:2:0:0:
358,311,252886,6,0,L|350:220,1,78.7500030040742,0|0,1:2|0:2,0:2:0:0:
289,85,253314,2,0,L|282:163,1,78.7500030040742,0|0,1:2|0:2,0:2:0:0:
181,252,253743,2,0,P|219:260|257:253,1,78.7500030040742,0|0,1:2|0:2,0:2:0:0:
130,166,254171,1,0,1:2:0:0:
79,248,254386,1,2,0:2:0:0:
256,365,254600,6,0,P|271:308|260:250,1,118.125004506111,0|0,1:2|0:2,0:2:0:0:
250,228,255028,1,0,1:2:0:0:
182,147,255243,1,2,0:2:0:0:
280,46,255457,2,0,P|288:84|282:123,1,78.7500030040742,0|2,1:2|0:2,0:2:0:0:
102,41,255886,2,0,L|189:48,1,78.7500030040742,0|0,1:2|0:2,0:2:0:0:
57,188,256314,6,0,P|42:151|48:113,1,78.7500030040742,2|0,1:2|0:2,0:2:0:0:
125,236,256743,2,0,P|131:275|121:313,1,78.7500030040742,0|0,1:2|0:2,0:2:0:0:
130,152,257171,2,0,L|229:160,1,78.7500030040742,0|0,1:2|0:2,0:2:0:0:
302,169,257600,1,0,1:2:0:0:
249,244,257814,1,2,0:2:0:0:
265,85,258028,6,0,P|341:84|387:145,1,157.500006008148,0|2,1:2|1:2,0:2:0:0:
390,235,258671,1,2,0:2:0:0:
310,307,258886,1,0,1:2:0:0:
238,192,259100,2,0,P|276:183|315:188,2,78.7500030040742,2|0|0,0:2|1:2|0:2,0:2:0:0:
218,369,259743,6,0,P|221:330|210:292,1,78.7500030040742,2|0,1:2|0:2,0:2:0:0:
140,239,260171,2,0,P|130:201|142:164,1,78.7500030040742,0|0,1:2|0:2,0:2:0:0:
199,93,260600,2,0,P|208:55|196:18,1,78.7500030040742,0|0,1:2|0:2,0:2:0:0:
29,37,261028,1,0,1:2:0:0:
116,84,261243,1,2,0:2:0:0:
0,190,261457,6,0,L|7:277,1,78.7500030040742,2|0,1:2|0:2,0:2:0:0:
96,359,261886,2,0,L|102:280,1,78.7500030040742,2|2,1:2|0:2,0:2:0:0:
114,185,262314,1,0,1:2:0:0:
209,244,262528,1,2,0:2:0:0:
182,101,262743,1,0,1:2:0:0:
106,276,262957,1,0,0:2:0:0:
291,142,263171,6,0,P|367:157|414:218,1,157.500006008148,2|0,1:2|1:2,0:2:0:0:
412,313,263814,1,0,0:2:0:0:
255,266,264028,2,0,L|333:259,1,78.7500030040742,0|0,1:2|0:2,0:2:0:0:
162,353,264457,1,8,1:2:0:0:
185,365,264564,1,8,0:2:0:0:
211,365,264671,1,8,0:2:0:0:
236,358,264778,1,8,0:2:0:0:
252,348,264886,6,0,L|260:257,1,78.7500030040742,0|0,1:2|0:2,0:2:0:0:
276,256,265207,1,8,0:2:0:0:
276,256,265314,1,0,1:2:0:0:
340,184,265528,2,0,L|332:93,1,78.7500030040742,0|0,1:2|1:2,0:2:0:0:
266,21,265957,1,8,0:2:0:0:
238,12,266064,1,8,0:2:0:0:
209,16,266172,1,8,1:2:0:0:
181,23,266279,1,8,0:2:0:0:
158,40,266386,1,8,0:2:0:0:
141,62,266493,1,8,0:2:0:0:
131,87,266600,6,0,P|135:125|160:169,1,78.7500030040742,0|0,1:2|0:2,0:2:0:0:
270,180,267028,2,0,P|239:202|213:246,1,78.7500030040742,0|0,1:2|0:2,0:2:0:0:
270,337,267457,2,0,P|235:321|184:321,1,78.7500030040742,0|0,1:2|0:2,0:2:0:0:
120,378,267886,1,0,1:2:0:0:
72,235,268100,1,2,0:2:0:0:
286,106,268314,6,0,L|188:97,1,78.7500030040742,2|0,1:2|0:2,0:2:0:0:
348,170,268743,2,0,L|445:161,1,78.7500030040742,2|2,1:2|0:2,0:2:0:0:
286,247,269171,1,0,1:2:0:0:
376,341,269386,2,0,P|382:302|374:264,2,78.7500030040742,2|0|0,0:2|1:2|0:2,0:2:0:0:
146,262,270028,6,0,P|223:256|293:290,1,157.500006008148,2|0,1:2|1:2,0:2:0:0:
372,345,270671,1,0,0:2:0:0:
401,232,270886,2,0,P|425:201|461:186,1,78.7500030040742,0|0,1:2|0:2,0:2:0:0:
320,213,271314,1,0,1:2:0:0:
291,124,271528,1,2,0:2:0:0:
403,32,271743,6,0,P|381:90|437:63,1,157.500006008148,2|2,1:2|1:2,0:2:0:0:
296,56,272386,1,2,0:2:0:0:
384,173,272600,2,0,P|347:160|320:131,1,78.7500030040742,0|2,1:2|0:2,0:2:0:0:
218,20,273028,2,0,P|204:56|174:81,1,78.7500030040742,0|0,1:2|0:2,0:2:0:0:
50,153,273457,6,0,P|121:182|142:255,1,157.500006008148,2|0,1:2|1:2,0:2:0:0:
124,343,274100,2,0,P|161:331|199:337,2,78.7500030040742,0|0|0,0:2|1:2|0:2,0:2:0:0:
228,243,274743,1,0,1:2:0:0:
283,332,274957,1,2,0:2:0:0:
448,236,275171,6,0,P|392:216|334:224,1,118.125004506111,0|0,1:2|0:2,0:2:0:0:
322,239,275600,1,2,1:2:0:0:
315,339,275814,1,2,0:2:0:0:
429,310,276028,1,0,1:2:0:0:
285,159,276243,2,0,P|246:155|208:167,2,78.7500030040742,2|0|0,0:2|1:2|0:2,0:2:0:0:
108,208,276886,6,0,P|121:171|119:132,1,78.7500030040742,0|0,1:2|0:2,0:2:0:0:
62,342,277314,2,0,P|48:305|50:266,1,78.7500030040742,0|0,1:2|0:2,0:2:0:0:
214,279,277743,2,0,L|130:286,1,78.7500030040742,0|0,1:2|0:2,0:2:0:0:
316,359,278171,1,8,1:2:0:0:
293,371,278278,1,8,0:2:0:0:
267,371,278385,1,8,0:2:0:0:
242,364,278492,1,8,0:2:0:0:
226,354,278600,6,0,L|218:263,1,78.7500030040742,0|0,1:2|0:2,0:2:0:0:
237,261,278921,1,8,0:2:0:0:
237,261,279028,1,0,1:2:0:0:
269,172,279243,1,8,0:2:0:0:
179,182,279457,1,0,1:2:0:0:
284,77,279671,1,8,0:2:0:0:
315,71,279778,1,8,0:2:0:0:
352,85,279886,1,8,1:2:0:0:
347,115,279993,1,8,0:2:0:0:
353,145,280100,1,8,0:2:0:0:
372,169,280207,1,8,0:2:0:0:
413,188,280314,5,12,0:2:0:0:
256,192,280421,12,0,282028,0:2:0:0:
