osu file format v14

[General]
AudioFilename: audio.mp3
AudioLeadIn: 0
PreviewTime: 37836
Countdown: 0
SampleSet: Soft
StackLeniency: 0.5
Mode: 0
LetterboxInBreaks: 0
WidescreenStoryboard: 1

[Editor]
Bookmarks: 50483,69320,94404,102850,125791,138242,163438,168928,175202,175987
DistanceSpacing: 0.9
BeatDivisor: 4
GridSize: 32
TimelineZoom: 1

[Metadata]
Title:ASKORBINKA
TitleUnicode:АСКОРБИНКА
Artist:FRIENDZONE / MAYBE BABY
ArtistUnicode:ФРЕНДЗОНА / МЭЙБИ БЭЙБИ
Creator:-Mikan
Version:piroshki's Normal
Source:
Tags:schoolboy testo komore daycore piroshki russian pop русский frendzona мейби бейби
BeatmapID:2164226
BeatmapSetID:1034093

[Difficulty]
HPDrainRate:3
CircleSize:4
OverallDifficulty:4
ApproachRate:5
SliderMultiplier:1.1
SliderTickRate:1

[Events]
//Background and Video events
0,0,"shirogane-tsumugi-danganronpa-v3-anime-games-yandere-glasses-32432.jpeg",0,0
Video,-1354,"NOT RUS NAME.avi"
//Break Periods
//Storyboard Layer 0 (Background)
//Storyboard Layer 1 (Fail)
//Storyboard Layer 2 (Pass)
//Storyboard Layer 3 (Foreground)
//Storyboard Layer 4 (Overlay)
//Storyboard Sound Samples

[TimingPoints]
287,392.156862745098,4,2,1,49,1,0
287,-100,4,2,1,49,0,0
9110,-100,4,2,0,49,0,0
9698,-100,4,2,1,49,0,0
11659,-100,4,2,0,49,0,0
12836,-100,4,2,1,59,0,0
25385,-100,4,2,1,59,0,0
36757,-100,4,2,0,59,0,0
37934,-100,4,2,69,73,0,0
63032,-100,4,2,69,73,0,0
64208,-100,4,2,69,73,0,0
64600,-100,4,2,69,73,0,0
65777,-100,4,2,69,73,0,0
66169,-100,4,2,69,73,0,0
67345,-100,4,2,69,73,0,0
67737,-100,4,2,69,73,0,0
68914,-100,4,2,69,73,0,0
69306,-100,4,2,1,59,0,0
78130,-100,4,2,69,59,0,0
78228,-100,4,2,1,59,0,0
78522,-100,4,2,69,59,0,0
78620,-100,4,2,1,59,0,0
81855,-100,4,2,1,59,0,0
90483,-100,4,2,69,59,0,0
90875,-100,4,2,1,59,0,0
90973,-100,4,2,69,59,0,0
91267,-100,4,2,1,59,0,0
93032,-100,4,2,69,73,0,0
94404,-100,4,2,69,73,0,0
120679,-100,4,2,69,73,0,0
121071,-100,4,2,69,73,0,0
122247,-100,4,2,69,73,0,0
122639,-100,4,2,69,73,0,0
123816,-100,4,2,69,73,0,0
124208,-100,4,2,69,73,0,0
125385,-100,4,2,69,73,0,0
125777,-100,4,2,1,63,0,0
137541,-100,4,2,1,63,0,0
144600,-100,4,2,69,59,0,0
148130,-100,4,2,69,40,0,0
148228,-100,4,2,69,40,0,0
148326,-100,4,2,69,40,0,0
148424,-100,4,2,69,40,0,0
148522,-100,4,2,69,41,0,0
148620,-100,4,2,69,45,0,0
148718,-100,4,2,69,49,0,0
148816,-100,4,2,69,53,0,0
148914,-100,4,2,69,57,0,0
149012,-100,4,2,69,61,0,0
149110,-100,4,2,69,65,0,0
149208,-100,4,2,69,69,0,0
149306,-100,4,2,69,73,0,0
150090,-100,4,2,0,32,0,0
150875,-100,4,2,19,84,0,0
153620,-100,4,2,69,84,0,0
153718,-100,4,2,69,84,0,0
154012,-100,4,2,19,84,0,0
159894,-100,4,2,69,84,0,0
160287,-100,4,2,19,84,0,0
174992,-100,4,2,19,84,0,0
175385,-100,4,2,19,74,0,0
175581,-100,4,2,19,64,0,0
175777,-100,4,2,19,54,0,0
175973,-100,4,2,19,13,0,0

[Colours]
Combo1 : 255,26,140
Combo2 : 22,122,233
Combo3 : 244,250,37
Combo4 : 0,191,255

[HitObjects]
32,294,12051,6,0,L|94:286,1,55,8|8,0:2|0:2,0:0:0:0:
149,320,12443,2,0,L|211:312,1,55,8|8,0:2|0:2,0:0:0:0:
271,336,12836,2,0,P|299:259|281:211,1,110,6|8,1:2|0:2,0:0:0:0:
230,105,13620,1,0,0:2:0:0:
230,105,13816,2,0,L|288:101,2,55,0|8|0,0:0|0:2|0:2,0:0:0:0:
196,168,14404,2,0,L|78:177,1,110,2|8,1:2|0:2,0:0:0:0:
18,153,14992,1,2,1:2:0:0:
18,153,15188,2,0,P|9:90|36:27,1,110,0|8,0:2|0:2,0:0:0:0:
163,20,15973,6,0,L|282:24,1,110,2|8,1:2|0:2,0:0:0:0:
343,9,16561,1,2,1:2:0:0:
343,9,16757,2,0,L|339:80,1,55,0|0,0:2|1:2,0:0:0:0:
375,125,17149,2,0,L|373:194,2,55,8|0|2,0:2|0:2|1:2,0:0:0:0:
428,257,17934,2,0,P|377:274|324:260,2,110,8|2|10,0:2|0:2|0:2,0:0:0:0:
489,219,18914,5,2,0:2:0:0:
489,219,19110,2,0,L|467:85,1,110,2|8,1:2|0:2,0:0:0:0:
491,41,19698,1,2,1:2:0:0:
491,41,19894,2,0,P|439:28|372:46,1,110,0|8,0:2|0:2,0:0:0:0:
266,119,20679,2,0,P|218:145|164:141,1,110,2|8,1:2|0:2,0:0:0:0:
32,87,21463,2,0,P|23:116|23:151,2,55,0|0|8,0:2|0:0|0:2,0:0:0:0:
47,17,22051,1,0,0:2:0:0:
47,17,22247,2,0,L|162:26,1,110,2|8,1:2|0:2,0:0:0:0:
298,7,23032,6,0,L|286:138,1,110,0|8,0:2|0:2,0:0:0:0:
352,158,23620,1,0,0:2:0:0:
352,158,23816,2,0,L|340:289,1,110,2|8,1:2|0:2,0:0:0:0:
241,368,24600,2,0,L|173:362,1,55,2|2,0:2|1:2,0:0:0:0:
116,378,24992,2,0,L|48:372,1,55,10|2,0:2|0:2,0:0:0:0:
10,321,25385,2,0,P|3:266|22:215,1,110,2|8,1:2|0:2,0:0:0:0:
13,72,26169,6,0,L|135:82,1,110,0|8,0:2|0:2,0:0:0:0:
179,131,26757,1,0,0:2:0:0:
179,131,26953,2,0,L|301:141,1,110,2|10,1:2|0:2,0:0:0:0:
431,151,27737,2,0,P|433:181|425:216,2,55,2|2|10,0:2|1:2|0:2,0:0:0:0:
323,246,28522,2,0,P|310:299|319:353,1,110,2|8,1:2|0:2,0:0:0:0:
461,368,29306,2,0,P|473:329|470:306,1,55,0|0,0:2|1:2,0:0:0:0:
505,252,29698,2,0,P|495:212|481:193,1,55,8|0,0:2|0:2,0:0:0:0:
492,129,30090,2,0,P|445:101|390:100,1,110,2|10,1:2|0:2,0:0:0:0:
286,1,30875,1,2,3:2:0:0:
150,47,31267,6,0,L|157:109,1,55,10|2,3:2|3:2,0:0:0:0:
200,157,31659,2,0,L|216:266,1,110,2|8,1:2|0:2,0:0:0:0:
286,300,32247,1,2,0:2:0:0:
286,300,32443,2,0,P|246:334|170:325,1,110,2|8,0:2|0:2,0:0:0:0:
57,285,33228,2,0,L|62:161,1,110,2|10,1:2|0:2,0:0:0:0:
100,115,33816,2,0,P|73:105|32:110,2,55,2|2|2,3:2|0:2|3:2,0:0:0:0:
170,127,34404,1,2,0:2:0:0:
229,257,34796,6,0,L|215:377,2,110,2|10|2,1:2|0:2|0:2,0:0:0:0:
208,115,35973,2,0,L|216:41,1,55,10|2,0:2|3:2,0:0:0:0:
263,8,36365,2,0,P|315:-5|374:22,1,110,2|0,0:2|3:2,0:0:0:0:
483,95,37149,2,0,L|471:209,1,110,2|2,3:2|3:2,0:0:0:0:
503,343,37934,1,6,1:2:0:0:
362,364,38326,6,0,L|289:358,1,55,8|0,0:2|1:2,0:0:0:0:
263,302,38718,2,0,P|210:280|148:290,1,110,0|8,1:2|0:2,0:0:0:0:
32,351,39502,2,0,P|21:314|20:290,1,55,10|2,1:2|1:2,0:0:0:0:
4,227,39894,2,0,P|30:198|50:186,1,55,10|2,0:2|1:2,0:0:0:0:
53,118,40287,2,0,L|172:122,1,110,2|10,1:2|0:2,0:0:0:0:
293,64,41071,5,6,1:2:0:0:
293,64,41267,2,0,P|306:109|302:126,2,55,2|10|0,0:2|0:2|0:2,0:0:0:0:
231,23,41855,2,0,L|108:18,1,110,2|8,1:2|0:2,0:0:0:0:
13,112,42639,2,0,L|7:224,1,110,2|8,1:2|0:2,0:0:0:0:
38,290,43228,1,0,1:2:0:0:
38,290,43424,2,0,P|97:307|158:296,1,110,2|10,1:2|0:2,0:0:0:0:
215,329,44012,5,2,0:2:0:0:
215,329,44208,2,0,P|258:305|339:311,1,110,6|8,1:2|0:2,0:0:0:0:
454,344,44992,2,0,L|438:212,1,110,0|12,0:0|1:2,0:0:0:0:
473,171,45581,1,0,0:0:0:0:
473,171,45777,2,0,L|457:54,1,110,4|8,1:2|0:2,0:0:0:0:
326,6,46561,2,0,P|269:-3|203:16,1,110,0|12,0:0|0:2,0:0:0:0:
154,40,47149,5,0,0:0:0:0:
154,39,47345,2,0,P|129:88|85:121,1,110,6|8,1:2|0:2,0:0:0:0:
6,240,48130,2,0,P|53:268|108:272,1,110,0|14,0:0|0:2,0:0:0:0:
172,314,48718,1,0,0:0:0:0:
172,314,48914,2,0,P|195:261|179:206,1,110,6|8,1:2|0:2,0:0:0:0:
127,167,49502,1,4,0:2:0:0:
127,167,49698,2,0,P|117:113|129:59,2,110,10|12|6,1:2|0:2|1:2,0:0:0:0:
228,267,50875,6,0,L|295:259,1,55,8|0,0:2|1:2,0:0:0:0:
340,302,51267,2,0,L|454:289,1,110,0|8,1:2|0:2,0:0:0:0:
492,153,52051,2,0,L|483:88,1,55,10|2,1:2|1:2,0:0:0:0:
436,45,52443,2,0,P|409:36|382:38,1,55,10|2,0:2|1:2,0:0:0:0:
325,83,52836,2,0,P|274:101|220:97,1,110,2|10,1:2|0:2,0:0:0:0:
77,98,53620,5,6,1:2:0:0:
77,99,53816,2,0,P|58:78|47:49,2,55,2|10|0,0:2|0:2|0:2,0:0:0:0:
124,152,54404,2,0,P|125:204|102:261,1,110,2|8,1:2|0:2,0:0:0:0:
8,364,55188,2,0,P|62:353|115:366,1,110,2|8,1:2|0:2,0:0:0:0:
176,328,55777,1,0,1:2:0:0:
175,327,55973,2,0,P|228:344|282:341,1,110,2|10,1:2|0:2,0:0:0:0:
345,306,56561,5,2,0:2:0:0:
345,306,56757,2,0,L|339:182,1,110,6|8,1:2|0:2,0:0:0:0:
286,148,57345,1,6,1:2:0:0:
286,148,57541,2,0,L|280:38,1,110,0|12,0:0|1:2,0:0:0:0:
420,12,58326,6,0,P|457:52|464:106,1,110,4|8,1:2|0:2,0:0:0:0:
499,175,58914,1,6,1:2:0:0:
499,175,59110,2,0,P|473:223|424:246,1,110,0|12,0:0|0:2,0:0:0:0:
299,314,59894,2,0,P|247:295|194:303,1,110,6|8,1:2|0:2,0:0:0:0:
140,351,60483,1,6,1:2:0:0:
140,351,60679,2,0,P|89:371|36:360,1,110,0|14,0:0|0:2,0:0:0:0:
5,220,61463,2,0,L|11:110,1,110,6|8,1:2|0:2,0:0:0:0:
14,38,62051,1,4,0:2:0:0:
14,38,62247,2,0,P|65:20|118:31,1,110,10|12,1:2|0:2,0:0:0:0:
250,88,63032,6,0,L|243:211,1,110,6|8,1:2|0:2,0:0:0:0:
209,260,63620,1,4,1:2:0:0:
208,259,63816,2,0,P|234:268|262:267,2,55,2|0|8,1:2|0:2|0:2,0:0:0:0:
83,327,64600,2,0,P|57:278|52:224,1,110,6|8,1:2|0:2,0:0:0:0:
78,157,65188,1,6,0:2:0:0:
78,157,65385,2,0,P|86:131|86:103,2,55,2|2|10,1:2|1:2|0:2,0:0:0:0:
19,26,66169,6,0,P|69:1|123:9,1,110,6|8,1:2|0:2,0:0:0:0:
196,20,66757,1,4,1:2:0:0:
196,20,66953,2,0,P|219:34|246:38,2,55,2|0|8,1:2|0:2|0:2,0:0:0:0:
275,138,67737,2,0,P|329:138|377:112,1,110,6|10,1:2|0:2,0:0:0:0:
421,56,68326,1,4,1:2:0:0:
421,56,68522,2,0,L|414:-2,2,55,2|0|10,1:2|1:2|0:2,0:0:0:0:
490,180,69306,6,0,L|497:297,1,110,6|8,1:2|0:2,0:0:0:0:
458,350,69894,2,0,P|407:368|354:355,1,110,2|0,1:2|0:0,0:0:0:0:
298,309,70483,1,8,0:2:0:0:
163,357,70875,2,0,L|53:348,1,110,2|8,1:2|0:2,0:0:0:0:
11,290,71463,1,2,1:2:0:0:
11,290,71659,2,0,P|8:235|29:183,1,110,0|8,0:0|0:2,0:0:0:0:
112,68,72443,2,0,L|220:85,1,110,2|8,1:2|0:2,0:0:0:0:
289,116,73032,1,2,1:2:0:0:
289,116,73228,2,0,L|342:105,2,55,0|0|8,0:2|1:2|0:2,0:0:0:0:
149,147,74012,6,0,P|132:199|139:253,1,110,2|8,1:2|0:2,0:0:0:0:
189,313,74600,1,0,1:0:0:0:
189,313,74796,2,0,L|297:295,1,110,2|10,0:2|0:2,0:0:0:0:
368,324,75385,1,2,0:2:0:0:
368,324,75581,6,0,P|421:323|461:286,2,110,2|8|0,1:2|0:2|0:0,0:0:0:0:
236,378,76757,2,0,L|236:323,1,55,8|0,0:2|0:2,0:0:0:0:
197,263,77149,2,0,L|196:147,1,110,2|8,1:2|0:2,0:0:0:0:
157,92,77737,1,2,1:2:0:0:
156,92,77934,2,0,P|199:57|252:50,1,110,0|8,0:0|0:2,0:0:0:0:
389,12,78718,6,0,P|417:59|412:113,1,110,2|8,1:2|0:2,0:0:0:0:
360,162,79306,1,2,1:2:0:0:
360,162,79502,1,0,0:2:0:0:
428,287,79894,2,0,P|406:303|380:314,1,55,8|0,0:2|0:2,0:0:0:0:
329,363,80286,2,0,P|282:334|228:328,1,110,2|8,1:2|0:2,0:0:0:0:
162,358,80875,1,0,1:0:0:0:
162,358,81071,2,0,P|114:384|60:380,1,110,2|10,0:2|0:2,0:0:0:0:
10,246,81855,6,0,L|13:191,1,55,2|0,1:2|0:0,0:0:0:0:
2,120,82247,2,0,P|21:100|46:90,1,55,8|2,0:2|1:2,0:0:0:0:
95,37,82639,2,0,L|217:47,1,110,0|8,0:0|0:2,0:0:0:0:
264,95,83228,1,0,0:2:0:0:
264,95,83424,2,0,L|376:80,2,110,2|8|0,1:2|0:2|0:2,0:0:0:0:
181,211,84600,2,0,P|179:238|183:265,1,55,8|0,0:2|0:2,0:0:0:0:
238,312,84992,2,0,L|347:295,1,110,2|10,1:2|0:2,0:0:0:0:
418,320,85581,1,2,1:2:0:0:
418,320,85777,2,0,P|436:268|421:213,1,110,2|10,0:2|0:2,0:0:0:0:
332,105,86561,6,0,L|222:115,1,110,2|8,1:2|0:2,0:0:0:0:
175,169,87149,1,2,1:2:0:0:
175,169,87345,2,0,L|108:177,2,55,2|0|10,0:2|1:2|0:2,0:0:0:0:
225,303,88130,2,0,L|116:319,1,110,2|10,1:2|0:2,0:0:0:0:
63,367,88718,1,2,1:2:0:0:
63,367,88914,2,0,P|22:331|14:278,1,110,2|10,0:2|0:2,0:0:0:0:
75,149,89698,6,0,L|184:153,1,110,2|8,1:2|0:2,0:0:0:0:
237,202,90286,2,0,L|313:208,1,55,2|2,1:2|0:3,0:0:0:0:
430,169,90875,2,0,P|444:229|422:289,2,110,8|2|8,0:2|1:2|0:2,0:0:0:0:
373,125,91855,2,0,L|318:120,1,55,2|0,1:2|0:2,0:0:0:0:
254,153,92247,2,0,L|199:148,1,55,0|8,1:2|0:2,0:0:0:0:
153,93,92639,1,0,0:0:0:0:
29,165,93032,2,0,P|14:218|23:272,1,110,2|2,0:3|0:3,0:0:0:0:
71,324,93620,2,0,L|193:312,1,110,2|2,0:3|0:3,0:0:0:0:
315,359,94404,5,6,1:2:0:0:
451,316,94796,2,0,L|441:257,1,55,8|0,0:2|1:2,0:0:0:0:
470,196,95188,2,0,P|479:142|454:94,1,110,0|8,1:2|0:2,0:0:0:0:
330,21,95973,2,0,P|305:35|279:41,1,55,10|2,1:2|1:2,0:0:0:0:
212,66,96365,2,0,P|187:52|161:46,1,55,10|2,0:2|1:2,0:0:0:0:
93,68,96757,2,0,L|101:177,1,110,2|10,1:2|0:2,0:0:0:0:
217,261,97541,5,6,1:2:0:0:
217,261,97737,2,0,P|242:244|267:240,2,55,2|10|0,0:2|0:2|0:2,0:0:0:0:
181,323,98326,2,0,P|125:340|58:312,1,110,2|8,1:2|0:2,0:0:0:0:
24,193,99110,2,0,L|18:77,1,110,2|8,1:2|0:2,0:0:0:0:
51,19,99698,1,0,1:2:0:0:
51,19,99894,2,0,P|102:0|154:12,1,110,2|10,1:2|0:2,0:0:0:0:
229,34,100483,5,2,0:2:0:0:
229,34,100679,2,0,P|275:61|329:58,1,110,6|8,1:2|0:2,0:0:0:0:
463,11,101463,2,0,P|483:63|471:119,1,110,0|12,0:0|1:2,0:0:0:0:
464,190,102051,1,0,0:0:0:0:
464,190,102247,2,0,L|354:203,1,110,4|8,1:2|0:2,0:0:0:0:
223,259,103032,2,0,L|114:239,1,110,0|12,0:0|0:2,0:0:0:0:
56,198,103620,5,0,0:0:0:0:
56,197,103816,2,0,P|30:249|36:303,1,110,6|8,1:2|0:2,0:0:0:0:
160,368,104600,2,0,L|288:349,1,110,0|14,0:0|0:2,0:0:0:0:
344,370,105188,1,0,0:0:0:0:
344,370,105385,2,0,L|357:249,1,110,6|8,1:2|0:2,0:0:0:0:
320,198,105973,1,4,0:2:0:0:
320,198,106169,2,0,P|367:171|419:182,2,110,10|12|6,1:2|0:2|1:2,0:0:0:0:
192,262,107345,6,0,L|181:197,1,55,8|0,0:2|1:2,0:0:0:0:
121,167,107737,2,0,P|102:117|115:65,1,110,0|8,1:2|0:2,0:0:0:0:
249,14,108522,2,0,L|310:22,1,55,10|2,1:2|1:2,0:0:0:0:
368,50,108914,2,0,L|429:58,1,55,10|2,0:2|1:2,0:0:0:0:
490,35,109306,2,0,P|503:88|485:140,1,110,2|10,1:2|0:2,0:0:0:0:
426,270,110090,5,6,1:2:0:0:
426,270,110286,2,0,L|480:281,2,55,2|10|0,0:2|0:2|0:2,0:0:0:0:
362,305,110875,2,0,P|302:299|269:261,1,110,2|8,1:2|0:2,0:0:0:0:
167,166,111659,2,0,L|174:48,1,110,2|8,1:2|0:2,0:0:0:0:
114,15,112247,1,0,1:2:0:0:
114,15,112443,2,0,P|47:11|3:38,1,110,2|10,1:2|0:2,0:0:0:0:
2,102,113032,5,2,0:2:0:0:
2,102,113228,2,0,L|16:210,1,110,6|8,1:2|0:2,0:0:0:0:
5,285,113816,1,6,1:2:0:0:
5,285,114012,2,0,L|112:309,1,110,0|12,0:0|1:2,0:0:0:0:
249,346,114796,6,0,P|293:314|347:315,1,110,4|8,1:2|0:2,0:0:0:0:
415,351,115385,1,6,1:2:0:0:
413,350,115581,2,0,P|441:302|425:250,1,110,0|14,0:0|1:2,0:0:0:0:
346,134,116365,2,0,L|236:142,1,110,6|8,1:2|0:2,0:0:0:0:
183,189,116953,1,6,1:2:0:0:
183,189,117149,2,0,P|144:147|144:94,1,110,0|14,0:0|0:2,0:0:0:0:
264,20,117934,6,0,L|377:34,1,110,6|8,1:2|0:2,0:0:0:0:
441,11,118522,1,4,0:2:0:0:
440,10,118718,2,0,P|463:59|447:110,1,110,10|12,1:2|0:2,0:0:0:0:
343,208,119502,6,0,L|357:317,1,110,6|8,1:2|0:2,0:0:0:0:
422,356,120090,1,4,1:2:0:0:
421,356,120286,2,0,P|448:356|473:368,2,55,2|0|8,1:2|0:2|0:2,0:0:0:0:
283,314,121071,6,0,P|235:346|178:349,1,110,6|8,1:2|0:2,0:0:0:0:
122,313,121659,1,6,0:2:0:0:
122,313,121855,2,0,L|130:246,2,55,2|2|10,1:2|1:2|0:2,0:0:0:0:
30,203,122639,6,0,L|42:71,1,110,6|8,1:2|0:2,0:0:0:0:
82,35,123228,1,4,1:2:0:0:
81,35,123424,2,0,P|109:30|136:33,2,55,2|0|8,1:2|0:2|0:2,0:0:0:0:
193,121,124208,6,0,P|246:135|299:121,1,110,6|8,1:2|0:2,0:0:0:0:
340,62,124796,1,6,1:2:0:0:
339,62,124992,2,0,P|365:46|395:43,1,55,2|0,1:2|1:2,0:0:0:0:
453,9,125385,2,0,P|478:19|497:41,1,55,10|0,0:2|1:2,0:0:0:0:
507,110,125777,6,0,L|490:226,1,110,4|10,0:2|0:2,0:0:0:0:
436,350,126561,2,0,P|387:325|333:331,1,110,2|10,0:2|0:2,0:0:0:0:
273,370,127149,1,0,0:2:0:0:
273,370,127345,2,0,L|164:352,1,110,2|10,1:2|0:2,0:0:0:0:
28,305,128130,2,0,L|36:226,1,55,2|0,0:2|1:2,0:0:0:0:
78,194,128522,2,0,L|86:115,1,55,10|0,0:2|0:2,0:0:0:0:
49,76,128914,6,0,P|92:44|146:48,1,110,2|8,1:2|0:2,0:0:0:0:
286,12,129698,2,0,L|273:140,1,110,0|8,0:2|0:2,0:0:0:0:
309,191,130287,1,0,0:2:0:0:
309,190,130483,2,0,P|289:241|293:296,1,110,2|8,1:2|0:2,0:0:0:0:
418,377,131267,2,0,L|485:370,1,55,2|2,0:2|1:2,0:0:0:0:
507,309,131659,2,0,L|501:234,1,55,10|2,0:2|0:2,0:0:0:0:
449,206,132051,6,0,L|440:89,1,110,2|10,1:2|0:2,0:0:0:0:
316,21,132836,2,0,P|263:13|211:31,1,110,2|10,0:2|0:2,0:0:0:0:
167,87,133424,1,0,0:2:0:0:
167,87,133620,2,0,L|170:197,1,110,2|10,1:2|0:2,0:0:0:0:
252,312,134404,6,0,P|230:330|204:337,1,55,2|0,0:2|1:2,0:0:0:0:
146,378,134796,2,0,P|120:369|99:351,1,55,10|2,0:2|0:2,0:0:0:0:
33,324,135188,2,0,L|39:198,1,110,2|8,1:2|0:2,0:0:0:0:
13,146,135777,1,2,1:2:0:0:
12,145,135973,2,0,P|3:92|24:42,1,110,2|10,0:2|0:2,0:0:0:0:
164,14,136757,2,0,L|274:22,2,110,2|10|2,1:2|0:2|0:2,0:0:0:0:
101,49,137737,1,2,1:2:0:0:
101,49,137934,2,0,P|100:93|112:122,1,55,10|2,0:2|0:2,0:0:0:0:
159,148,138326,6,0,L|294:140,1,110,2|10,1:2|0:2,0:0:0:0:
396,77,139110,2,0,P|423:123|415:177,1,110,2|10,0:2|0:2,0:0:0:0:
451,245,139698,1,2,0:2:0:0:
451,244,139894,2,0,P|415:284|362:297,1,110,2|10,1:2|0:2,0:0:0:0:
302,337,140483,1,2,1:2:0:0:
302,337,140679,2,0,L|225:329,1,55,2|0,0:2|1:2,0:0:0:0:
178,349,141071,2,0,L|101:341,1,55,10|2,0:2|0:2,0:0:0:0:
64,302,141463,6,0,P|46:250|64:195,1,110,2|10,1:2|0:2,0:0:0:0:
198,158,142247,2,0,L|316:168,1,110,2|10,0:2|0:2,0:0:0:0:
369,204,142836,1,0,0:2:0:0:
368,204,143032,2,0,P|406:165|417:111,1,110,2|10,1:2|0:2,0:0:0:0:
467,60,143620,1,2,1:2:0:0:
467,60,143816,2,0,P|446:42|420:32,1,55,2|2,0:2|1:2,0:0:0:0:
353,6,144208,2,0,P|331:24|304:32,1,55,10|2,0:2|0:2,0:0:0:0:
252,79,144600,6,0,L|135:55,1,110,2|0,1:2|0:2,0:0:0:0:
4,24,145385,2,0,P|-2:78|19:128,2,110,0|2|2,0:0|0:2|1:2,0:0:0:0:
176,151,146757,1,2,1:2:0:0:
175,150,146953,2,0,P|186:176|188:203,1,55,0|0,0:0|0:2,0:0:0:0:
230,261,147345,2,0,P|213:282|190:298,1,55,2|2,0:2|0:2,0:0:0:0:
150,357,147737,2,0,L|40:345,1,110,2|2,1:2|0:2,0:0:0:0:
4,206,148522,5,2,0:2:0:0:
4,206,148718,2,0,L|74:193,1,55,2|2,1:2|0:2,0:0:0:0:
128,209,149110,2,0,L|198:196,1,55,2|2,0:2|0:2,0:0:0:0:
319,233,149698,2,0,P|328:206|328:179,1,55,2|2,0:2|0:2,0:0:0:0:
282,124,150090,2,0,P|264:72|282:21,1,110,10|10,0:2|0:2,0:0:0:0:
354,11,150679,5,10,0:2:0:0:
354,11,150875,2,0,L|472:20,1,110,12|10,1:2|0:2,0:0:0:0:
497,90,151463,1,0,0:2:0:0:
497,90,151659,2,0,P|503:144|486:196,1,110,8|8,0:2|0:2,0:0:0:0:
388,299,152443,2,0,L|321:286,1,55,14|2,1:2|0:2,0:0:0:0:
268,318,152836,2,0,L|201:305,1,55,10|2,0:2|0:2,0:0:0:0:
151,342,153228,2,0,P|111:305|109:252,1,110,10|6,0:2|0:2,0:0:0:0:
105,109,154012,6,0,L|214:121,1,110,14|10,1:2|0:2,0:0:0:0:
282,159,154600,1,2,0:2:0:0:
282,159,154796,2,0,P|345:162|390:139,1,110,8|8,0:2|0:2,0:0:0:0:
459,12,155581,2,0,L|349:0,1,110,14|10,1:2|0:2,0:0:0:0:
290,39,156169,1,2,0:2:0:0:
290,39,156365,2,0,L|163:24,1,110,8|10,0:2|0:2,0:0:0:0:
111,7,156953,1,10,0:2:0:0:
111,6,157149,6,0,P|86:55|91:109,1,110,12|10,1:2|0:2,0:0:0:0:
220,172,157934,2,0,L|207:287,1,110,8|8,0:2|0:2,0:0:0:0:
246,348,158522,1,0,0:0:0:0:
246,348,158718,2,0,P|194:364|141:351,1,110,14|10,1:2|0:2,0:0:0:0:
16,282,159502,2,0,L|29:173,1,110,10|6,0:2|0:2,0:0:0:0:
11,103,160090,5,0,0:0:0:0:
11,103,160287,2,0,P|68:76|121:86,1,110,14|10,1:2|0:2,0:0:0:0:
229,165,161071,2,0,P|279:185|334:187,1,110,8|8,0:2|0:2,0:0:0:0:
401,158,161659,1,0,0:0:0:0:
401,158,161855,2,0,L|417:50,2,110,14|0|2,1:2|0:0|0:2,0:0:0:0:
472,281,163032,2,0,P|434:322|381:336,1,110,2|12,0:2|1:2,0:0:0:0:
244,367,163816,6,0,L|167:354,1,55,10|0,0:2|0:2,0:0:0:0:
119,368,164208,2,0,P|107:315|133:268,1,110,8|8,0:2|0:2,0:0:0:0:
246,180,164992,2,0,P|256:154|257:125,1,55,14|2,1:2|0:2,0:0:0:0:
300,70,165385,2,0,P|283:48|259:35,1,55,10|2,0:2|0:2,0:0:0:0:
188,27,165777,2,0,L|78:41,1,110,8|8,0:2|0:2,0:0:0:0:
9,165,166561,6,0,L|21:274,1,110,12|10,1:2|0:2,0:0:0:0:
7,347,167149,1,0,0:2:0:0:
7,346,167345,2,0,P|57:366|109:354,1,110,8|8,0:2|0:2,0:0:0:0:
213,255,168130,2,0,P|259:227|313:233,1,110,14|10,1:2|0:2,0:0:0:0:
387,232,168718,1,2,0:2:0:0:
387,232,168914,2,0,L|400:341,1,110,10|10,0:2|0:2,0:0:0:0:
469,374,169502,5,10,0:2:0:0:
469,374,169698,2,0,P|492:324|494:270,1,110,14|10,1:2|0:2,0:0:0:0:
458,208,170287,1,2,0:2:0:0:
458,208,170483,2,0,L|468:92,1,110,10|10,0:2|0:2,0:0:0:0:
349,17,171267,6,0,P|297:0|246:14,1,110,14|10,1:2|1:2,0:0:0:0:
201,70,171855,1,2,0:2:0:0:
201,70,172051,2,0,L|207:186,1,110,10|10,1:2|1:2,0:0:0:0:
277,303,172836,2,0,P|236:340|183:351,1,110,14|10,1:2|0:2,0:0:0:0:
113,367,173424,1,2,0:2:0:0:
113,367,173620,2,0,P|70:333|58:280,1,110,10|0,0:2|1:2,0:0:0:0:
26,140,174404,6,0,P|76:117|130:124,1,110,14|10,1:2|0:2,0:0:0:0:
192,87,174992,1,2,0:2:0:0:
192,87,175188,2,0,L|262:99,1,55,10|2,0:2|0:2,0:0:0:0:
303,139,175581,2,0,L|373:151,1,55,10|2,0:2|0:2,0:0:0:0:
