osu file format v14

[General]
AudioFilename: audio.mp3
AudioLeadIn: 0
PreviewTime: 37836
Countdown: 0
SampleSet: Soft
StackLeniency: 0.3
Mode: 0
LetterboxInBreaks: 0
WidescreenStoryboard: 0

[Editor]
Bookmarks: 69320,102850,125791,138242,163438,168928,175202,175987
DistanceSpacing: 1.1
BeatDivisor: 4
GridSize: 4
TimelineZoom: 1

[Metadata]
Title:ASKORBINKA
TitleUnicode:АСКОРБИНКА
Artist:FRIENDZONE / MAYBE BABY
ArtistUnicode:ФРЕНДЗОНА / МЭЙБИ БЭЙБИ
Creator:-Mikan
Version:Testo's Expert
Source:
Tags:schoolboy testo komore daycore piroshki russian pop русский frendzona мейби бейби
BeatmapID:2162117
BeatmapSetID:1034093

[Difficulty]
HPDrainRate:6
CircleSize:4
OverallDifficulty:9
ApproachRate:9.3
SliderMultiplier:3.1
SliderTickRate:1

[Events]
//Background and Video events
0,0,"shirogane-tsumugi-danganronpa-v3-anime-games-yandere-glasses-32432.jpeg",0,0
Video,-1354,"NOT RUS NAME.avi"
//Break Periods
//Storyboard Layer 0 (Background)
//Storyboard Layer 1 (Fail)
//Storyboard Layer 2 (Pass)
//Storyboard Layer 3 (Foreground)
//Storyboard Layer 4 (Overlay)
//Storyboard Sound Samples

[TimingPoints]
287,392.156862745098,4,2,1,49,1,0
9110,-100,4,2,0,49,0,0
9698,-100,4,2,1,49,0,0
11659,-100,4,2,0,49,0,0
12836,-133.333333333333,4,2,1,59,0,0
25385,-133.333333333333,4,2,1,59,0,0
36757,-133.333333333333,4,2,0,59,0,0
37934,-100,4,2,69,73,0,0
69306,-133.333333333333,4,2,1,59,0,0
78130,-133.333333333333,4,2,69,59,0,0
78228,-133.333333333333,4,2,1,59,0,0
78522,-133.333333333333,4,2,69,59,0,0
78620,-133.333333333333,4,2,1,59,0,0
90483,-133.333333333333,4,2,69,59,0,0
90875,-133.333333333333,4,2,1,59,0,0
90973,-133.333333333333,4,2,69,59,0,0
91267,-133.333333333333,4,2,1,59,0,0
93032,-133.333333333333,4,2,69,73,0,0
94404,-100,4,2,69,73,0,0
125777,-133.333333333333,4,2,1,63,0,0
144600,-133.333333333333,4,2,69,59,0,0
148130,-133.333333333333,4,2,69,40,0,0
148228,-133.333333333333,4,2,69,40,0,0
148326,-133.333333333333,4,2,69,40,0,0
148424,-133.333333333333,4,2,69,40,0,0
148522,-133.333333333333,4,2,69,40,0,0
148620,-133.333333333333,4,2,69,45,0,0
148718,-133.333333333333,4,2,69,49,0,0
148816,-133.333333333333,4,2,69,53,0,0
148914,-133.333333333333,4,2,69,57,0,0
149012,-133.333333333333,4,2,69,61,0,0
149110,-133.333333333333,4,2,69,65,0,0
149208,-133.333333333333,4,2,69,69,0,0
149306,-133.333333333333,4,2,69,73,0,0
150090,-133.333333333333,4,2,0,32,0,0
150875,-66.6666666666667,4,2,19,84,0,0
153620,-66.6666666666667,4,2,69,84,0,0
154012,-66.6666666666667,4,2,19,84,0,0
155581,-66.6666666666667,4,2,19,84,0,0
155777,-100,4,2,19,84,0,0
155973,-66.6666666666667,4,2,19,84,0,0
156169,-100,4,2,19,84,0,0
156365,-66.6666666666667,4,2,19,84,0,0
156561,-100,4,2,19,84,0,0
156757,-66.6666666666667,4,2,19,84,0,0
156953,-100,4,2,19,84,0,0
157149,-66.6666666666667,4,2,19,84,0,0
157541,-100,4,2,19,84,0,0
157737,-66.6666666666667,4,2,19,84,0,0
159894,-66.6666666666667,4,2,69,84,0,0
160287,-66.6666666666667,4,2,19,84,0,0
160679,-100,4,2,19,84,0,0
160875,-66.6666666666667,4,2,19,84,0,0
162247,-333.333333333333,4,2,19,84,0,0
163424,-66.6666666666667,4,2,19,84,0,0
169110,-100,4,2,19,84,0,0
169306,-66.6666666666667,4,2,19,84,0,0
169502,-100,4,2,19,84,0,0
169698,-66.6666666666667,4,2,19,84,0,0
174992,-100,4,2,19,84,0,0
175385,-76.9230769230769,4,2,19,74,0,0
175581,-76.9230769230769,4,2,19,64,0,0
175777,-76.9230769230769,4,2,19,54,0,0
175973,-100,4,2,19,13,0,0

[Colours]
Combo1 : 255,26,140
Combo2 : 22,122,233
Combo3 : 244,250,37
Combo4 : 0,191,255

[HitObjects]
256,192,6561,12,2,11267,0:2:0:0:
178,115,11659,5,10,0:2:0:0:
203,191,11855,1,8,0:2:0:0:
243,52,12051,5,8,0:2:0:0:
87,99,12247,1,8,0:2:0:0:
134,255,12443,1,8,0:2:0:0:
290,208,12639,1,8,0:2:0:0:
371,253,12836,6,0,P|435:261|483:217,1,116.250004434586,6|0,1:2|0:2,0:0:0:0:
295,150,13228,2,0,L|283:266,1,116.250004434586,8|2,0:2|1:2,0:0:0:0:
486,133,13620,6,0,L|346:116,1,116.250004434586,0|0,0:2|1:2,0:0:0:0:
176,16,14012,2,0,B|223:59|223:59|202:203,1,174.375006651879,8|0,0:2|0:0,0:0:0:0:
135,210,14404,6,0,B|280:200|223:283|347:281,1,232.500008869171,2|8,1:2|0:2,0:0:0:0:
125,294,14992,1,2,1:2:0:0:
319,194,15188,1,0,0:2:0:0:
129,98,15385,1,0,1:2:0:0:
319,194,15581,6,0,L|400:183,1,58.1250022172929,8|0,0:2|0:0,0:0:0:0:
235,208,15777,1,0,0:2:0:0:
465,120,15973,6,0,P|451:175|481:223,1,116.250004434586,2|0,1:2|0:2,0:0:0:0:
325,28,16365,1,8,0:2:0:0:
405,53,16561,1,2,1:2:0:0:
224,106,16757,1,0,0:2:0:0:
402,200,16953,1,0,1:2:0:0:
196,279,17149,2,0,L|81:266,1,116.250004434586,8|0,0:2|0:2,0:0:0:0:
294,184,17541,6,0,P|310:238|290:292,1,116.250004434586,2|0,1:2|0:2,0:0:0:0:
84,374,17934,2,0,P|64:320|80:265,1,116.250004434586,8|0,0:2|1:2,0:0:0:0:
215,70,18326,5,2,0:2:0:0:
201,150,18522,1,2,1:2:0:0:
147,23,18718,1,10,0:2:0:0:
133,103,18914,1,2,0:2:0:0:
269,197,19110,6,0,L|387:185,1,116.250004434586,2|0,1:2|0:2,0:0:0:0:
226,343,19502,2,0,L|94:332,1,116.250004434586,8|2,0:2|1:2,0:0:0:0:
373,300,19894,6,0,L|384:184,1,116.250004434586,0|0,0:2|1:2,0:0:0:0:
184,29,20287,2,0,P|201:106|301:119,1,174.375006651879,8|0,0:2|0:0,0:0:0:0:
372,102,20679,6,0,B|305:125|305:125|278:293,1,232.500008869171,2|8,1:2|0:2,0:0:0:0:
455,138,21267,1,2,1:2:0:0:
208,194,21463,1,0,0:2:0:0:
418,338,21659,1,0,1:2:0:0:
208,194,21855,6,0,L|197:130,1,58.1250022172929,8|0,0:2|0:0,0:0:0:0:
221,274,22051,1,0,0:2:0:0:
137,85,22247,6,0,P|192:97|243:71,1,116.250004434586,2|0,1:2|0:2,0:0:0:0:
403,210,22639,2,0,P|351:184|296:196,1,116.250004434586,8|2,0:2|1:2,0:0:0:0:
160,349,23032,5,0,0:2:0:0:
243,328,23228,1,2,1:2:0:0:
103,290,23424,1,8,0:2:0:0:
186,269,23620,1,0,0:2:0:0:
71,128,23816,6,0,P|40:160|50:238,1,116.250004434586,2|0,1:2|0:2,0:0:0:0:
143,202,24110,1,2,0:2:0:0:
143,202,24208,2,0,P|130:159|58:128,1,116.250004434586,8|2,0:2|1:2,0:0:0:0:
280,318,24600,6,0,L|288:259,1,58.1250022172929,2|0,0:2|0:0,0:0:0:0:
290,327,24796,2,0,L|298:268,1,58.1250022172929,2|0,1:2|0:0,0:0:0:0:
373,161,24992,6,0,L|381:220,1,58.1250022172929,10|0,0:2|0:0,0:0:0:0:
383,152,25188,2,0,L|391:211,1,58.1250022172929,2|0,0:2|0:0,0:0:0:0:
501,312,25385,6,0,P|449:290|379:305,1,116.250004434586,2|0,1:2|0:2,0:0:0:0:
185,166,25777,2,0,P|241:174|294:152,1,116.250004434586,8|2,0:2|1:2,0:0:0:0:
73,53,26169,5,0,0:2:0:0:
48,213,26365,1,0,1:2:0:0:
176,88,26561,2,0,L|169:23,1,58.1250022172929,8|0,0:2|0:0,0:0:0:0:
185,166,26757,1,0,0:2:0:0:
55,299,26953,6,0,P|130:319|199:255,1,174.375006651879,2|0,1:2|0:0,0:0:0:0:
197,259,27345,2,0,L|209:335,1,58.1250022172929,10|0,0:2|0:0,0:0:0:0:
185,166,27541,1,0,1:2:0:0:
291,312,27737,5,2,0:2:0:0:
358,145,27934,1,2,1:2:0:0:
470,285,28130,2,0,P|478:237|487:220,1,58.1250022172929,10|0,0:2|0:0,0:0:0:0:
504,355,28326,1,2,0:2:0:0:
319,215,28522,6,0,B|230:192|230:192|126:237,1,174.375006651879,2|0,1:2|0:0,0:0:0:0:
154,224,28914,2,0,P|164:197|163:167,1,58.1250022172929,8|0,0:2|0:0,0:0:0:0:
117,104,29110,1,2,1:2:0:0:
81,270,29306,5,0,0:2:0:0:
313,199,29502,1,0,1:2:0:0:
49,51,29698,2,0,P|32:85|34:173,1,116.250004434586,8|0,0:2|0:2,0:0:0:0:
351,270,30090,6,0,L|471:253,1,116.250004434586,2|0,1:2|0:2,0:0:0:0:
309,93,30483,2,0,L|189:76,1,116.250004434586,10|0,0:2|1:2,0:0:0:0:
456,120,30875,1,2,3:2:0:0:
456,120,30973,1,0,0:0:0:0:
456,120,31071,1,2,3:2:0:0:
271,231,31267,6,0,L|281:168,1,58.1250022172929,10|0,3:2|0:0,0:0:0:0:
466,253,31463,2,0,L|475:310,1,58.1250022172929,2|0,3:2|0:0,0:0:0:0:
191,270,31659,5,2,1:2:0:0:
240,85,31855,2,0,P|299:78|363:117,1,116.250004434586,2|8,0:2|0:2,0:0:0:0:
191,270,32247,5,2,0:2:0:0:
240,85,32443,1,2,0:2:0:0:
365,226,32639,2,0,P|424:233|488:194,1,116.250004434586,2|8,3:2|0:2,0:0:0:0:
164,132,33032,5,2,3:2:0:0:
287,282,33228,2,0,L|279:148,1,116.250004434586,2|2,1:2|3:2,0:0:0:0:
100,200,33620,2,0,L|93:316,1,116.250004434586,10|2,0:2|3:2,0:0:0:0:
183,178,34012,5,2,0:2:0:0:
14,246,34208,1,2,3:2:0:0:
14,246,34306,1,0,0:0:0:0:
14,246,34404,1,10,0:2:0:0:
194,198,34600,1,2,3:2:0:0:
105,91,34796,6,0,B|82:147|82:147|102:207,1,116.250004434586,2|2,1:2|3:2,0:0:0:0:
287,196,35188,2,0,B|310:140|310:140|292:87,1,116.250004434586,10|2,0:2|3:2,0:0:0:0:
182,327,35581,5,2,0:2:0:0:
368,258,35777,1,2,3:2:0:0:
200,110,35973,5,10,0:2:0:0:
200,110,36561,5,2,0:2:0:0:
214,193,36757,1,0,3:2:0:0:
217,103,36953,1,0,3:2:0:0:
200,203,37149,1,2,3:2:0:0:
234,96,37345,1,0,3:2:0:0:
186,213,37541,1,2,3:2:0:0:
248,90,37737,1,0,3:2:0:0:
133,141,37934,6,0,B|219:125|185:199|282:187,1,155,6|0,1:2|0:2,0:0:0:0:
337,89,38228,1,0,1:2:0:0:
275,36,38326,2,0,L|260:126,1,77.5,8|0,0:2|0:0,0:0:0:0:
411,110,38522,2,0,L|398:33,1,77.5,0|0,1:2|0:0,0:0:0:0:
482,183,38718,2,0,P|409:196|384:265,1,155,0|0,1:2|0:0,0:0:0:0:
328,323,39012,1,0,1:2:0:0:
328,323,39110,2,0,B|252:296|252:296|162:325,1,155,8|0,0:2|0:2,0:0:0:0:
41,373,39404,1,0,0:2:0:0:
109,343,39502,6,0,B|80:253,1,77.5,10|0,1:2|0:2,0:0:0:0:
233,152,39698,2,0,B|209:225,1,77.5,2|0,1:2|0:2,0:0:0:0:
22,44,39894,6,0,P|59:28|104:36,1,77.5,10|0,0:2|0:2,0:0:0:0:
107,111,40090,2,0,P|70:127|25:119,1,77.5,2|0,1:2|0:2,0:0:0:0:
168,58,40287,6,0,B|236:44|236:44|256:52|256:52|336:38,1,155,2|0,1:2|0:0,0:0:0:0:
384,169,40581,1,0,0:2:0:0:
384,169,40679,2,0,B|320:157|320:157|300:165|300:165|232:151,1,155,10|0,0:2|0:2,0:0:0:0:
104,271,40973,1,2,0:2:0:0:
173,303,41071,6,0,P|180:273|165:220,1,77.5,6|0,1:2|0:0,0:0:0:0:
26,260,41267,2,0,P|30:298|51:330,1,77.5,2|0,0:2|0:0,0:0:0:0:
122,171,41463,6,0,L|46:186,1,77.5,10|0,0:2|0:0,0:0:0:0:
241,341,41659,2,0,L|316:325,1,77.5,0|0,0:2|0:0,0:0:0:0:
436,161,41855,6,0,P|372:175|366:276,1,155,2|0,1:2|0:0,0:0:0:0:
352,253,42149,1,0,1:2:0:0:
352,253,42247,1,8,0:2:0:0:
504,94,42443,5,2,1:2:0:0:
452,79,42541,1,0,0:0:0:0:
400,64,42639,2,0,L|303:38,1,77.5,2|0,1:2|0:0,0:0:0:0:
274,195,42836,2,0,L|348:174,1,77.5,0|0,1:2|1:2,0:0:0:0:
151,76,43032,6,0,B|152:115|152:115|175:144,1,77.5,8|0,0:2|0:0,0:0:0:0:
245,120,43228,2,0,B|243:80|243:80|220:51,1,77.5,0|0,1:2|0:0,0:0:0:0:
48,295,43424,6,0,P|118:296|137:200,1,155,2|2,1:2|0:2,0:0:0:0:
148,226,43718,1,0,0:0:0:0:
148,226,43816,1,10,0:2:0:0:
1,197,44012,6,0,L|78:189,1,77.5,2|0,0:2|0:2,0:0:0:0:
175,39,44208,2,0,L|92:31,1,77.5,6|0,1:2|0:0,0:0:0:0:
227,184,44404,6,0,L|310:176,1,77.5,0|0,0:0|0:0,0:0:0:0:
404,59,44600,2,0,L|321:51,1,77.5,8|0,0:2|0:0,0:0:0:0:
382,206,44796,6,0,B|386:166|386:166|368:133,1,77.5,6|0,1:2|0:0,0:0:0:0:
295,291,44992,2,0,L|458:275,1,155,0|0,0:0|1:2,0:0:0:0:
303,213,45287,1,0,0:0:0:0:
303,213,45385,2,0,L|220:221,1,77.5,12|0,1:2|0:0,0:0:0:0:
172,344,45581,6,0,P|178:307|155:263,1,77.5,0|0,0:0|0:2,0:0:0:0:
86,281,45777,2,0,P|79:317|102:361,1,77.5,4|0,1:2|0:0,0:0:0:0:
58,177,45973,2,0,P|86:200|135:202,1,77.5,0|0,0:0|0:0,0:0:0:0:
259,161,46169,6,0,P|224:173|197:215,1,77.5,8|0,0:2|0:0,0:0:0:0:
172,344,46365,2,0,P|178:307|155:263,1,77.5,6|0,1:2|0:0,0:0:0:0:
359,325,46561,6,0,L|388:168,1,155,0|0,0:0|1:2,0:0:0:0:
387,172,46855,1,0,0:0:0:0:
387,172,46953,1,12,0:2:0:0:
244,84,47149,6,0,L|263:190,1,77.5,0|0,0:0|0:2,0:0:0:0:
404,92,47345,2,0,L|418:15,1,77.5,6|0,1:2|0:0,0:0:0:0:
276,233,47541,2,0,L|295:339,1,77.5,0|0,0:0|0:0,0:0:0:0:
469,201,47737,6,0,P|418:181|386:179,1,77.5,8|0,0:2|0:0,0:0:0:0:
346,372,47934,2,0,P|384:366|419:349,1,77.5,6|0,1:2|0:0,0:0:0:0:
299,156,48130,6,0,B|221:129|232:206|155:182,1,155,0|0,0:0|1:2,0:0:0:0:
92,97,48424,1,0,0:0:0:0:
156,32,48522,2,0,L|174:114,1,77.5,14|0,0:2|0:0,0:0:0:0:
103,309,48718,6,0,P|125:284|169:270,1,77.5,0|0,0:0|0:2,0:0:0:0:
154,181,48914,2,0,P|187:178|228:200,1,77.5,6|0,1:2|0:0,0:0:0:0:
280,126,49110,2,0,P|305:148|319:192,1,77.5,0|0,0:0|0:0,0:0:0:0:
28,367,49306,6,0,L|14:259,1,77.5,8|0,0:2|0:0,0:0:0:0:
321,265,49502,2,0,L|311:341,1,77.5,4|0,0:2|0:2,0:0:0:0:
44,137,49698,6,0,B|114:98|114:98|201:129,1,155,10|2,1:2|1:2,0:0:0:0:
275,191,49992,1,0,0:2:0:0:
275,191,50090,2,0,P|213:179|295:151,1,232.5,12|0,0:2|0:2,0:0:0:0:
402,225,50483,6,0,B|316:209|350:283|253:271,1,155,6|0,1:2|0:2,0:0:0:0:
116,338,50777,1,0,1:2:0:0:
185,302,50875,2,0,L|192:224,1,77.5,8|0,0:2|0:0,0:0:0:0:
41,228,51071,2,0,L|48:306,1,77.5,0|0,1:2|0:0,0:0:0:0:
46,131,51267,6,0,P|139:158|186:116,1,155,0|0,1:2|0:0,0:0:0:0:
169,50,51561,1,0,1:2:0:0:
169,50,51659,2,0,B|248:39|228:104|311:92,1,155,8|0,0:2|0:2,0:0:0:0:
471,79,51953,1,0,0:2:0:0:
402,42,52051,6,0,B|388:77|388:77|399:117,1,77.5,10|0,1:2|0:2,0:0:0:0:
470,232,52247,2,0,B|480:193|480:193|466:158,1,77.5,2|0,1:2|0:2,0:0:0:0:
319,208,52443,6,0,L|401:200,1,77.5,10|0,0:2|0:2,0:0:0:0:
407,282,52639,2,0,L|329:289,1,77.5,2|0,1:2|0:2,0:0:0:0:
103,104,52836,6,0,P|165:114|187:209,1,155,2|0,1:2|0:0,0:0:0:0:
130,251,53130,1,0,0:2:0:0:
130,251,53228,2,0,P|68:241|46:146,1,155,10|0,0:2|0:2,0:0:0:0:
206,273,53522,1,2,0:2:0:0:
143,336,53620,6,0,L|40:328,1,77.5,6|0,1:2|0:0,0:0:0:0:
255,203,53816,2,0,L|332:196,1,77.5,2|0,0:2|0:0,0:0:0:0:
96,159,54012,6,0,P|84:123|92:85,1,77.5,10|0,0:2|0:0,0:0:0:0:
170,80,54208,2,0,P|181:116|173:153,1,77.5,0|0,0:2|0:0,0:0:0:0:
16,237,54404,6,0,P|93:245|90:360,1,155,2|0,1:2|0:0,0:0:0:0:
119,309,54698,1,0,1:2:0:0:
119,309,54796,1,8,0:2:0:0:
327,382,54992,5,2,1:2:0:0:
334,328,55090,1,0,0:0:0:0:
342,274,55188,2,0,L|354:174,1,77.5,2|0,1:2|0:0,0:0:0:0:
180,114,55385,2,0,L|189:190,1,77.5,0|0,1:2|1:2,0:0:0:0:
404,136,55581,6,0,P|366:115|327:121,1,77.5,8|0,0:2|0:0,0:0:0:0:
170,265,55777,2,0,P|208:266|241:247,1,77.5,0|0,1:2|0:0,0:0:0:0:
75,62,55973,6,0,L|96:233,1,155,2|2,1:2|0:2,0:0:0:0:
93,215,56267,1,0,0:0:0:0:
93,215,56365,1,10,0:2:0:0:
339,301,56561,1,2,0:2:0:0:
151,20,56757,6,0,P|207:68|321:20,1,155,6|0,1:2|0:0,0:0:0:0:
434,81,57051,1,0,0:0:0:0:
434,81,57149,2,0,P|384:68|354:79,1,77.5,8|0,0:2|0:0,0:0:0:0:
114,306,57345,6,0,P|174:270|171:176,1,155,6|0,1:2|0:0,0:0:0:0:
54,89,57639,1,0,0:2:0:0:
54,89,57737,2,0,P|78:129|127:149,1,77.5,0|0,1:2|0:0,0:0:0:0:
250,83,57934,2,0,P|203:83|167:119,1,77.5,12|0,1:2|0:0,0:0:0:0:
329,125,58130,1,0,0:0:0:0:
38,357,58326,6,0,B|120:384|120:384|207:331,1,155,4|0,1:2|0:0,0:0:0:0:
291,288,58620,1,0,0:0:0:0:
291,288,58718,2,0,L|208:275,1,77.5,8|0,0:2|0:0,0:0:0:0:
475,36,58914,6,0,B|414:59|414:59|392:157,1,155,6|0,1:2|0:0,0:0:0:0:
485,251,59208,1,0,0:2:0:0:
485,251,59306,2,0,B|465:163,1,77.5,0|0,1:2|0:0,0:0:0:0:
329,90,59502,2,0,B|312:165,1,77.5,12|0,0:2|0:0,0:0:0:0:
348,16,59698,1,0,0:0:0:0:
202,245,59894,6,0,P|117:253|35:248,1,155,6|0,1:2|0:0,0:0:0:0:
51,96,60188,1,0,0:0:0:0:
51,96,60286,2,0,P|55:137|54:185,1,77.5,8|0,0:2|0:0,0:0:0:0:
414,372,60483,6,0,P|406:287|411:205,1,155,6|0,1:2|0:0,0:0:0:0:
509,134,60777,1,0,0:2:0:0:
509,134,60875,2,0,P|468:138|420:137,1,77.5,0|0,1:2|0:0,0:0:0:0:
335,209,61071,2,0,P|294:205|246:206,1,77.5,14|0,0:2|0:0,0:0:0:0:
193,161,61267,1,0,0:0:0:0:
27,361,61463,6,0,P|94:331|105:244,1,155,6|0,1:2|0:0,0:0:0:0:
71,115,61757,1,0,0:0:0:0:
71,115,61855,2,0,P|78:145|112:179,1,77.5,8|0,0:2|0:0,0:0:0:0:
485,23,62051,6,0,P|418:53|407:140,1,155,4|10,0:2|1:2,0:0:0:0:
441,269,62345,1,0,0:2:0:0:
441,269,62443,2,0,P|434:237|400:205,1,77.5,2|0,1:2|0:2,0:0:0:0:
173,262,62639,2,0,B|258:255|319:322|319:322|333:291|367:277,1,232.5,12|0,0:2|0:2,0:0:0:0:
85,372,63032,6,0,B|92:275|92:275|51:244|51:244|55:160,1,232.5,6|0,1:2|0:0,0:0:0:0:
55,160,63424,1,8,0:2:0:0:
389,100,63620,6,0,P|302:141|176:37,1,232.5,4|0,1:2|0:0,0:0:0:0:
190,79,64012,2,0,P|214:124|210:168,1,77.5,0|0,0:2|0:0,0:0:0:0:
167,241,64208,2,0,L|347:212,1,155,8|0,0:2|0:0,0:0:0:0:
493,315,64502,5,0,1:2:0:0:
493,315,64600,2,0,B|416:284|416:284|389:120,1,232.5,6|0,1:2|0:0,0:0:0:0:
391,136,64992,1,8,0:2:0:0:
169,32,65188,6,0,P|173:115|33:185,1,232.5,6|0,0:2|0:2,0:0:0:0:
58,189,65581,2,0,P|104:201|133:255,1,77.5,2|0,1:2|0:2,0:0:0:0:
78,347,65777,2,0,B|17:350|17:350|58:265,1,155,10|0,0:2|1:2,0:0:0:0:
132,117,66071,5,0,0:2:0:0:
132,117,66169,2,0,B|239:164|239:164|339:103,1,232.5,6|0,1:2|0:0,0:0:0:0:
337,103,66561,1,8,0:2:0:0:
508,339,66757,6,0,P|473:281|313:303,1,232.5,4|0,1:2|0:0,0:0:0:0:
324,288,67149,2,0,P|343:269|349:211,1,77.5,0|0,0:2|0:0,0:0:0:0:
250,239,67345,2,0,B|241:316|241:316|289:376,1,155,8|0,0:2|0:0,0:0:0:0:
352,136,67639,5,0,1:2:0:0:
352,136,67737,2,0,B|240:154|240:154|143:77,1,232.5,6|0,1:2|0:0,0:0:0:0:
146,79,68130,1,10,0:2:0:0:
31,349,68326,6,0,P|126:348|158:216,1,232.5,4|0,1:2|0:0,0:0:0:0:
166,232,68718,2,0,P|180:279|233:296,1,77.5,0|0,1:2|0:0,0:0:0:0:
276,319,68914,1,10,0:2:0:0:
83,264,69110,1,0,1:2:0:0:
236,125,69306,5,6,1:2:0:0:
236,125,69698,1,8,0:2:0:0:
166,232,69894,2,0,L|148:108,1,116.250004434586,2|0,1:2|0:2,0:0:0:0:
252,254,70286,1,0,1:2:0:0:
186,316,70483,2,0,P|252:288|354:333,1,174.375006651879,8|0,0:2|0:0,0:0:0:0:
397,377,70875,6,0,L|386:227,1,116.250004434586,2|0,1:2|0:2,0:0:0:0:
377,83,71267,1,8,0:2:0:0:
256,211,71463,2,0,L|106:200,1,116.250004434586,2|0,1:2|0:2,0:0:0:0:
341,221,71855,1,0,1:2:0:0:
271,74,72051,6,0,L|266:135,1,58.1250022172929,8|0,0:2|0:0,0:0:0:0:
328,18,72247,1,0,0:2:0:0:
256,211,72443,6,0,P|204:232|87:159,1,174.375006651879,2|0,1:2|0:0,0:0:0:0:
101,186,72836,1,8,0:2:0:0:
344,144,73032,2,0,L|333:294,1,116.250004434586,2|0,1:2|0:2,0:0:0:0:
287,82,73424,1,0,1:2:0:0:
168,255,73620,2,0,L|159:139,1,116.250004434586,8|0,0:2|0:2,0:0:0:0:
246,303,74012,5,2,1:2:0:0:
80,279,74208,1,0,0:2:0:0:
254,182,74404,1,8,0:2:0:0:
83,104,74600,1,0,1:0:0:0:
259,65,74796,6,0,L|252:214,1,116.250004434586,2|2,0:2|1:2,0:0:0:0:
253,181,75090,1,0,0:0:0:0:
253,181,75188,1,10,0:2:0:0:
178,43,75385,1,2,0:2:0:0:
322,249,75581,6,0,P|392:248|448:214,1,116.250004434586,2|0,1:2|0:2,0:0:0:0:
283,168,75973,1,8,0:2:0:0:
261,312,76169,1,2,1:2:0:0:
372,157,76365,1,0,0:2:0:0:
221,231,76561,1,0,1:2:0:0:
374,340,76757,2,0,L|510:319,1,116.250004434586,8|0,0:2|0:2,0:0:0:0:
303,224,77149,6,0,B|199:215|225:312|87:278,1,232.500008869171,2|8,1:2|0:2,0:0:0:0:
286,311,77737,1,2,1:2:0:0:
102,200,77934,2,0,L|87:66,1,116.250004434586,0|2,0:2|0:3,0:0:0:0:
289,20,78326,2,0,L|276:135,1,116.250004434586,8|2,0:2|0:3,0:0:0:0:
200,247,78718,6,0,P|256:183|341:178,1,174.375006651879,2|0,1:2|0:0,0:0:0:0:
341,178,79110,1,8,0:2:0:0:
236,336,79306,2,0,L|85:323,1,116.250004434586,2|0,1:2|0:2,0:0:0:0:
298,275,79698,1,0,1:2:0:0:
50,192,79894,2,0,L|37:343,1,116.250004434586,8|0,0:2|0:2,0:0:0:0:
281,182,80286,5,2,1:2:0:0:
262,84,80483,1,0,0:2:0:0:
205,225,80679,1,8,0:2:0:0:
364,189,80875,1,0,1:0:0:0:
180,89,81071,5,2,0:2:0:0:
151,332,81267,1,2,1:2:0:0:
350,64,81463,1,10,0:2:0:0:
350,64,81855,6,0,L|471:51,1,116.250004434586,2|0,1:2|0:2,0:0:0:0:
271,76,82247,1,8,0:2:0:0:
330,253,82443,2,0,L|317:132,1,116.250004434586,2|0,1:2|0:2,0:0:0:0:
267,314,82836,1,0,1:2:0:0:
402,212,83032,6,0,L|395:151,1,58.1250022172929,8|0,0:2|0:0,0:0:0:0:
411,286,83228,1,0,0:2:0:0:
248,235,83424,6,0,B|170:224|170:224|120:327,1,174.375006651879,2|0,1:2|0:0,0:0:0:0:
128,310,83816,1,8,0:2:0:0:
298,166,84012,1,2,1:2:0:0:
83,99,84208,2,0,L|61:215,1,116.250004434586,0|0,0:2|1:2,0:0:0:0:
288,79,84600,5,8,0:2:0:0:
278,6,84796,1,0,0:2:0:0:
199,141,84992,5,2,1:2:0:0:
185,217,85188,1,0,0:2:0:0:
341,244,85385,5,10,0:2:0:0:
288,121,85581,1,2,1:2:0:0:
173,293,85777,5,2,0:2:0:0:
333,353,85973,1,0,1:2:0:0:
405,306,86169,5,10,0:2:0:0:
248,358,86365,1,0,0:2:0:0:
368,221,86561,1,2,1:2:0:0:
482,360,86757,1,2,0:2:0:0:
193,286,86953,5,8,0:2:0:0:
485,338,87149,1,2,1:2:0:0:
157,360,87345,5,2,0:2:0:0:
411,292,87541,1,0,1:2:0:0:
129,143,87737,6,0,L|114:268,1,116.250004434586,10|2,0:2|0:2,0:0:0:0:
403,108,88130,6,0,P|341:73|230:104,1,174.375006651879,2|0,1:2|0:0,0:0:0:0:
243,92,88522,1,10,0:2:0:0:
458,285,88718,2,0,L|471:169,1,116.250004434586,2|2,1:2|0:2,0:0:0:0:
387,335,89110,1,2,0:2:0:0:
304,165,89306,2,0,L|317:280,1,116.250004434586,10|2,0:2|0:2,0:0:0:0:
339,79,89698,6,0,B|227:51|237:156|123:133,1,232.500008869171,2|8,1:2|0:2,0:0:0:0:
40,57,90286,2,0,L|50:186,1,116.250004434586,2|2,1:2|0:3,0:0:0:0:
150,42,90679,1,2,0:3:0:0:
295,280,90875,2,0,L|303:164,1,116.250004434586,8|2,0:2|0:3,0:0:0:0:
112,337,91267,6,0,P|169:343|225:329,1,116.250004434586,2|0,1:2|0:2,0:0:0:0:
54,274,91659,1,8,0:2:0:0:
186,152,91855,6,0,P|151:198|135:254,1,116.250004434586,2|0,1:2|0:2,0:0:0:0:
271,140,92247,1,0,1:2:0:0:
309,308,92443,5,8,0:2:0:0:
309,308,93032,5,2,0:3:0:0:
323,225,93228,1,2,0:3:0:0:
326,315,93424,1,2,0:3:0:0:
309,215,93620,1,2,0:3:0:0:
343,322,93816,1,2,0:3:0:0:
295,205,94012,1,2,0:3:0:0:
357,328,94208,1,2,0:3:0:0:
39,95,94404,6,0,B|125:79|91:153|188:141,1,155,6|0,1:2|0:2,0:0:0:0:
347,135,94698,1,0,1:2:0:0:
281,81,94796,2,0,P|265:123|266:171,1,77.5,8|0,0:2|0:0,0:0:0:0:
437,151,94992,2,0,P|434:112|419:76,1,77.5,0|0,1:2|0:0,0:0:0:0:
490,263,95188,6,0,B|419:292|419:292|350:253,1,155,0|0,1:2|0:0,0:0:0:0:
194,189,95482,1,0,1:2:0:0:
267,190,95581,2,0,P|300:217|306:336,1,155,8|0,0:2|0:2,0:0:0:0:
95,360,95874,1,0,0:2:0:0:
145,294,95972,6,0,B|223:280,1,77.5,10|0,1:2|0:2,0:0:0:0:
389,336,96169,2,0,B|312:322,1,77.5,2|0,1:2|0:2,0:0:0:0:
470,123,96365,6,0,P|481:155|464:210,1,77.5,10|0,0:2|0:2,0:0:0:0:
367,177,96561,2,0,P|372:139|395:108,1,77.5,2|0,1:2|0:2,0:0:0:0:
480,277,96757,6,0,L|274:241,1,155,2|0,1:2|0:0,0:0:0:0:
250,154,97051,1,0,0:2:0:0:
255,175,97149,5,10,0:2:0:0:
177,175,97247,1,0,0:0:0:0:
131,237,97345,1,0,0:2:0:0:
132,315,97443,1,2,0:2:0:0:
205,358,97541,6,0,B|216:315|216:315|204:274,1,77.5,6|0,1:2|0:0,0:0:0:0:
58,284,97737,2,0,B|47:327|47:327|56:358,1,77.5,2|0,0:2|0:0,0:0:0:0:
247,201,97934,6,0,L|236:107,1,77.5,10|0,0:2|0:0,0:0:0:0:
47,121,98130,2,0,L|37:197,1,77.5,0|0,0:2|0:0,0:0:0:0:
72,39,98326,6,0,B|144:76|144:76|236:38,1,155,2|0,1:2|0:0,0:0:0:0:
212,47,98620,1,0,1:2:0:0:
212,47,98718,1,8,0:2:0:0:
500,195,98913,5,2,1:2:0:0:
428,168,99011,1,0,0:0:0:0:
354,187,99109,2,0,P|346:225|353:263,1,77.5,2|0,1:2|0:0,0:0:0:0:
489,120,99306,2,0,P|495:81|488:44,1,77.5,0|0,1:2|1:2,0:0:0:0:
427,293,99502,6,0,L|517:281,1,77.5,8|0,0:2|0:0,0:0:0:0:
373,111,99698,2,0,L|283:99,1,77.5,0|0,1:2|0:2,0:0:0:0:
187,338,99894,6,0,P|252:324|271:228,1,155,2|0,1:2|0:2,0:0:0:0:
278,246,100188,1,0,0:0:0:0:
278,246,100286,1,10,0:2:0:0:
101,231,100482,6,0,L|110:328,1,77.5,2|0,0:2|0:2,0:0:0:0:
290,163,100679,2,0,L|297:85,1,77.5,6|0,1:2|0:0,0:0:0:0:
94,135,100875,6,0,P|146:155|192:142,1,77.5,0|0,0:0|0:0,0:0:0:0:
189,76,101071,2,0,P|137:56|91:69,1,77.5,8|0,0:2|0:0,0:0:0:0:
366,172,101267,6,0,B|378:134|378:134|368:86,1,77.5,6|0,1:2|0:0,0:0:0:0:
264,276,101462,2,0,P|324:256|423:277,1,155,0|0,0:0|1:2,0:0:0:0:
208,339,101757,1,0,0:0:0:0:
138,300,101855,2,0,L|131:214,1,77.5,12|0,1:2|0:0,0:0:0:0:
280,166,102051,6,0,P|251:180|207:177,1,77.5,0|0,0:0|0:2,0:0:0:0:
270,36,102247,2,0,P|296:54|316:93,1,77.5,4|0,1:2|0:0,0:0:0:0:
163,110,102443,2,0,P|165:77|189:41,1,77.5,0|0,0:0|0:0,0:0:0:0:
293,256,102639,6,0,L|196:263,1,77.5,8|0,0:2|0:0,0:0:0:0:
316,94,102836,2,0,L|393:99,1,77.5,6|0,1:2|0:0,0:0:0:0:
326,331,103031,6,0,L|167:343,1,155,0|0,0:0|1:2,0:0:0:0:
171,343,103325,1,0,0:0:0:0:
171,343,103423,1,12,0:2:0:0:
20,175,103619,6,0,P|13:217|35:278,1,77.5,0|0,0:0|0:2,0:0:0:0:
155,166,103816,2,0,P|122:138|58:127,1,77.5,6|0,1:2|0:0,0:0:0:0:
95,287,104012,2,0,P|134:272|176:222,1,77.5,0|0,0:0|0:0,0:0:0:0:
302,41,104208,6,0,L|293:131,1,77.5,8|0,0:2|0:0,0:0:0:0:
455,263,104404,2,0,L|447:185,1,77.5,6|0,1:2|0:0,0:0:0:0:
373,313,104600,6,0,B|302:340|302:340|222:293,1,155,0|0,0:0|1:2,0:0:0:0:
131,213,104894,1,0,0:0:0:0:
186,157,104992,2,0,P|208:199|204:239,1,77.5,14|0,0:2|0:0,0:0:0:0:
253,97,105188,6,0,L|266:17,1,77.5,0|0,0:0|0:2,0:0:0:0:
327,141,105385,2,0,L|340:61,1,77.5,6|0,1:2|0:0,0:0:0:0:
401,185,105581,2,0,L|414:105,1,77.5,0|0,0:0|0:0,0:0:0:0:
492,330,105777,6,0,P|440:345|412:337,1,77.5,8|0,0:2|0:0,0:0:0:0:
267,226,105973,2,0,P|305:221|340:235,1,77.5,4|0,0:2|0:2,0:0:0:0:
144,363,106169,6,0,B|165:285|112:293|138:197,1,155,10|2,1:2|1:2,0:0:0:0:
156,97,106462,1,0,0:2:0:0:
133,105,106561,5,12,0:2:0:0:
167,172,106659,1,0,0:2:0:0:
240,187,106757,1,8,0:2:0:0:
310,152,106855,1,0,0:2:0:0:
234,93,106953,6,0,B|206:166|206:166|233:258,1,155,6|0,1:2|0:2,0:0:0:0:
340,362,107247,1,0,1:2:0:0:
369,278,107345,2,0,P|334:273|291:285,1,77.5,8|0,0:2|0:0,0:0:0:0:
174,354,107541,2,0,P|211:364|249:359,1,77.5,0|0,1:2|0:0,0:0:0:0:
475,204,107737,6,0,L|309:188,1,155,0|0,1:2|0:0,0:0:0:0:
234,134,108031,1,0,1:2:0:0:
290,78,108130,2,0,L|124:94,1,155,8|0,0:2|0:2,0:0:0:0:
54,230,108423,1,0,0:2:0:0:
131,274,108522,6,0,P|143:231|136:194,1,77.5,10|0,1:2|0:2,0:0:0:0:
49,69,108718,2,0,P|44:107|55:143,1,77.5,2|0,1:2|0:2,0:0:0:0:
339,7,108914,6,0,L|234:-3,1,77.5,10|0,0:2|0:2,0:0:0:0:
371,232,109110,2,0,L|448:224,1,77.5,2|0,1:2|0:2,0:0:0:0:
240,106,109306,6,0,B|223:182|268:184|253:258,1,155,2|0,1:2|0:0,0:0:0:0:
197,354,109600,1,0,0:2:0:0:
212,327,109698,5,10,0:2:0:0:
171,261,109796,1,0,0:0:0:0:
97,243,109894,1,0,0:2:0:0:
41,297,109992,1,2,0:2:0:0:
119,327,110090,6,0,P|122:298|109:247,1,77.5,6|0,1:2|0:0,0:0:0:0:
8,118,110286,2,0,P|-2:155|0:193,1,77.5,2|0,0:2|0:0,0:0:0:0:
153,59,110483,6,0,B|118:46|118:46|75:58,1,77.5,10|0,0:2|0:0,0:0:0:0:
203,254,110679,2,0,B|241:264|241:264|276:251,1,77.5,0|0,0:2|0:0,0:0:0:0:
450,38,110875,6,0,P|396:39|359:145,1,155,2|0,1:2|0:0,0:0:0:0:
350,119,111169,1,0,1:2:0:0:
350,119,111267,1,8,0:2:0:0:
431,379,111462,5,2,1:2:0:0:
410,303,111560,1,0,0:0:0:0:
384,229,111658,2,0,L|284:217,1,77.5,2|0,1:2|0:0,0:0:0:0:
219,372,111855,2,0,L|295:362,1,77.5,0|0,1:2|1:2,0:0:0:0:
242,166,112051,6,0,P|224:204|232:252,1,77.5,8|0,0:2|0:0,0:0:0:0:
445,145,112247,2,0,P|446:106|429:72,1,77.5,0|0,1:2|0:0,0:0:0:0:
102,14,112443,6,0,B|95:86|142:94|126:164,1,155,2|2,1:2|0:2,0:0:0:0:
126,164,112737,1,0,0:0:0:0:
126,164,112835,1,10,0:2:0:0:
195,30,113031,1,2,0:2:0:0:
64,242,113227,6,0,P|119:277|212:236,1,155,6|0,1:2|0:0,0:0:0:0:
275,256,113521,1,0,0:0:0:0:
315,193,113619,2,0,P|265:180|235:191,1,77.5,8|0,0:2|0:0,0:0:0:0:
493,383,113816,6,0,L|505:221,1,155,6|0,1:2|0:0,0:0:0:0:
456,75,114109,1,0,0:2:0:0:
394,121,114208,2,0,L|399:198,1,77.5,0|0,1:2|0:0,0:0:0:0:
248,93,114404,2,0,L|253:15,1,77.5,12|0,1:2|0:0,0:0:0:0:
241,187,114600,1,0,0:0:0:0:
37,342,114796,6,0,P|76:290|170:300,1,155,4|0,1:2|0:0,0:0:0:0:
252,283,115090,1,0,0:0:0:0:
281,359,115188,2,0,B|239:368|239:368|198:346,1,77.5,8|0,0:2|0:0,0:0:0:0:
475,42,115385,6,0,P|436:94|342:84,1,155,6|0,1:2|0:0,0:0:0:0:
276,90,115679,1,0,0:2:0:0:
247,14,115777,2,0,B|289:5|289:5|330:27,1,77.5,0|0,1:2|0:0,0:0:0:0:
305,165,115973,2,0,B|263:174|263:174|222:152,1,77.5,14|0,1:2|0:0,0:0:0:0:
385,133,116168,1,0,0:0:0:0:
84,356,116365,6,0,B|49:287|49:287|88:207,1,155,6|0,1:2|0:0,0:0:0:0:
106,106,116658,1,0,0:0:0:0:
160,157,116756,2,0,P|164:198|163:246,1,77.5,8|0,0:2|0:0,0:0:0:0:
478,355,116953,6,0,B|513:286|513:286|474:206,1,155,6|0,1:2|0:0,0:0:0:0:
456,105,117246,1,0,0:2:0:0:
402,156,117344,2,0,P|398:197|399:245,1,77.5,0|0,1:2|0:0,0:0:0:0:
280,212,117541,2,0,P|284:253|283:301,1,77.5,14|0,0:2|0:0,0:0:0:0:
179,153,117737,1,0,0:0:0:0:
7,376,117933,6,0,L|181:357,1,155,6|0,1:2|0:0,0:0:0:0:
258,257,118227,1,0,0:0:0:0:
183,284,118326,2,0,L|59:270,1,77.5,8|0,0:2|0:0,0:0:0:0:
510,16,118522,6,0,L|336:-3,1,155,4|10,0:2|1:2,0:0:0:0:
262,74,118816,1,0,0:2:0:0:
337,101,118915,2,0,L|460:87,1,77.5,2|0,1:2|0:2,0:0:0:0:
487,232,119110,6,0,P|405:240|348:368,1,232.5,12|0,0:2|0:2,0:0:0:0:
453,330,119502,6,0,L|178:298,1,232.5,6|0,1:2|0:0,0:0:0:0:
222,303,119894,1,8,0:2:0:0:
41,146,120090,2,0,B|182:113|141:202|263:178,1,232.5,4|0,1:2|0:0,0:0:0:0:
263,178,120482,2,0,P|259:139|238:107,1,77.5,0|0,0:2|0:0,0:0:0:0:
136,244,120678,2,0,P|208:267|284:255,1,155,8|0,0:2|0:0,0:0:0:0:
463,141,120972,5,0,1:2:0:0:
463,141,121071,2,0,P|398:171|391:325,1,232.5,6|0,1:2|0:0,0:0:0:0:
384,316,121462,1,8,0:2:0:0:
489,61,121659,2,0,L|241:37,1,232.5,6|0,0:2|0:2,0:0:0:0:
257,38,122051,6,0,L|316:113,1,77.5,2|0,1:2|0:2,0:0:0:0:
393,147,122247,2,0,P|308:139|258:230,1,155,10|0,0:2|1:2,0:0:0:0:
250,269,122541,5,0,0:2:0:0:
250,269,122639,2,0,B|363:285|363:285|466:200,1,232.5,6|0,1:2|0:0,0:0:0:0:
454,209,123031,1,8,0:2:0:0:
134,70,123228,2,0,P|115:202|109:306,1,232.5,4|0,1:2|0:0,0:0:0:0:
109,300,123620,2,0,P|114:271|116:216,1,77.5,0|0,0:2|0:0,0:0:0:0:
51,166,123816,2,0,P|121:194|196:127,1,155,8|0,0:2|0:0,0:0:0:0:
366,43,124109,5,0,1:2:0:0:
366,43,124208,2,0,P|286:106|296:274,1,232.5,6|0,1:2|0:0,0:0:0:0:
272,229,124600,1,8,0:2:0:0:
446,91,124796,2,0,L|453:8,1,77.5,6|0,1:2|0:0,0:0:0:0:
438,173,124992,5,2,1:2:0:0:
308,33,125188,1,0,1:2:0:0:
215,296,125385,1,10,0:2:0:0:
96,80,125581,1,0,1:2:0:0:
9,225,125777,5,4,0:2:0:0:
9,225,126169,1,10,0:2:0:0:
165,360,126365,2,0,L|41:344,1,116.250004434586,2|2,1:2|0:2,0:0:0:0:
408,273,126757,1,0,1:2:0:0:
272,162,126953,2,0,P|247:201|254:272,1,116.250004434586,10|0,0:2|0:2,0:0:0:0:
388,119,127345,6,0,B|292:65|292:65|172:93,1,232.500008869171,2|10,1:2|0:2,0:0:0:0:
436,186,127934,1,2,1:2:0:0:
326,40,128130,1,2,0:2:0:0:
304,122,128326,1,0,1:2:0:0:
486,118,128522,1,10,0:2:0:0:
464,36,128718,1,0,0:2:0:0:
338,200,128914,6,0,L|461:190,1,116.250004434586,2|0,1:2|0:2,0:0:0:0:
326,40,129306,2,0,L|203:30,1,116.250004434586,8|2,0:2|1:2,0:0:0:0:
127,230,129698,1,0,0:2:0:0:
253,212,129894,1,0,1:2:0:0:
61,176,130090,2,0,B|38:231|38:231|62:295,1,116.250004434586,8|0,0:2|0:2,0:0:0:0:
334,325,130483,6,0,P|303:271|162:299,1,174.375006651879,2|0,1:2|0:0,0:0:0:0:
199,260,130875,1,8,0:2:0:0:
392,200,131071,1,2,1:2:0:0:
203,122,131267,5,2,0:2:0:0:
245,336,131463,1,2,1:2:0:0:
203,122,131659,1,10,0:2:0:0:
245,336,131855,1,2,0:2:0:0:
31,258,132051,6,0,L|46:131,1,116.250004434586,2|0,1:2|0:0,0:0:0:0:
203,122,132443,2,0,L|216:237,1,116.250004434586,10|2,0:2|1:2,0:0:0:0:
131,75,132836,1,2,0:2:0:0:
294,144,133032,1,0,1:2:0:0:
112,293,133228,2,0,L|132:168,1,116.250004434586,10|0,0:2|0:2,0:0:0:0:
402,205,133620,6,0,P|351:258|194:221,1,232.500008869171,2|10,1:2|0:2,0:0:0:0:
421,122,134208,1,2,1:2:0:0:
326,359,134404,2,0,L|189:341,1,116.250004434586,2|0,0:2|1:2,0:0:0:0:
184,162,134796,2,0,L|299:146,1,116.250004434586,10|2,0:2|0:2,0:0:0:0:
78,346,135188,6,0,B|21:299|21:299|46:128,1,232.500008869171,2|8,1:2|0:2,0:0:0:0:
197,46,135777,2,0,L|182:172,1,116.250004434586,2|2,1:2|0:2,0:0:0:0:
121,13,136169,1,2,1:2:0:0:
153,236,136365,2,0,L|27:221,1,116.250004434586,10|2,0:2|0:2,0:0:0:0:
311,75,136757,6,0,P|372:81|411:213,1,174.375006651879,2|0,1:2|0:2,0:0:0:0:
424,172,137149,2,0,P|411:125|455:47,1,116.250004434586,10|0,0:2|0:0,0:0:0:0:
492,288,137541,5,2,0:2:0:0:
245,249,137737,1,2,1:2:0:0:
497,127,137934,1,10,0:2:0:0:
315,326,138130,1,2,0:2:0:0:
163,87,138326,6,0,P|141:140|128:322,1,232.500008869171,2|10,1:2|0:2,0:0:0:0:
237,138,138914,1,0,1:2:0:0:
40,213,139110,2,0,L|54:358,1,116.250004434586,2|0,0:2|1:2,0:0:0:0:
317,199,139502,2,0,L|328:83,1,116.250004434586,10|2,0:2|0:2,0:0:0:0:
30,101,139894,6,0,P|111:111|191:16,1,174.375006651879,2|0,1:2|0:0,0:0:0:0:
179,55,140287,1,10,0:2:0:0:
391,116,140483,1,2,1:2:0:0:
202,191,140679,1,2,0:2:0:0:
309,37,140875,1,0,1:2:0:0:
480,198,141071,1,10,0:2:0:0:
256,114,141267,1,2,0:2:0:0:
456,43,141463,6,0,P|484:92|484:150,1,116.250004434586,2|2,1:2|0:2,0:0:0:0:
381,298,141855,1,10,0:2:0:0:
377,121,142051,2,0,P|406:71|455:42,1,116.250004434586,2|2,1:2|0:2,0:0:0:0:
369,314,142443,1,0,1:2:0:0:
261,149,142639,1,10,0:2:0:0:
208,338,142836,1,0,0:2:0:0:
88,179,143032,6,0,B|56:238|56:238|74:290,1,116.250004434586,2|0,1:2|0:0,0:0:0:0:
72,284,143326,1,0,0:0:0:0:
72,284,143424,1,10,0:2:0:0:
161,130,143620,1,2,1:2:0:0:
0,155,143816,1,2,0:2:0:0:
181,217,144012,1,2,1:2:0:0:
56,83,144208,1,10,0:2:0:0:
0,262,144404,1,2,0:2:0:0:
144,98,144600,6,0,L|266:82,1,116.250004434586,2|0,1:2|0:0,0:0:0:0:
65,109,144992,1,0,0:2:0:0:
216,245,145188,6,0,L|338:261,1,116.250004434586,2|0,1:2|0:0,0:0:0:0:
137,234,145580,1,0,0:2:0:0:
271,322,145777,6,0,P|307:280|266:166,1,174.375006651879,2|0,0:2|0:0,0:0:0:0:
278,173,146169,1,2,1:2:0:0:
282,177,146561,5,0,0:2:0:0:
253,258,146757,1,2,1:2:0:0:
213,129,146953,1,0,0:0:0:0:
358,142,147149,1,0,0:2:0:0:
249,279,147345,1,2,0:2:0:0:
197,119,147541,1,2,0:2:0:0:
372,135,147737,1,2,1:2:0:0:
372,135,148130,5,2,0:2:0:0:
249,279,148326,2,0,P|187:282|122:252,1,116.250004434586,2|2,1:2|0:2,0:0:0:0:
313,212,148718,5,2,1:2:0:0:
97,196,148914,2,0,P|94:134|124:69,1,116.250004434586,2|2,0:2|0:2,0:0:0:0:
369,22,149306,5,2,0:2:0:0:
398,98,149502,1,2,0:2:0:0:
361,168,149698,2,0,L|356:212,2,29.0625011086464,2|2|2,0:2|0:2|0:2,0:0:0:0:
411,95,149894,1,2,0:2:0:0:
264,83,150090,5,10,0:2:0:0:
264,83,150287,1,10,0:2:0:0:
143,127,150483,5,10,0:2:0:0:
143,127,150679,1,10,0:2:0:0:
159,19,150875,6,0,B|219:27|272:75|270:150|246:220|175:237|122:184|146:119,1,348.750013303757,12|0,1:2|0:0,1:2:0:0:
86,62,151267,6,0,B|33:100|33:100|145:121|145:121|146:115|146:115|145:121|145:121|325:154,1,348.750013303757,10|0,0:2|0:0,1:2:0:0:
346,39,151659,6,0,B|305:263|305:263|289:325|211:328,1,348.750013303757,8|0,0:2|0:0,1:2:0:0:
145,299,152051,6,0,B|114:264|114:264|264:221|370:375,1,348.750013303757,8|2,0:2|0:2,1:2:0:0:
134,98,152443,6,0,B|94:102|68:73|68:73|36:168|137:192|137:192|176:243|160:279|131:320,1,348.750013303757,14|0,1:2|0:0,0:0:0:0:
145,298,152836,6,0,B|114:307|96:346|96:346|95:251|141:184|239:169|332:209,1,348.750013303757,10|0,0:2|0:0,0:0:0:0:
384,290,153228,6,0,B|318:286|302:224|302:224|274:77|274:77|281:79|281:79|274:77|274:77|261:0,1,348.750013303757,10|0,0:2|0:2,1:2:0:0:
287,79,153620,5,6,0:2:0:0:
293,81,154012,6,0,B|236:87|177:133|180:162|180:162|193:131|93:77|103:168|0:124,1,348.750013303757,14|0,1:2|0:0,0:0:0:0:
49,53,154404,6,0,B|102:58|111:112|111:112|71:245|188:282|255:228|259:167,1,348.750013303757,10|0,0:2|0:0,0:0:0:0:
234,103,154796,6,0,B|203:87|194:53|194:53|177:156|177:156|180:164|180:164|163:248|163:248|160:317|232:337,1,348.750013303757,8|0,0:2|0:0,0:0:0:0:
417,332,155188,6,0,B|476:287|448:218|448:218|338:179|363:264|239:255,1,348.750013303757,8|2,0:2|0:2,0:0:0:0:
226,172,155581,6,0,P|266:179|331:125,1,116.250004434586,14|0,1:2|0:0,0:0:0:0:
283,40,155777,2,0,B|254:59|254:59|261:129,1,77.5,2|0,0:2|0:0,0:0:0:0:
474,245,155973,6,0,P|434:252|369:198,1,116.250004434586,10|0,0:2|0:0,0:0:0:0:
417,113,156169,2,0,B|445:132|445:132|439:202,1,77.5,2|0,0:2|0:0,0:0:0:0:
193,241,156365,6,0,P|233:248|298:194,1,116.250004434586,8|0,0:2|0:0,0:0:0:0:
250,109,156561,2,0,B|221:128|221:128|228:198,1,77.5,2|0,0:2|0:0,0:0:0:0:
506,314,156757,6,0,P|466:321|401:267,1,116.250004434586,10|0,0:2|0:2,0:0:0:0:
449,182,156953,2,0,B|477:201|477:201|471:271,1,77.5,10|0,0:2|0:2,0:0:0:0:
76,53,157149,6,0,B|129:73|124:129|124:129|96:285|96:285|116:230|190:219,1,348.750013303757,12|0,1:2|0:0,0:0:0:0:
240,221,157541,6,0,P|235:185|205:154,1,77.5,10|0,0:2|0:0,0:0:0:0:
180,308,157737,1,0,0:2:0:0:
432,384,157934,6,0,B|367:226|449:178|449:178|430:251|316:252,1,348.750013303757,8|0,0:2|0:0,0:0:0:0:
358,248,158326,6,0,B|396:246|440:217|449:179|449:179|355:74|190:112,1,348.750013303757,8|2,0:2|0:2,0:0:0:0:
155,90,158718,6,0,B|194:88|218:47|218:47|201:149|201:149|205:156|205:156|197:206|197:206|202:207|202:207|197:206|197:206|178:311,1,348.750013303757,14|0,1:2|0:0,0:0:0:0:
19,320,159110,6,0,B|8:258|8:258|2:259|2:259|8:259|8:259|-1:206|-1:206|100:152|226:216,1,348.750013303757,10|0,0:2|0:0,0:0:0:0:
210,208,159502,6,0,B|231:264|178:317|99:311|83:230|81:155|141:108|210:105,1,348.750013303757,10|0,0:2|0:2,1:2:0:0:
192,106,159894,5,6,0:2:0:0:
192,106,160287,6,0,B|173:88|171:68|171:68|159:167|159:167|165:176|165:176|155:288|155:288|167:338|210:351,1,348.750013303757,14|0,1:2|0:0,0:0:0:0:
308,287,160679,6,0,L|230:277,1,77.5,10|0,0:2|0:0,0:0:0:0:
79,259,160875,1,2,0:2:0:0:
373,181,161071,6,0,B|370:118|303:104|303:104|194:96|194:96|193:106|193:106|193:96|193:96|41:85,1,348.750013303757,8|0,0:2|0:0,0:0:0:0:
92,1,161463,6,0,B|176:27|192:119|192:119|237:15|343:21,1,348.750013303757,8|2,0:2|0:2,0:0:0:0:
469,206,161855,6,0,B|323:239|265:76|265:76|303:129|363:127,1,348.750013303757,14|0,1:2|0:0,0:0:0:0:
396,89,162247,6,0,P|407:117|399:148,1,46.4999985809327,0|2,0:0|0:2,0:0:0:0:
337,40,162639,5,2,0:2:0:0:
334,20,162737,1,0,0:2:0:0:
460,189,162934,5,2,0:2:0:0:
457,209,163032,1,2,0:2:0:0:
403,217,163130,1,0,0:2:0:0:
378,168,163228,1,10,0:2:0:0:
416,129,163326,1,0,0:2:0:0:
466,154,163424,6,0,B|423:163|403:203|403:203|259:190|259:190|256:198|256:198|259:190|259:190|135:178,1,348.750013303757,12|0,1:2|0:0,0:0:0:0:
197,53,163816,6,0,B|240:62|276:25|276:25|263:114|263:114|269:116|269:116|245:281,1,348.750013303757,10|0,0:2|0:0,0:0:0:0:
173,259,164208,6,0,B|162:300|182:345|236:355|236:355|452:384,1,348.750013303757,8|0,0:2|0:0,0:0:0:0:
452,384,164600,6,0,B|463:343|443:298|389:288|389:288|172:258,1,348.750013303757,8|2,0:2|0:2,0:0:0:0:
172,270,164992,6,0,L|301:290,1,116.250004434586,14|0,1:2|0:0,0:0:0:0:
357,177,165188,6,0,L|242:159,1,116.250004434586,2|0,0:2|0:0,0:0:0:0:
167,283,165385,6,0,L|296:303,1,116.250004434586,10|0,0:2|0:0,0:0:0:0:
352,190,165581,6,0,L|237:172,1,116.250004434586,2|0,0:2|0:0,0:0:0:0:
136,23,165777,6,0,B|194:42|193:105|193:105|166:282|166:282|164:245|140:217,1,348.750013303757,8|0,0:2|0:0,0:0:0:0:
85,284,166169,6,0,B|154:198|218:214|218:214|259:346|390:321,1,348.750013303757,8|0,0:2|0:0,0:0:0:0:
353,324,166561,6,0,B|424:271|370:149|370:149|414:103|475:101|475:101|445:90|434:61,1,348.750013303757,12|0,1:2|0:2,0:0:0:0:
507,35,166953,2,0,B|478:57|466:94|466:94|401:100|369:141|369:141|306:63|166:112,1,348.750013303757,10|0,0:2|0:0,0:0:0:0:
97,58,167345,6,0,B|79:48|73:10|73:10|51:111|51:111|55:116|55:116|27:225|27:225|19:276|73:304,1,348.750013303757,8|0,0:2|0:0,0:0:0:0:
424,255,167737,6,0,B|311:231|311:231|303:224|303:224|230:271|230:271|222:262|222:262|101:234,1,348.750013303757,8|2,0:2|0:2,0:0:0:0:
143,323,168130,6,0,B|179:306|212:275|201:202|201:202|310:132|310:132|290:103|311:36,1,348.750013303757,14|0,1:2|0:0,0:0:0:0:
143,7,168522,6,0,B|152:49|203:59|203:59|304:62|304:62|305:50|305:50|305:62|305:62|501:69,1,348.750013303757,10|0,0:2|0:0,0:0:0:0:
457,142,168914,6,0,L|326:138,1,116.250004434586,10|0,0:2|0:2,0:0:0:0:
357,211,169110,2,0,B|395:228|395:228|441:213,1,77.5,2|0,0:2|0:2,0:0:0:0:
262,136,169306,6,0,L|131:132,1,116.250004434586,10|0,0:2|0:2,0:0:0:0:
162,205,169502,2,0,B|200:222|200:222|246:207,1,77.5,10|0,0:2|0:2,0:0:0:0:
41,75,169698,6,0,B|75:76|104:48|104:48|43:126|45:191|45:191|108:236|88:304,1,348.750013303757,14|0,1:2|0:0,0:0:0:0:
90,294,170090,6,0,B|57:316|52:360|52:360|-40:281|52:155|105:151|136:160,1,348.750013303757,10|0,0:2|0:0,0:0:0:0:
272,64,170483,6,0,B|224:69|204:134|204:134|176:258|176:258|167:177|112:152,1,348.750013303757,10|0,0:2|0:0,0:0:0:0:
100,280,170875,6,0,B|130:349|205:333|205:333|442:276,1,348.750013303757,10|0,0:2|0:0,0:0:0:0:
485,7,171267,6,0,B|444:19|444:59|444:59|458:121|458:121|450:119|450:119|458:121|458:121|488:252|488:252|473:217|438:211,1,348.750013303757,14|0,1:2|0:0,0:0:0:0:
442,211,171659,6,0,B|419:220|407:255|407:255|234:288|234:288|158:298|133:226,1,348.750013303757,10|0,1:2|0:0,0:0:0:0:
49,161,172051,6,0,B|59:234|130:231|130:231|134:225|134:225|130:231|130:231|361:189,1,348.750013303757,10|0,1:2|0:0,0:0:0:0:
340,192,172443,6,0,B|330:119|258:121|258:121|254:127|254:127|258:121|258:121|28:164,1,348.750013303757,10|0,1:2|0:0,0:0:0:0:
48,160,172836,6,0,B|0:287|87:372|204:352|193:247|132:225,1,348.750013303757,14|0,1:2|0:0,0:0:0:0:
48,160,173228,6,0,B|169:174|184:278|184:278|243:353|366:303,1,348.750013303757,10|0,0:2|0:0,0:0:0:0:
359,205,173620,6,0,B|302:151|302:151|168:213|192:416,1,348.750013303757,10|0,0:2|0:0,0:0:0:0:
188,377,174012,6,0,B|279:360|286:278|286:278|168:219|203:82,1,348.750013303757,0|2,1:2|0:2,0:0:0:0:
115,63,174404,6,0,B|90:94|49:94|49:94|195:114|195:114|198:105|198:105|195:114|195:114|306:133,1,348.750013303757,14|0,1:2|0:0,0:0:0:0:
370,64,174796,6,0,L|240:43,1,116.250004434586,10|0,0:2|0:0,0:0:0:0:
380,149,174992,2,0,L|494:166,1,77.5,2|0,0:2|0:0,0:0:0:0:
300,132,175188,5,10,0:2:0:0:
456,77,175385,1,2,0:2:0:0:
255,46,175581,5,10,0:2:0:0:
467,164,175777,1,2,0:2:0:0:
