osu file format v14

[General]
AudioFilename: audio.mp3
AudioLeadIn: 0
PreviewTime: 38875
Countdown: 0
SampleSet: Soft
StackLeniency: 0.2
Mode: 0
LetterboxInBreaks: 0
WidescreenStoryboard: 0

[Editor]
Bookmarks: 13190,39081,52642,78944,105245,118396,144697
DistanceSpacing: 0.1
BeatDivisor: 6
GridSize: 16
TimelineZoom: 2

[Metadata]
Title:BUTYLOCHKA
TitleUnicode:БУТЫЛОЧКА
Artist:FRENDZONA / MAYBE BABY
ArtistUnicode:ФРЕНДЗОНА / МЭЙБИ БЭЙБИ
Creator:EijiKuinbii
Version:Expert
Source:
Tags:ПИЖАМНАЯ ВЕЧЕРИНКА
BeatmapID:1988870
BeatmapSetID:952479

[Difficulty]
HPDrainRate:6
CircleSize:4
OverallDifficulty:9
ApproachRate:9.4
SliderMultiplier:1.8
SliderTickRate:1

[Events]
//Background and Video events
0,0,"bg.png",0,0
//Break Periods
//Storyboard Layer 0 (Background)
//Storyboard Layer 1 (Fail)
//Storyboard Layer 2 (Pass)
//Storyboard Layer 3 (Foreground)
//Storyboard Sound Samples

[TimingPoints]
40,410.958904109589,4,2,0,65,1,0
13087,-100,4,2,0,5,0,0
13190,-100,4,2,0,65,0,0
14012,-66.6666666666667,4,2,0,65,0,0
14423,-100,4,2,0,65,0,0
15656,-66.6666666666667,4,2,0,65,0,0
16067,-100,4,2,0,65,0,0
17300,-66.6666666666667,4,2,0,65,0,0
17711,-100,4,2,0,65,0,0
18944,-66.6666666666667,4,2,0,65,0,0
19766,-100,4,2,0,65,0,0
20587,-66.6666666666667,4,2,0,65,0,0
21820,-100,4,2,0,65,0,0
22231,-66.6666666666667,4,2,0,65,0,0
23053,-100,4,2,0,65,0,0
23875,-66.6666666666667,4,2,0,65,0,0
24286,-100,4,2,0,65,0,0
25519,-66.6666666666667,4,2,0,65,0,0
26341,-83.3333333333333,4,2,0,65,0,0
27163,-66.6666666666667,4,2,0,65,0,0
27574,-83.3333333333333,4,2,0,65,0,0
28807,-66.6666666666667,4,2,0,65,0,0
29629,-83.3333333333333,4,2,0,65,0,0
30450,-66.6666666666667,4,2,0,65,0,0
31272,-83.3333333333333,4,2,0,65,0,0
32094,-66.6666666666667,4,2,0,65,0,0
32916,-83.3333333333333,4,2,0,65,0,0
33738,-66.6666666666667,4,2,0,65,0,0
34971,-83.3333333333333,4,2,0,65,0,0
35382,-66.6666666666667,4,2,0,65,0,0
39081,-66.6666666666667,4,2,0,65,0,0
39492,-181.818181818181,4,2,0,65,0,0
39903,-66.6666666666667,4,2,0,65,0,0
41135,-45.4545454545455,4,2,0,65,0,0
41957,-66.6666666666667,4,2,0,65,0,0
42368,-50,4,2,0,65,0,0
42779,-66.6666666666667,4,2,0,65,0,0
44012,-133.333333333333,4,2,0,65,0,0
44423,-66.6666666666667,4,2,0,65,0,0
45245,-50,4,2,0,65,0,0
45656,-133.333333333333,4,2,0,65,0,0
46889,-66.6666666666667,4,2,0,65,0,0
47711,-100,4,2,0,65,0,0
49355,-133.333333333333,4,2,0,65,0,0
50587,-66.6666666666667,4,2,0,65,0,0
52231,-100,4,2,0,65,0,0
52334,-100,4,2,0,5,0,0
52437,-100,4,2,0,65,0,0
52642,-40,4,2,0,65,0,0
52779,-40,4,2,0,5,0,0
52848,-37.037037037037,4,2,0,65,0,0
52985,-37.037037037037,4,2,0,5,0,0
53053,-37.037037037037,4,2,0,65,0,0
53190,-37.037037037037,4,2,0,5,0,0
53259,-33.3333333333333,4,2,0,65,0,0
53396,-33.3333333333333,4,2,0,5,0,0
53464,-333.333333333333,4,2,0,65,0,0
53875,-33.3333333333333,4,2,0,65,0,0
54697,-50,4,2,0,65,0,0
55108,-33.3333333333333,4,2,0,65,0,0
55930,-40,4,2,0,65,0,0
56067,-40,4,2,0,5,0,0
56135,-40,4,2,0,65,0,0
56272,-40,4,2,0,5,0,0
56341,-35.7142857142857,4,2,0,65,0,0
56478,-35.7142857142857,4,2,0,5,0,0
56546,-33.3333333333333,4,2,0,65,0,0
56683,-33.3333333333333,4,2,0,5,0,0
56752,-200,4,2,0,65,0,0
57163,-33.3333333333333,4,2,0,65,0,0
57985,-50,4,2,0,65,0,0
59218,-40,4,2,0,65,0,0
59355,-40,4,2,0,5,0,0
59423,-40,4,2,0,65,0,0
59560,-40,4,2,0,5,0,0
59629,-35.7142857142857,4,2,0,65,0,0
59766,-35.7142857142857,4,2,0,5,0,0
59834,-33.3333333333333,4,2,0,65,0,0
59971,-33.3333333333333,4,2,0,5,0,0
60039,-250,4,2,0,65,0,0
60450,-33.3333333333333,4,2,0,65,0,0
60861,-100,4,2,0,65,0,0
60964,-100,4,2,0,5,0,0
61067,-100,4,2,0,65,0,0
61170,-100,4,2,0,5,0,0
61272,-37.037037037037,4,2,0,65,0,0
61409,-37.037037037037,4,2,0,5,0,0
61478,-33.3333333333333,4,2,0,65,0,0
61615,-33.3333333333333,4,2,0,5,0,0
61683,-500,4,2,0,65,0,0
62505,-40,4,2,0,65,0,0
62642,-40,4,2,0,5,0,0
62711,-40,4,2,0,65,0,0
62848,-40,4,2,0,5,0,0
62916,-35.7142857142857,4,2,0,65,0,0
63053,-35.7142857142857,4,2,0,5,0,0
63122,-33.3333333333333,4,2,0,65,0,0
63259,-33.3333333333333,4,2,0,5,0,0
63327,-333.333333333333,4,2,0,65,0,0
63738,-33.3333333333333,4,2,0,65,0,0
64355,-50,4,2,0,65,0,0
64560,-38.4615384615385,4,2,0,65,0,0
64697,-38.4615384615385,4,2,0,5,0,0
64766,-35.7142857142857,4,2,0,65,0,0
64903,-35.7142857142857,4,2,0,5,0,0
64971,-37.037037037037,4,2,0,65,0,0
65108,-37.037037037037,4,2,0,5,0,0
65176,-37.037037037037,4,2,0,65,0,0
65313,-37.037037037037,4,2,0,5,0,0
65382,-40,4,2,0,65,0,0
65519,-40,4,2,0,5,0,0
65587,-40,4,2,0,65,0,0
65724,-40,4,2,0,5,0,0
65793,-33.3333333333333,4,2,0,65,0,0
65930,-33.3333333333333,4,2,0,5,0,0
65998,-33.3333333333333,4,2,0,65,0,0
66135,-33.3333333333333,4,2,0,5,0,0
66204,-33.3333333333333,4,2,0,65,0,0
66341,-33.3333333333333,4,2,0,5,0,0
66409,-33.3333333333333,4,2,0,65,0,0
66546,-33.3333333333333,4,2,0,5,0,0
66615,-250,4,2,0,65,0,0
67026,-33.3333333333333,4,2,0,65,0,0
67437,-66.6666666666667,4,2,0,65,0,0
67848,-50,4,2,0,65,0,0
68259,-33.3333333333333,4,2,0,65,0,0
69081,-66.6666666666667,4,2,0,65,0,0
69492,-40,4,2,0,65,0,0
69629,-40,4,2,0,5,0,0
69697,-40,4,2,0,65,0,0
69834,-40,4,2,0,5,0,0
69903,-200,4,2,0,65,0,0
70313,-33.3333333333333,4,2,0,65,0,0
70724,-66.6666666666667,4,2,0,65,0,0
71135,-50,4,2,0,65,0,0
71546,-33.3333333333333,4,2,0,65,0,0
72368,-38.4615384615385,4,2,0,65,0,0
72505,-38.4615384615385,4,2,0,5,0,0
72574,-37.037037037037,4,2,0,65,0,0
72711,-37.037037037037,4,2,0,5,0,0
72779,-33.3333333333333,4,2,0,65,0,0
72916,-33.3333333333333,4,2,0,5,0,0
72985,-33.3333333333333,4,2,0,65,0,0
73122,-33.3333333333333,4,2,0,5,0,0
73190,-333.333333333333,4,2,0,65,0,0
73601,-33.3333333333333,4,2,0,65,0,0
74012,-66.6666666666667,4,2,0,65,0,0
74423,-50,4,2,0,65,0,0
74834,-33.3333333333333,4,2,0,65,0,0
75656,-38.4615384615385,4,2,0,65,0,0
75793,-38.4615384615385,4,2,0,5,0,0
75861,-35.7142857142857,4,2,0,65,0,0
75998,-35.7142857142857,4,2,0,5,0,0
76067,-33.3333333333333,4,2,0,65,0,0
76204,-33.3333333333333,4,2,0,5,0,0
76272,-33.3333333333333,4,2,0,65,0,0
76409,-33.3333333333333,4,2,0,5,0,0
76478,-250,4,2,0,65,0,0
76889,-33.3333333333333,4,2,0,65,0,0
77711,-66.6666666666667,4,2,0,65,0,0
78122,-33.3333333333333,4,2,0,65,0,0
78259,-33.3333333333333,4,2,0,5,0,0
78327,-35.7142857142857,4,2,0,65,0,0
78464,-35.7142857142857,4,2,0,5,0,0
78533,-38.4615384615385,4,2,0,65,0,0
78670,-38.4615384615385,4,2,0,5,0,0
78738,-41.6666666666667,4,2,0,65,0,0
78875,-41.6666666666667,4,2,0,5,0,0
78944,-100,4,2,0,65,0,0
79766,-66.6666666666667,4,2,0,65,0,0
80176,-100,4,2,0,65,0,0
81409,-66.6666666666667,4,2,0,65,0,0
82231,-100,4,2,0,65,0,0
83053,-66.6666666666667,4,2,0,65,0,0
83464,-100,4,2,0,65,0,0
84697,-66.6666666666667,4,2,0,65,0,0
85519,-100,4,2,0,65,0,0
86341,-66.6666666666667,4,2,0,65,0,0
87163,-100,4,2,0,65,0,0
87985,-66.6666666666667,4,2,0,65,0,0
88396,-100,4,2,0,65,0,0
89629,-66.6666666666667,4,2,0,65,0,0
90040,-100,4,2,0,65,0,0
91272,-66.6666666666667,4,2,0,65,0,0
91683,-100,4,2,0,65,0,0
92094,-83.3333333333333,4,2,0,65,0,0
92916,-66.6666666666667,4,2,0,65,0,0
93738,-83.3333333333333,4,2,0,65,0,0
94560,-66.6666666666667,4,2,0,65,0,0
94971,-83.3333333333333,4,2,0,65,0,0
96204,-66.6666666666667,4,2,0,65,0,0
96615,-83.3333333333333,4,2,0,65,0,0
97848,-66.6666666666667,4,2,0,65,0,0
98259,-83.3333333333333,4,2,0,65,0,0
99492,-66.6666666666667,4,2,0,65,0,0
99903,-83.3333333333333,4,2,0,65,0,0
101135,-66.6666666666667,4,2,0,65,0,0
104012,-83.3333333333333,4,2,0,65,0,0
105245,-100,4,2,0,65,0,0
105656,-66.6666666666667,4,2,0,65,0,0
106067,-133.333333333333,4,2,0,65,0,0
106478,-100,4,2,0,65,0,0
106889,-66.6666666666667,4,2,0,65,0,0
108533,-133.333333333333,4,2,0,65,0,0
108944,-100,4,2,0,65,0,0
110176,-66.6666666666667,4,2,0,65,0,0
110587,-133.333333333333,4,2,0,65,0,0
110998,-66.6666666666667,4,2,0,65,0,0
111409,-100,4,2,0,65,0,0
113053,-133.333333333333,4,2,0,65,0,0
113464,-66.6666666666667,4,2,0,65,0,0
114286,-133.333333333333,4,2,0,65,0,0
115108,-66.6666666666667,4,2,0,65,0,0
117574,-250,4,2,0,65,0,0
118396,-33.3333333333333,4,2,0,65,0,0
118533,-33.3333333333333,4,2,0,5,0,0
118601,-33.3333333333333,4,2,0,65,0,0
118738,-33.3333333333333,4,2,0,5,0,0
118807,-33.3333333333333,4,2,0,65,0,0
118944,-33.3333333333333,4,2,0,5,0,0
119012,-33.3333333333333,4,2,0,65,0,0
119149,-33.3333333333333,4,2,0,5,0,0
119218,-250,4,2,0,65,0,0
119629,-33.3333333333333,4,2,0,65,0,0
120450,-50,4,2,0,65,0,0
120861,-33.3333333333333,4,2,0,65,0,0
121067,-100,4,2,0,65,0,0
121683,-37.037037037037,4,2,0,65,0,0
121820,-37.037037037037,4,2,0,5,0,0
121889,-37.037037037037,4,2,0,65,0,0
122026,-37.037037037037,4,2,0,5,0,0
122094,-35.7142857142857,4,2,0,65,0,0
122231,-35.7142857142857,4,2,0,5,0,0
122300,-33.3333333333333,4,2,0,65,0,0
122437,-33.3333333333333,4,2,0,5,0,0
122505,-333.333333333333,4,2,0,65,0,0
122916,-33.3333333333333,4,2,0,65,0,0
123738,-66.6666666666667,4,2,0,65,0,0
124149,-50,4,2,0,65,0,0
124971,-38.4615384615385,4,2,0,65,0,0
125108,-38.4615384615385,4,2,0,5,0,0
125176,-38.4615384615385,4,2,0,65,0,0
125313,-38.4615384615385,4,2,0,5,0,0
125382,-35.7142857142857,4,2,0,65,0,0
125519,-35.7142857142857,4,2,0,5,0,0
125587,-33.3333333333333,4,2,0,65,0,0
125724,-33.3333333333333,4,2,0,5,0,0
125793,-333.333333333333,4,2,0,65,0,0
126204,-33.3333333333333,4,2,0,65,0,0
126615,-66.6666666666667,4,2,0,65,0,0
126718,-66.6666666666667,4,2,0,5,0,0
126820,-66.6666666666667,4,2,0,65,0,0
126923,-66.6666666666667,4,2,0,5,0,0
127026,-37.037037037037,4,2,0,65,0,0
127163,-37.037037037037,4,2,0,5,0,0
127231,-33.3333333333333,4,2,0,65,0,0
127368,-33.3333333333333,4,2,0,5,0,0
127437,-250,4,2,0,65,0,0
128259,-38.4615384615385,4,2,0,65,0,0
128396,-38.4615384615385,4,2,0,5,0,0
128464,-38.4615384615385,4,2,0,65,0,0
128601,-38.4615384615385,4,2,0,5,0,0
128670,-33.3333333333333,4,2,0,65,0,0
128807,-33.3333333333333,4,2,0,5,0,0
128875,-33.3333333333333,4,2,0,65,0,0
129012,-33.3333333333333,4,2,0,5,0,0
129081,-333.333333333333,4,2,0,65,0,0
129492,-33.3333333333333,4,2,0,65,0,0
129903,-66.6666666666667,4,2,0,65,0,0
130005,-66.6666666666667,4,2,0,5,0,0
130108,-66.6666666666667,4,2,0,65,0,0
130211,-66.6666666666667,4,2,0,5,0,0
130313,-37.037037037037,4,2,0,65,0,0
130450,-37.037037037037,4,2,0,5,0,0
130519,-37.037037037037,4,2,0,65,0,0
130656,-37.037037037037,4,2,0,5,0,0
130724,-34.4827586206897,4,2,0,65,0,0
130861,-34.4827586206897,4,2,0,5,0,0
130930,-34.4827586206897,4,2,0,65,0,0
131067,-34.4827586206897,4,2,0,5,0,0
131135,-37.037037037037,4,2,0,65,0,0
131272,-37.037037037037,4,2,0,5,0,0
131341,-40,4,2,0,65,0,0
131478,-40,4,2,0,5,0,0
131546,-35.7142857142857,4,2,0,65,0,0
131683,-35.7142857142857,4,2,0,5,0,0
131752,-35.7142857142857,4,2,0,65,0,0
131889,-35.7142857142857,4,2,0,5,0,0
131957,-33.3333333333333,4,2,0,65,0,0
132094,-33.3333333333333,4,2,0,5,0,0
132163,-33.3333333333333,4,2,0,65,0,0
132300,-33.3333333333333,4,2,0,5,0,0
132368,-250,4,2,0,65,0,0
132779,-33.3333333333333,4,2,0,65,0,0
133601,-50,4,2,0,65,0,0
134012,-33.3333333333333,4,2,0,65,0,0
134423,-100,4,2,0,65,0,0
134834,-40,4,2,0,65,0,0
134971,-40,4,2,0,5,0,0
135040,-38.4615384615385,4,2,0,65,0,0
135176,-38.4615384615385,4,2,0,5,0,0
135245,-37.037037037037,4,2,0,65,0,0
135382,-37.037037037037,4,2,0,5,0,0
135450,-33.3333333333333,4,2,0,65,0,0
135587,-33.3333333333333,4,2,0,5,0,0
135656,-250,4,2,0,65,0,0
136067,-33.3333333333333,4,2,0,65,0,0
136478,-66.6666666666667,4,2,0,65,0,0
136889,-50,4,2,0,65,0,0
137300,-33.3333333333333,4,2,0,65,0,0
138122,-37.037037037037,4,2,0,65,0,0
138259,-37.037037037037,4,2,0,5,0,0
138327,-35.7142857142857,4,2,0,65,0,0
138464,-35.7142857142857,4,2,0,5,0,0
138533,-33.3333333333333,4,2,0,65,0,0
138670,-33.3333333333333,4,2,0,5,0,0
138738,-33.3333333333333,4,2,0,65,0,0
138875,-33.3333333333333,4,2,0,5,0,0
138944,-333.333333333333,4,2,0,65,0,0
139355,-33.3333333333333,4,2,0,65,0,0
139766,-100,4,2,0,65,0,0
140176,-50,4,2,0,65,0,0
140587,-33.3333333333333,4,2,0,65,0,0
140998,-100,4,2,0,65,0,0
141409,-37.037037037037,4,2,0,65,0,0
141546,-37.037037037037,4,2,0,5,0,0
141615,-37.037037037037,4,2,0,65,0,0
141752,-37.037037037037,4,2,0,5,0,0
141820,-33.3333333333333,4,2,0,65,0,0
141957,-33.3333333333333,4,2,0,5,0,0
142026,-33.3333333333333,4,2,0,65,0,0
142163,-33.3333333333333,4,2,0,5,0,0
142231,-250,4,2,0,65,0,0
143464,-66.6666666666667,4,2,0,65,0,0
143875,-33.3333333333333,4,2,0,65,0,0
144012,-33.3333333333333,4,2,0,5,0,0
144081,-37.037037037037,4,2,0,65,0,0
144218,-37.037037037037,4,2,0,5,0,0
144286,-41.6666666666667,4,2,0,65,0,0
144423,-41.6666666666667,4,2,0,5,0,0
144492,-47.6190476190476,4,2,0,65,0,0
144629,-47.6190476190476,4,2,0,5,0,0

[Colours]
Combo1 : 211,158,222
Combo2 : 249,155,239
Combo3 : 166,222,236
SliderBorder : 249,155,239
SliderTrackOverride : 164,179,223

[HitObjects]
256,192,12163,12,0,13087,0:0:0:0:
156,137,13190,6,0,P|209:151|283:206,1,135,2|0,0:0|0:0,0:0:0:0:
395,282,13601,1,0,0:0:0:0:
390,309,13807,1,0,0:0:0:0:
376,201,14012,6,0,B|405:202|438:232|438:232|374:217|313:276,1,202.500007724762,2|0,0:0|0:0,0:0:0:0:
307,355,14423,2,0,B|204:337|289:329|167:306,1,135,0|0,0:0|0:0,0:0:0:0:
56,336,14834,5,0,0:0:0:0:
68,324,15039,1,0,0:0:0:0:
125,375,15245,2,0,P|103:310|95:204,1,135,0|0,0:0|0:0,0:0:0:0:
149,179,15656,6,0,B|178:146|230:134|230:134|184:181|165:245,1,202.500007724762,2|0,0:0|0:0,0:0:0:0:
346,253,16067,1,0,0:0:0:0:
280,206,16272,1,0,0:0:0:0:
223,297,16478,6,0,L|80:336,1,135,0|0,0:0|0:0,0:0:0:0:
27,186,16889,1,0,0:0:0:0:
41,173,17094,1,0,0:0:0:0:
8,100,17300,6,0,P|-9:187|111:186,1,202.500007724762,2|0,0:0|0:0,0:0:0:0:
110,124,17711,2,0,P|200:150|254:169,1,135,0|0,0:0|0:0,0:0:0:0:
379,131,18122,5,0,0:0:0:0:
307,98,18327,1,0,0:0:0:0:
378,219,18533,2,0,P|394:144|430:68,1,135,0|0,0:0|0:0,0:0:0:0:
423,79,18944,6,0,P|463:72|407:147,1,202.500007724762,2|0,0:0|0:0,0:0:0:0:
269,254,19355,1,0,0:0:0:0:
278,243,19560,1,0,0:0:0:0:
274,163,19766,6,0,P|305:270|313:322,1,135,0|0,0:0|0:0,0:0:0:0:
390,313,20176,2,0,P|273:349|255:363,1,135,0|0,0:0|0:0,0:0:0:0:
169,297,20587,6,0,B|218:243|218:243|186:321|184:373,1,202.500007724762,2|0,0:0|0:0,0:0:0:0:
0,265,20998,1,0,0:0:0:0:
11,258,21204,1,0,0:0:0:0:
90,295,21409,5,0,0:0:0:0:
158,217,21615,1,0,0:0:0:0:
33,162,21820,2,0,B|107:145|60:108|141:90,1,135,0|0,0:0|0:0,0:0:0:0:
253,44,22231,6,0,P|228:108|195:249,1,202.500007724762,2|0,0:0|0:0,0:0:0:0:
219,333,22642,1,0,0:0:0:0:
217,326,22848,1,0,0:0:0:0:
139,286,23053,6,0,P|212:294|257:365,1,135,0|0,0:0|0:0,0:0:0:0:
375,358,23464,1,0,0:0:0:0:
430,299,23670,1,0,0:0:0:0:
446,214,23875,6,0,B|399:196|373:142|373:142|382:204|370:245,1,202.500007724762,2|0,0:0|0:0,0:0:0:0:
439,306,24286,2,0,P|348:323|300:341,1,135,0|0,0:0|0:0,0:0:0:0:
150,303,24697,5,0,0:0:0:0:
121,231,24903,1,0,0:0:0:0:
228,105,25108,2,0,P|210:147|181:225,1,90,0|0,0:0|0:0,0:0:0:0:
188,41,25519,6,0,P|215:120|248:244,1,202.500007724762,2|0,0:0|0:0,0:0:0:0:
265,370,25930,1,0,0:0:0:0:
274,362,26135,1,0,0:0:0:0:
328,308,26341,6,0,L|135:370,1,161.999995056153,2|0,0:0|0:0,0:0:0:0:
19,240,26752,1,0,0:0:0:0:
30,317,26957,1,0,0:0:0:0:
65,151,27163,6,0,B|86:135|131:146|131:146|76:171|25:227,1,202.500007724762,2|0,0:0|0:0,0:0:0:0:
35,327,27574,2,0,P|94:347|90:267,1,161.999995056153,0|0,0:0|0:0,0:0:0:0:
62,143,27985,5,0,0:0:0:0:
134,100,28190,1,0,0:0:0:0:
50,38,28396,2,0,P|116:60|214:113,1,161.999995056153,0|0,0:0|0:0,0:0:0:0:
182,188,28807,6,0,P|291:155|400:134,1,202.500007724762,2|0,0:0|0:0,0:0:0:0:
495,271,29218,1,0,0:0:0:0:
454,205,29423,1,0,0:0:0:0:
502,132,29629,6,0,P|510:189|417:200,1,161.999995056153,0|0,0:0|0:0,0:0:0:0:
385,77,30039,1,0,0:0:0:0:
393,69,30245,1,0,0:0:0:0:
311,47,30450,6,0,B|277:74|277:74|462:39,1,202.500007724762,2|0,0:0|0:0,0:0:0:0:
476,133,30861,1,0,0:0:0:0:
512,66,31067,1,0,0:0:0:0:
512,44,31272,6,0,P|492:121|473:227,1,161.999995056153,0|0,0:0|0:0,0:0:0:0:
427,266,31683,2,0,P|347:281|268:300,1,161.999995056153,0|0,0:0|0:0,0:0:0:0:
198,260,32094,6,0,B|144:233|144:233|228:392,1,202.500007724762,2|0,0:0|0:0,0:0:0:0:
402,351,32505,1,0,0:0:0:0:
317,320,32711,1,0,0:0:0:0:
171,335,32916,6,0,P|87:349|4:373,1,161.999995056153,0|0,0:0|0:0,0:0:0:0:
6,265,33327,1,0,0:0:0:0:
17,271,33533,1,0,0:0:0:0:
6,376,33738,6,0,P|32:278|64:182,1,202.500007724762,2|0,0:0|0:0,0:0:0:0:
153,35,34149,1,0,0:0:0:0:
209,98,34355,1,0,0:0:0:0:
78,97,34560,5,0,0:0:0:0:
92,108,34766,1,0,0:0:0:0:
287,95,34971,2,0,P|206:129|139:176,1,161.999995056153,0|0,0:0|0:0,0:0:0:0:
83,244,35382,6,0,P|66:155|35:43,1,202.500007724762,2|0,0:0|0:0,0:0:0:0:
130,36,35793,1,0,0:0:0:0:
185,94,35998,1,0,0:0:0:0:
283,17,36204,1,0,0:0:0:0:
286,28,36615,5,0,0:0:0:0:
363,159,36820,1,0,0:0:0:0:
291,114,37026,2,0,P|374:147|478:206,1,202.500007724762,2|0,0:0|0:0,0:0:0:0:
484,284,37437,1,0,0:0:0:0:
489,297,37642,1,0,0:0:0:0:
403,358,37848,5,0,0:0:0:0:
358,300,38053,1,0,0:0:0:0:
261,348,38259,1,0,0:0:0:0:
179,228,38464,1,0,0:0:0:0:
163,318,38670,2,0,P|199:207|220:80,1,202.500007724762,2|0,0:0|0:0,0:0:0:0:
330,45,39081,6,0,B|312:11|285:5|285:5|341:60|359:194,1,202.500007724762,0|0,0:0|0:0,0:0:0:0:
313,216,39492,6,0,P|284:220|308:204,1,74.2500022659302,2|0,0:0|0:0,0:0:0:0:
399,214,39903,6,0,P|322:243|263:291,1,135.000005149842,0|0,0:0|0:0,0:0:0:0:
105,244,40313,1,0,0:0:0:0:
100,231,40519,1,0,0:0:0:0:
150,168,40724,1,0,0:0:0:0:
157,161,40930,1,0,0:0:0:0:
229,195,41135,6,0,B|201:227|207:291|207:291|164:239|99:242,1,198.000006042481,2|0,0:0|0:0,0:0:0:0:
171,78,41546,1,0,0:0:0:0:
115,135,41752,1,0,0:0:0:0:
40,106,41957,6,0,P|125:124|236:206,1,202.500007724762,2|0,0:0|0:0,0:0:0:0:
338,228,42368,2,0,B|379:214|394:146|337:79|205:172|269:260,1,270,0|0,0:0|0:0,0:0:0:0:
342,242,42779,6,0,P|278:261|214:317,1,135.000005149842,2|0,0:0|0:0,0:0:0:0:
79,293,43190,1,0,0:0:0:0:
25,229,43396,1,0,0:0:0:0:
83,177,43601,1,0,0:0:0:0:
87,185,43807,1,0,0:0:0:0:
106,11,44012,2,0,P|113:71|118:84,1,67.5000025749208,0|0,0:0|0:0,0:0:0:0:
7,79,44423,6,0,P|128:99|217:150,1,202.500007724762,2|0,0:0|0:0,0:0:0:0:
397,188,44834,1,0,0:0:0:0:
390,195,45040,1,0,0:0:0:0:
348,115,45245,6,0,B|417:104|410:33|379:19|271:100|316:267,1,270,2|0,0:0|0:0,0:0:0:0:
350,292,45656,2,0,P|362:294|345:280,1,67.5000025749208,0|0,0:0|0:0,0:0:0:0:
423,362,46067,5,2,0:0:0:0:
276,326,46272,1,0,0:0:0:0:
201,252,46478,1,0,0:0:0:0:
185,171,46683,1,0,0:0:0:0:
122,233,46889,2,0,P|155:302|170:374,2,135.000005149842
252,83,47505,1,0,0:0:0:0:
303,167,47711,6,0,B|238:149|281:106|191:80,1,135,2|0,0:0|0:0,0:0:0:0:
74,65,48122,1,0,0:0:0:0:
65,71,48327,1,0,0:0:0:0:
46,107,48533,1,2,0:0:0:0:
69,181,48738,1,0,0:0:0:0:
151,220,48944,1,0,0:0:0:0:
257,198,49149,1,0,0:0:0:0:
327,266,49355,2,0,P|337:216|374:176,1,101.250003862381,2|0,0:0|0:0,0:0:0:0:
466,56,49766,5,0,0:0:0:0:
447,138,49971,1,0,0:0:0:0:
454,46,50176,1,0,0:0:0:0:
439,42,50382,1,0,0:0:0:0:
326,54,50587,2,0,P|231:88|121:146,1,202.500007724762,0|0,0:0|0:0,0:0:0:0:
81,179,50998,5,2,0:0:0:0:
154,151,51204,1,0,0:0:0:0:
226,73,51409,1,0,0:0:0:0:
226,73,51615,1,0,0:0:0:0:
149,60,51820,6,0,L|110:53,1,33.7500012874604,2|0,0:0|0:0,0:0:0:0:
301,95,52026,2,0,L|334:100,1,33.7500012874604,2|0,0:0|0:0,0:0:0:0:
241,20,52231,2,0,P|234:42|226:73,1,45,2|0,0:0|0:0,0:0:0:0:
107,278,52437,1,2,0:0:0:0:
95,288,52642,6,0,P|62:235|132:176,1,150,2|0,0:0|0:0,0:0:0:0:
215,256,52848,2,0,P|286:255|323:161,1,162.000000617981,2|0,0:0|0:0,0:0:0:0:
401,15,53053,2,0,P|366:76|429:156,1,162.000000617981,2|0,0:0|0:0,0:0:0:0:
504,325,53259,2,0,P|419:231|374:263,1,180.000006866455,2|0,0:0|0:0,0:0:0:0:
310,337,53464,6,0,P|319:355|325:375,1,40.4999987640381,4|0,0:0|0:0,0:0:0:0:
228,362,53875,6,0,P|117:298|82:289,1,135.000005149842,2|0,0:0|0:0,0:0:0:0:
349,205,54081,1,2,0:0:0:0:
354,196,54492,6,0,P|243:260|208:269,1,135.000005149842,2|0,0:0|0:0,0:0:0:0:
37,171,54697,2,0,B|-10:123|94:52|203:167|109:292,1,270,2|0,0:0|0:0,0:0:0:0:
131,277,55108,6,0,P|86:262|-4:255,1,135.000005149842
250,159,55519,1,0,0:0:0:0:
170,178,55930,6,0,P|272:204|320:269,1,150,2|0,0:0|0:0,0:0:0:0:
407,384,56135,2,0,P|378:282|410:208,1,150,2|0,0:0|0:0,0:0:0:0:
498,47,56341,2,0,P|439:149|359:158,1,167.999994873047,2|0,0:0|0:0,0:0:0:0:
77,102,56546,2,0,P|128:214|144:307,1,180.000006866455,2|0,0:0|0:0,0:0:0:0:
102,343,56752,6,0,P|67:326|72:300,1,67.5,4|0,0:0|0:0,0:0:0:0:
150,261,57163,6,0,L|297:299,1,135.000005149842,2|0,0:0|0:0,0:0:0:0:
23,177,57368,1,2,0:0:0:0:
20,187,57779,6,0,L|167:149,1,135.000005149842,2|0,0:0|0:0,0:0:0:0:
307,69,57985,2,0,B|193:25|193:25|276:232,1,270,2|0,0:0|0:0,0:0:0:0:
240,169,58396,6,0,L|209:283,1,90,0|0,0:0|0:0,0:0:0:0:
179,55,58807,1,0,0:0:0:0:
166,62,59218,6,0,P|242:139|257:208,1,150,2|0,0:0|0:0,0:0:0:0:
341,219,59423,2,0,P|276:350|279:413,1,150,2|0,0:0|0:0,0:0:0:0:
499,359,59629,2,0,P|440:300|361:331,1,167.999994873047,2|0,0:0|0:0,0:0:0:0:
65,347,59834,2,0,P|157:320|206:226,1,180.000006866455,2|0,0:0|0:0,0:0:0:0:
283,11,60039,6,0,P|285:46|294:68,1,54,4|0,0:0|0:0,0:0:0:0:
348,135,60450,6,0,P|177:89|148:89,1,135.000005149842,2|0,0:0|0:0,0:0:0:0:
379,221,60656,1,2,0:0:0:0:
62,85,60861,2,0,P|53:105|48:127,1,45,2|0,0:0|0:0,0:0:0:0:
124,148,61067,2,0,P|133:128|138:106,1,45,2|0,0:0|0:0,0:0:0:0:
0,216,61272,6,0,P|123:255|151:298,1,162.000000617981,2|0,0:0|0:0,0:0:0:0:
270,384,61478,2,0,P|262:377|256:190,1,180.000006866455,2|0,0:0|0:0,0:0:0:0:
210,30,61683,6,0,P|215:44|220:61,1,27,4|0,0:0|0:0,0:0:0:0:
412,39,62094,5,0,0:0:0:0:
334,76,62300,1,0,0:0:0:0:
401,31,62505,6,0,P|339:135|323:216,1,150,2|0,0:0|0:0,0:0:0:0:
362,359,62711,2,0,P|335:289|292:228,1,150,2|0,0:0|0:0,0:0:0:0:
108,231,62916,2,0,P|150:298|230:291,1,167.999994873047,2|0,0:0|0:0,0:0:0:0:
441,316,63122,2,0,P|454:227|475:140,1,180.000006866455,2|0,0:0|0:0,0:0:0:0:
246,71,63327,6,0,P|252:107|254:113,1,40.4999987640381,4|0,0:0|0:0,0:0:0:0:
246,128,63738,6,0,P|364:160|424:186,1,135.000005149842,2|0,0:0|0:0,0:0:0:0:
175,170,63944,1,2,0:0:0:0:
450,205,64149,1,0,0:0:0:0:
268,313,64355,2,0,P|244:214|227:173,1,90,2|0,0:0|0:0,0:0:0:0:
223,20,64560,6,0,P|196:143|163:205,1,155.999992858887,2|0,0:0|0:0,0:0:0:0:
52,279,64766,2,0,B|8:313|13:224|107:198|189:280,1,167.999994873047,2|0,0:0|0:0,0:0:0:0:
204,372,64971,6,0,P|230:265|271:214,1,162.000000617981,2|0,0:0|0:0,0:0:0:0:
284,378,65176,2,0,P|329:277|379:235,1,162.000000617981,2|0,0:0|0:0,0:0:0:0:
337,23,65382,2,0,P|321:126|354:161,1,150,2|0,0:0|0:0,0:0:0:0:
506,214,65587,2,0,B|494:178|417:139|405:166|417:213|460:183,1,150,2|0,0:0|0:0,0:0:0:0:
424,296,65793,6,0,P|290:224|226:234,1,180.000006866455,6|0,0:0|0:0,0:0:0:0:
44,377,65998,2,0,P|131:357|205:306,1,180.000006866455,2|0,0:0|0:0,0:0:0:0:
123,53,66204,2,0,P|159:167|178:251,1,180.000006866455,2|0,0:0|0:0,0:0:0:0:
244,384,66409,2,0,P|330:380|301:301,1,180.000006866455,2|0,0:0|0:0,0:0:0:0:
85,231,66615,6,0,P|57:252|36:274,1,54,4|0,0:0|0:0,0:0:0:0:
26,287,67026,6,0,P|57:176|69:101,1,135.000005149842,2|0,0:0|0:0,0:0:0:0:
170,374,67231,1,2,0:0:0:0:
126,302,67437,6,0,B|259:334|159:350|318:387,1,202.500007724762,0|0,0:0|0:0,0:0:0:0:
477,253,67848,2,0,B|431:245|365:305|366:407|493:444|379:319,1,270,0|0,0:0|0:0,0:0:0:0:
363,224,68259,6,0,P|301:237|205:253,1,135.000005149842,2|0,0:0|0:0,0:0:0:0:
424,126,68464,1,2,0:0:0:0:
443,139,68670,1,0,0:0:0:0:
505,77,68875,1,0,0:0:0:0:
446,222,69081,6,0,P|399:119|321:33,1,202.500007724762,0|0,0:0|0:0,0:0:0:0:
232,47,69492,6,0,L|65:80,1,150,2|0,0:0|0:0,0:0:0:0:
17,22,69697,2,0,P|86:130|117:198,1,150,2|0,0:0|0:0,0:0:0:0:
101,246,69903,6,0,P|77:262|82:240,1,67.5,6|0,0:0|0:0,0:0:0:0:
97,232,70313,6,0,P|205:253|252:266,1,135.000005149842,2|0,0:0|0:0,0:0:0:0:
10,164,70519,1,2,0:0:0:0:
35,327,70724,2,0,P|62:240|113:133,1,202.500007724762,0|0,0:0|0:0,0:0:0:0:
228,83,71135,6,0,B|336:56|336:56|177:125,1,270,2|0,0:0|0:0,0:0:0:0:
185,131,71546,6,0,L|153:-1,1,135.000005149842,2|0,0:0|0:0,0:0:0:0:
276,204,71752,1,0,0:0:0:0:
288,216,71957,2,0,L|320:84,1,135.000005149842,2|0,0:0|0:0,0:0:0:0:
327,299,72368,6,0,P|267:233|200:245,1,155.999992858887,2|0,0:0|0:0,0:0:0:0:
0,351,72574,2,0,P|103:335|169:287,1,162.000000617981,2|0,0:0|0:0,0:0:0:0:
132,74,72779,2,0,P|105:202|158:221,1,180.000006866455,2|0,0:0|0:0,0:0:0:0:
234,326,72985,2,0,P|337:342|403:390,1,180.000006866455,2|0,0:0|0:0,0:0:0:0:
506,349,73190,6,0,P|482:372|470:373,1,40.4999987640381,4|0,0:0|0:0,0:0:0:0:
415,298,73601,6,0,L|453:118,1,135.000005149842,2|0,0:0|0:0,0:0:0:0:
345,374,73807,1,2,0:0:0:0:
512,248,74012,6,0,P|395:268|293:305,1,202.500007724762,0|0,0:0|0:0,0:0:0:0:
106,260,74423,2,0,B|175:272|241:335|241:335|239:281|201:245|201:245|201:256,1,270,0|0,0:0|0:0,0:0:0:0:
77,337,74834,6,0,P|38:195|31:180,1,135.000005149842,2|0,0:0|0:0,0:0:0:0:
134,80,75245,5,0,0:0:0:0:
119,94,75450,1,0,0:0:0:0:
19,86,75656,6,0,P|108:126|172:172,1,155.999992858887,2|0,0:0|0:0,0:0:0:0:
424,155,75861,2,0,P|408:252|325:211,1,167.999994873047,2|0,0:0|0:0,0:0:0:0:
178,244,76067,2,0,P|256:199|338:163,1,180.000006866455,2|0,0:0|0:0,0:0:0:0:
106,368,76272,2,0,P|54:300|94:225,1,180.000006866455,2|0,0:0|0:0,0:0:0:0:
235,71,76478,6,0,P|234:95|219:118,1,36,4|0,0:0|0:0,0:0:0:0:
149,129,76889,6,0,L|-7:150,1,135.000005149842,2|0,0:0|0:0,0:0:0:0:
282,164,77094,1,2,0:0:0:0:
205,199,77300,5,0,0:0:0:0:
274,153,77505,1,0,0:0:0:0:
348,238,77711,6,0,B|338:270|356:297|356:297|372:206|402:165,1,202.500007724762,0|0,0:0|0:0,0:0:0:0:
412,5,78122,6,0,P|495:105|453:163,1,180.000006866455,2|0,0:0|0:0,0:0:0:0:
222,279,78327,2,0,P|251:176|325:167,1,167.999994873047,2|0,0:0|0:0,0:0:0:0:
486,280,78533,2,0,P|363:244|271:234,1,155.999992858887,2|0,0:0|0:0,0:0:0:0:
309,71,78738,2,0,P|198:103|115:112,1,143.999995605469,2|0,0:0|0:0,0:0:0:0:
0,55,78944,6,0,B|-23:37|-29:24|-24:2|38:31|38:111,1,135
107,206,79355,1,0,0:0:0:0:
96,219,79560,1,0,0:0:0:0:
0,198,79766,6,0,P|71:225|162:318,1,202.500007724762,2|0,0:0|0:0,0:0:0:0:
236,254,80176,2,0,B|241:220|257:197|257:197|218:225|214:270,1,135,0|0,0:0|0:0,0:0:0:0:
248,329,80587,5,0,0:0:0:0:
258,335,80793,1,0,0:0:0:0:
342,259,80998,2,0,P|321:284|349:267,1,90,0|0,0:0|0:0,0:0:0:0:
366,379,81409,6,0,B|340:265|458:328|449:191,1,202.500007724762,2|0,0:0|0:0,0:0:0:0:
412,122,81820,1,0,0:0:0:0:
395,131,82026,1,0,0:0:0:0:
489,150,82231,6,0,L|328:197,1,135
231,134,82642,1,0,0:0:0:0:
222,124,82848,1,0,0:0:0:0:
98,155,83053,6,0,P|175:189|179:93,1,202.500007724762,2|0,0:0|0:0,0:0:0:0:
297,64,83464,1,0,0:0:0:0:
286,73,83670,1,0,0:0:0:0:
356,12,83875,6,0,P|333:86|310:184,1,135
359,278,84286,2,0,B|268:235|354:241|238:186,1,135,0|0,0:0|0:0,0:0:0:0:
200,131,84697,6,0,P|231:259|246:346,1,202.500007724762,2|0,0:0|0:0,0:0:0:0:
168,362,85108,1,0,0:0:0:0:
157,348,85313,1,0,0:0:0:0:
24,318,85519,6,0,B|-25:327|-9:343|69:359|108:276,1,135
149,246,85930,2,0,P|119:177|118:102,1,135,0|0,0:0|0:0,0:0:0:0:
147,26,86341,6,0,P|105:81|200:76,1,202.500007724762,2|0,0:0|0:0,0:0:0:0:
351,88,86752,1,0,0:0:0:0:
284,46,86957,1,0,0:0:0:0:
425,25,87163,6,0,P|367:144|357:178,1,135
282,206,87574,2,0,P|344:231|403:264,1,135,0|0,0:0|0:0,0:0:0:0:
467,220,87985,6,0,B|516:162|516:162|467:324,1,202.500007724762,2|0,0:0|0:0,0:0:0:0:
396,352,88396,1,0,0:0:0:0:
406,360,88601,1,0,0:0:0:0:
484,360,88807,6,0,L|310:326,1,135
199,329,89218,1,0,0:0:0:0:
191,340,89423,1,0,0:0:0:0:
278,359,89629,6,0,B|285:257|199:176|171:249|233:257,1,202.500007724762,2|0,0:0|0:0,0:0:0:0:
391,262,90040,2,0,B|372:225|380:193|380:193|362:224|332:233,1,135,0|0,0:0|0:0,0:0:0:0:
249,112,90450,5,0,0:0:0:0:
246,100,90656,1,0,0:0:0:0:
303,160,90861,2,0,L|150:131,1,135,0|0,0:0|0:0,0:0:0:0:
92,170,91272,6,0,B|59:201|59:201|161:194|138:91,1,202.500007724762,2|0,0:0|0:0,0:0:0:0:
65,27,91683,2,0,P|39:48|72:37,1,90,0|0,0:0|0:0,0:0:0:0:
145,18,92094,6,0,P|239:46|309:82,1,161.999995056153,2|0,0:0|0:0,0:0:0:0:
428,180,92505,1,0,0:0:0:0:
436,162,92711,1,0,0:0:0:0:
470,88,92916,6,0,B|415:75|394:24|394:24|404:82|346:149,1,202.500007724762,2|0,0:0|0:0,0:0:0:0:
283,268,93327,1,0,0:0:0:0:
240,207,93533,1,0,0:0:0:0:
350,230,93738,6,0,P|271:248|189:280,1,161.999995056153
77,368,94149,2,0,P|105:292|123:213,1,161.999995056153,0|0,0:0|0:0,0:0:0:0:
200,101,94560,6,0,B|139:73|139:73|221:188,1,202.500007724762,2|0,0:0|0:0,0:0:0:0:
190,310,94971,2,0,P|248:260|305:289,1,107.999996704102,0|0,0:0|0:0,0:0:0:0:
429,366,95382,5,0,0:0:0:0:
366,329,95587,1,0,0:0:0:0:
397,255,95793,2,0,L|421:88,1,161.999995056153,0|0,0:0|0:0,0:0:0:0:
449,12,96204,6,0,B|455:102|352:128|325:50|370:27,1,202.500007724762,2|0,0:0|0:0,0:0:0:0:
320,160,96615,2,0,P|252:102|163:109,1,161.999995056153,0|0,0:0|0:0,0:0:0:0:
60,106,97026,5,0,0:0:0:0:
68,118,97231,1,0,0:0:0:0:
110,38,97437,2,0,L|84:211,1,161.999995056153,0|0,0:0|0:0,0:0:0:0:
10,319,97848,6,0,B|120:277|49:228|176:197,1,202.500007724762,2|0,0:0|0:0,0:0:0:0:
278,258,98259,2,0,P|262:221|260:261,1,107.999996704102,0|0,0:0|0:0,0:0:0:0:
237,149,98670,6,0,P|291:210|390:212,1,161.999995056153
484,155,99081,1,0,0:0:0:0:
469,169,99286,1,0,0:0:0:0:
442,251,99492,6,0,P|460:145|492:36,1,202.500007724762,2|0,0:0|0:0,0:0:0:0:
403,24,99903,1,0,0:0:0:0:
408,34,100108,1,0,0:0:0:0:
493,36,100313,6,0,P|393:60|324:96,1,161.999995056153
347,170,100724,2,0,L|152:143,1,161.999995056153,0|0,0:0|0:0,0:0:0:0:
45,165,101135,6,0,B|-6:123|28:59|28:59|21:112|48:139,1,202.500007724762,2|0,0:0|0:0,0:0:0:0:
119,225,101546,1,0,0:0:0:0:
128,213,101751,1,0,0:0:0:0:
115,86,101957,1,0,0:0:0:0:
115,77,102368,5,0,0:0:0:0:
190,131,102574,1,0,0:0:0:0:
352,82,102779,1,2,0:0:0:0:
346,66,102985,1,0,0:0:0:0:
264,68,103190,1,0,0:0:0:0:
263,153,103396,1,0,0:0:0:0:
158,105,103601,1,0,0:0:0:0:
99,229,103807,1,0,0:0:0:0:
0,109,104012,2,0,P|41:162|90:266,1,161.999995056153,0|0,0:0|0:0,0:0:0:0:
45,371,104423,5,2,0:0:0:0:
88,333,104629,1,0,0:0:0:0:
182,298,104834,1,0,0:0:0:0:
310,294,105039,1,0,0:0:0:0:
360,348,105245,6,0,B|318:220|368:351|324:218,1,135,2|0,0:0|0:0,0:0:0:0:
296,130,105656,2,0,B|295:101|350:77|350:77|320:110|322:137,1,135.000005149842
324,204,106067,6,0,P|306:250|260:263,1,101.250003862381
255,274,106478,2,0,P|190:233|127:229,1,135
59,216,106889,6,0,B|52:279|5:307|5:307|41:276|124:302,1,202.500007724762,2|0,0:0|0:0,0:0:0:0:
177,318,107300,1,0,0:0:0:0:
165,334,107505,1,0,0:0:0:0:
170,126,107711,5,2,0:0:0:0:
210,197,107916,1,0,0:0:0:0:
283,231,108122,1,0,0:0:0:0:
366,230,108327,1,0,0:0:0:0:
445,139,108533,2,0,P|427:169|452:142,1,101.250003862381,2|0,0:0|0:0,0:0:0:0:
254,49,108944,6,0,P|279:119|288:166,1,90
325,13,109355,2,0,P|362:76|380:121,1,90,0|0,0:0|0:0,0:0:0:0:
394,269,109766,1,0,0:0:0:0:
320,218,109971,1,0,0:0:0:0:
476,270,110176,6,0,B|508:284|516:286|516:286|433:296|352:353,1,202.500007724762,2|0,0:0|0:0,0:0:0:0:
222,379,110587,2,0,P|199:320|206:301,1,67.5000025749208,0|0,0:0|0:0,0:0:0:0:
230,171,110998,2,0,P|277:326|249:343,1,202.500007724762,2|0,0:0|0:0,0:0:0:0:
123,313,111409,2,0,P|62:327|-20:378,1,135,0|0,0:0|0:0,0:0:0:0:
34,105,111820,5,2,0:0:0:0:
57,108,112026,1,0,0:0:0:0:
113,130,112231,1,0,0:0:0:0:
183,189,112437,1,0,0:0:0:0:
290,237,112642,1,0,0:0:0:0:
411,180,112848,1,0,0:0:0:0:
410,46,113053,2,0,P|425:82|451:120,1,67.5000025749208,0|0,0:0|0:0,0:0:0:0:
493,281,113464,6,0,B|574:218|529:130|487:134|469:182|515:193,1,202.500007724762,2|0,0:0|0:0,0:0:0:0:
469,371,113875,1,0,0:0:0:0:
361,277,114081,1,0,0:0:0:0:
94,306,114286,2,0,B|50:281|50:281|112:290,1,101.250003862381,2|0,0:0|0:0,0:0:0:0:
278,324,114697,1,0,0:0:0:0:
296,324,114903,1,0,0:0:0:0:
369,286,115108,6,0,B|219:304|284:320|145:333,1,202.500007724762,2|0,0:0|0:0,0:0:0:0:
14,317,115519,1,0,0:0:0:0:
24,323,115724,1,0,0:0:0:0:
52,330,115930,1,0,0:0:0:0:
106,312,116135,1,0,0:0:0:0:
135,240,116341,1,0,0:0:0:0:
99,157,116546,1,0,0:0:0:0:
222,14,116752,6,0,P|231:55|178:126,1,135.000005149842,2|0,0:0|0:0,0:0:0:0:
107,73,117163,1,0,0:0:0:0:
313,73,117368,1,0,0:0:0:0:
248,219,117574,6,0,P|233:220|208:210,2,36,2|0|0,0:0|0:0|0:0,0:0:0:0:
247,146,118190,1,0,0:0:0:0:
17,282,118396,6,0,B|23:306|3:315|-17:302|7:174|148:205,1,180.000006866455,2|0,0:0|0:0,0:0:0:0:
341,179,118601,2,0,P|250:263|239:202,1,180.000006866455,2|0,0:0|0:0,0:0:0:0:
154,14,118807,2,0,P|184:137|194:218,1,180.000006866455,2|0,0:0|0:0,0:0:0:0:
246,375,119012,2,0,B|159:377|130:281|169:244|195:271|165:298,1,180.000006866455,2|0,0:0|0:0,0:0:0:0:
318,99,119218,6,0,P|327:83|333:44,1,54,4|0,0:0|0:0,0:0:0:0:
330,38,119629,6,0,P|256:58|181:77,1,135.000005149842,2|0,0:0|0:0,0:0:0:0:
477,197,119834,1,2,0:0:0:0:
491,211,120245,6,0,P|417:190|342:172,1,135.000005149842,2|0,0:0|0:0,0:0:0:0:
120,129,120450,6,0,B|96:134|96:134|140:77|140:77|275:114|182:280,1,270,2|0,0:0|0:0,0:0:0:0:
207,224,120861,6,0,P|141:240|76:258,1,135.000005149842,0|0,0:0|0:0,0:0:0:0:
349,265,121067,2,0,P|334:218|296:188,2,90,0|0|0,0:0|0:0|0:0,0:0:0:0:
299,37,121683,6,0,B|286:26|252:33|252:33|322:63|345:154,1,162.000000617981,2|0,0:0|0:0,0:0:0:0:
400,171,121889,2,0,P|358:291|367:342,1,162.000000617981,2|0,0:0|0:0,0:0:0:0:
495,372,122094,2,0,P|522:322|434:304,1,167.999994873047,2|0,0:0|0:0,0:0:0:0:
291,202,122300,2,0,P|207:259|70:261,1,180.000006866455,2|0,0:0|0:0,0:0:0:0:
26,105,122505,6,0,L|35:66,1,40.4999987640381,4|0,0:0|0:0,0:0:0:0:
116,93,122916,6,0,L|274:70,1,135.000005149842,2|0,0:0|0:0,0:0:0:0:
12,192,123122,1,2,0:0:0:0:
18,210,123533,6,0,L|151:229,1,135.000005149842,2|0,0:0|0:0,0:0:0:0:
373,161,123738,6,0,B|300:129|300:129|354:276,1,202.500007724762,2|0,0:0|0:0,0:0:0:0:
348,255,124149,6,0,L|311:396,1,90,0|0,0:0|0:0,0:0:0:0:
144,210,124560,1,0,0:0:0:0:
139,203,124971,6,0,P|243:231|260:280,1,155.999992858887,2|0,0:0|0:0,0:0:0:0:
462,190,125176,2,0,P|370:296|350:276,1,155.999992858887,2|0,0:0|0:0,0:0:0:0:
260,373,125382,2,0,P|281:259|333:198,1,167.999994873047,2|0,0:0|0:0,0:0:0:0:
336,2,125587,2,0,P|353:90|381:175,1,180.000006866455,2|0,0:0|0:0,0:0:0:0:
334,348,125793,6,0,P|339:328|339:308,1,40.4999987640381,4|0,0:0|0:0,0:0:0:0:
351,298,126204,6,0,L|173:330,1,135.000005149842,2|0,0:0|0:0,0:0:0:0:
418,341,126409,1,2,0:0:0:0:
421,140,126615,2,0,P|466:137|483:152,1,67.5000025749208,2|0,0:0|0:0,0:0:0:0:
468,226,126820,2,0,P|422:228|405:213,1,67.5000025749208,2|0,0:0|0:0,0:0:0:0:
361,40,127026,6,0,P|327:132|253:153,1,162.000000617981,2|0,0:0|0:0,0:0:0:0:
137,214,127231,2,0,P|120:129|44:85,1,180.000006866455,2|0,0:0|0:0,0:0:0:0:
7,254,127437,6,0,P|17:285|22:311,1,54,4|0,0:0|0:0,0:0:0:0:
56,190,127848,1,0,0:0:0:0:
49,181,128053,1,0,0:0:0:0:
171,378,128259,6,0,P|232:298|289:299,1,155.999992858887,2|0,0:0|0:0,0:0:0:0:
198,56,128464,2,0,P|165:126|161:203,1,155.999992858887,2|0,0:0|0:0,0:0:0:0:
3,251,128670,2,0,B|30:331|144:337|155:227|78:314,1,180.000006866455,2|0,0:0|0:0,0:0:0:0:
250,214,128875,2,0,P|300:109|382:92,1,180.000006866455,2|0,0:0|0:0,0:0:0:0:
430,261,129081,6,0,L|420:305,1,40.4999987640381,4|0,0:0|0:0,0:0:0:0:
415,308,129492,6,0,L|271:337,1,135.000005149842,2|0,0:0|0:0,0:0:0:0:
500,333,129697,1,2,0:0:0:0:
195,315,129903,2,0,P|156:282|132:270,1,67.5000025749208,2|0,0:0|0:0,0:0:0:0:
253,260,130108,2,0,P|221:220|199:203,1,67.5000025749208,2|0,0:0|0:0,0:0:0:0:
0,290,130313,6,0,P|97:360|130:327,1,162.000000617981,2|0,0:0|0:0,0:0:0:0:
251,105,130519,2,0,P|174:98|139:166,1,162.000000617981,2|0,0:0|0:0,0:0:0:0:
279,359,130724,6,0,P|283:266|327:181,1,174.000005310059,2|0,0:0|0:0,0:0:0:0:
362,349,130930,2,0,P|383:258|443:183,1,174.000005310059,2|0,0:0|0:0,0:0:0:0:
446,23,131135,2,0,P|509:74|455:123,1,162.000000617981,2|0,0:0|0:0,0:0:0:0:
329,79,131341,2,0,P|261:64|153:47,1,150,2|0,0:0|0:0,0:0:0:0:
18,237,131546,6,0,B|-18:257|5:288|111:269|100:132,1,167.999994873047,6|0,0:0|0:0,0:0:0:0:
114,7,131752,2,0,P|150:106|204:172,1,167.999994873047,2|0,0:0|0:0,0:0:0:0:
449,221,131957,2,0,P|327:225|281:299,1,180.000006866455,2|0,0:0|0:0,0:0:0:0:
216,352,132163,2,0,P|256:247|262:121,1,180.000006866455,2|0,0:0|0:0,0:0:0:0:
246,42,132368,6,0,P|233:38|248:54,1,54,4|0,0:0|0:0,0:0:0:0:
246,70,132779,6,0,P|315:53|413:39,1,135.000005149842,2|0,0:0|0:0,0:0:0:0:
123,104,132985,1,2,0:0:0:0:
202,167,133190,1,0,0:0:0:0:
196,156,133396,6,0,P|262:167|328:183,1,135.000005149842,2|0,0:0|0:0,0:0:0:0:
509,210,133601,6,0,B|497:119|372:113|372:113|424:152|409:217,1,270,2|0,0:0|0:0,0:0:0:0:
444,265,134012,6,0,P|381:301|374:360,1,135.000005149842,2|0,0:0|0:0,0:0:0:0:
450,374,134218,1,0,0:0:0:0:
292,318,134423,2,0,B|159:338|296:329|164:350,1,135,0|0,0:0|0:0,0:0:0:0:
45,377,134834,6,0,P|115:359|81:262,1,150,2|0,0:0|0:0,0:0:0:0:
202,250,135040,2,0,P|272:212|353:208,1,155.999992858887,2|0,0:0|0:0,0:0:0:0:
123,49,135245,2,0,P|90:128|143:195,1,162.000000617981,2|0,0:0|0:0,0:0:0:0:
442,208,135450,2,0,P|402:300|334:282,1,180.000006866455,2|0,0:0|0:0,0:0:0:0:
340,117,135656,6,0,P|340:92|323:50,1,54,4|0,0:0|0:0,0:0:0:0:
324,58,136067,6,0,L|515:102,1,135.000005149842,2|0,0:0|0:0,0:0:0:0:
258,140,136272,1,2,0:0:0:0:
191,85,136478,6,0,B|242:33|242:33|202:184,1,202.500007724762
92,280,136889,2,0,B|83:251|112:97|216:148|284:180|189:307|144:217,1,270,0|0,0:0|0:0,0:0:0:0:
178,243,137300,6,0,L|24:259,1,135.000005149842,2|0,0:0|0:0,0:0:0:0:
242,365,137505,1,2,0:0:0:0:
250,375,137711,2,0,L|115:361,1,135.000005149842
356,373,138122,6,0,P|291:360|290:275,1,162.000000617981,2|0,0:0|0:0,0:0:0:0:
240,180,138327,2,0,P|290:72|292:3,1,167.999994873047,2|0,0:0|0:0,0:0:0:0:
461,140,138533,2,0,P|389:215|317:171,1,180.000006866455,2|0,0:0|0:0,0:0:0:0:
185,293,138738,2,0,P|154:212|70:193,1,180.000006866455,2|0,0:0|0:0,0:0:0:0:
24,318,138944,6,0,L|37:361,1,40.4999987640381,4|0,0:0|0:0,0:0:0:0:
27,363,139355,6,0,L|183:384,1,135.000005149842,2|0,0:0|0:0,0:0:0:0:
9,237,139560,1,2,0:0:0:0:
103,277,139766,6,0,P|32:231|54:197,1,135
273,220,140176,2,0,B|205:235|155:166|155:166|155:248|235:297|248:235|189:221,1,270,0|0,0:0|0:0,0:0:0:0:
245,137,140587,6,0,P|229:75|223:-4,1,135.000005149842,2|0,0:0|0:0,0:0:0:0:
395,243,140793,1,2,0:0:0:0:
398,229,140998,6,0,B|319:237|398:281|264:308,1,135
277,381,141409,6,0,P|245:280|193:267,1,162.000000617981,2|0,0:0|0:0,0:0:0:0:
156,112,141615,2,0,P|95:154|128:221,1,162.000000617981,2|0,0:0|0:0,0:0:0:0:
413,124,141820,2,0,P|279:166|224:194,1,180.000006866455,2|0,0:0|0:0,0:0:0:0:
14,294,142026,2,0,P|100:317|183:353,1,180.000006866455,2|0,0:0|0:0,0:0:0:0:
429,372,142231,6,0,L|444:320,1,54,4|0,0:0|0:0,0:0:0:0:
504,126,142642,5,2,0:0:0:0:
452,225,142848,1,2,0:0:0:0:
359,266,143053,1,0,0:0:0:0:
275,248,143259,1,0,0:0:0:0:
214,198,143464,2,0,B|246:160|234:103|234:103|248:159|316:177,1,202.500007724762,0|0,0:0|0:0,0:0:0:0:
110,128,143875,6,0,P|171:193|203:276,1,180.000006866455,2|0,0:0|0:0,0:0:0:0:
21,363,144081,2,0,P|64:271|145:331,1,162.000000617981,2|0,0:0|0:0,0:0:0:0:
289,337,144286,2,0,P|202:374|158:325,1,143.999995605469,2|0,0:0|0:0,0:0:0:0:
0,214,144492,2,0,P|32:140|21:83,1,125.999996154785,2|0,0:0|0:0,0:0:0:0:
