osu file format v14

[General]
AudioFilename: audio.mp3
AudioLeadIn: 0
PreviewTime: 9947
Countdown: 0
SampleSet: Drum
StackLeniency: 0.2
Mode: 0
LetterboxInBreaks: 0
WidescreenStoryboard: 0

[Editor]
Bookmarks: 10850,36426,43644,50862,61689,67102,68907,83343,90561,104997,119433,123042,130260,139283,155523,159132,173568,178982,180786,188004,197027,213268,227704,240335,245749,252967,267403,282187,300335,307553,314771,329207,338229,349056,358079
DistanceSpacing: 0.2
BeatDivisor: 4
GridSize: 4
TimelineZoom: 2

[Metadata]
Title:Okurina -Inochi o Aoku Mimamori Nemurina-
TitleUnicode:諡 -命ヲ碧ク見守リ睡ナ-
Artist:FREEDOM CREATORS
ArtistUnicode:FREEDOM CREATORS
Creator:TheKingHenry
Version:Kyoufu
Source:
Tags:symphonic gothic extreme metal japanese 碧のcatastrophe 碧のカタストロフ ao no catastrophe あらまり aramari ICDD imperial circus dead decadence hull kim rib:y uhki リブユウキ doujin
BeatmapID:2868674
BeatmapSetID:1389069

[Difficulty]
HPDrainRate:5
CircleSize:4
OverallDifficulty:10
ApproachRate:10
SliderMultiplier:1.6
SliderTickRate:1

[Events]
//Background and Video events
0,0,"bg_edit.jpg",0,0
//Break Periods
2,61889,66652
2,240535,244397
2,267603,281737
//Storyboard Layer 0 (Background)
//Storyboard Layer 1 (Fail)
//Storyboard Layer 2 (Pass)
//Storyboard Layer 3 (Foreground)
//Storyboard Layer 4 (Overlay)
//Storyboard Sound Samples

[TimingPoints]
1660,465.116279069767,4,3,5,30,1,0
1660,-500,4,3,5,30,0,0
4450,-333.333333333333,4,3,5,30,0,0
5380,-200,4,3,5,30,0,0
7241,451.127819548872,4,3,5,30,1,0
7241,-1000,4,3,5,30,0,0
9045,-1000,4,3,5,10,0,0
9947,-200,4,3,5,5,0,0
10004,-200,4,3,5,7,0,0
10060,-200,4,3,5,10,0,0
10116,-200,4,3,5,12,0,0
10173,-200,4,3,5,15,0,0
10229,-200,4,3,5,17,0,0
10286,-200,4,3,5,20,0,0
10342,-200,4,3,5,22,0,0
10398,-200,4,3,5,25,0,0
10455,-200,4,3,5,27,0,0
10511,-200,4,3,5,30,0,0
10568,-200,4,3,5,32,0,0
10624,-200,4,3,5,35,0,0
10680,-200,4,3,5,37,0,0
10737,-200,4,3,5,40,0,0
10793,-200,4,3,5,42,0,0
10850,-200,4,3,6,70,0,0
11075,-200,4,3,5,50,0,0
21677,-200,4,3,5,70,0,0
21902,-200,4,3,5,50,0,0
25286,465.116279069767,4,3,5,70,1,0
25286,-500,4,3,5,70,0,0
26216,-333.333333333333,4,3,5,30,0,0
26681,-200,4,3,5,35,0,0
27146,-142.857142857143,4,3,5,40,0,0
27611,487.80487804878,4,3,5,70,1,0
27611,-100,4,3,5,45,0,0
28098,623.700623700624,4,3,5,50,1,0
28098,-83.3333333333333,4,3,5,50,0,0
28721,666.666666666667,4,3,5,50,1,0
28721,-66.6666666666667,4,3,5,50,0,0
29387,909.090909090909,4,3,5,50,1,0
31205,1043.47826086957,4,3,5,60,1,0
31205,-200,4,3,5,60,0,0
33291,-500,4,3,5,60,0,0
36426,197.368421052632,4,3,1,70,1,0
36426,-66.6666666666667,4,3,1,70,0,0
36623,260.869565217391,4,3,1,70,1,0
36623,-66.6666666666667,4,3,1,70,0,0
36753,235.294117647059,4,3,1,70,1,0
36753,-66.6666666666667,4,3,1,70,0,0
36870,204.778156996587,4,3,1,70,1,0
36870,-66.6666666666667,4,3,1,70,0,0
37074,280.373831775701,4,3,1,70,1,0
37074,-66.6666666666667,4,3,1,70,0,0
37214,223.048327137546,4,3,1,70,1,0
37214,-66.6666666666667,4,3,1,70,0,0
37325,222.222222222222,4,3,1,70,1,0
37325,-66.6666666666667,4,3,1,70,0,0
37991,239.043824701195,4,3,1,70,1,0
37991,-66.6666666666667,4,3,1,70,0,0
38230,187.5,4,3,1,70,1,0
38230,-66.6666666666667,4,3,1,70,0,0
38417,260.869565217391,4,3,1,70,1,0
38417,-66.6666666666667,4,3,1,70,0,0
38547,228.136882129278,4,3,1,70,1,0
38547,-66.6666666666667,4,3,1,70,0,0
38775,222.222222222222,4,3,1,70,1,0
38775,-66.6666666666667,4,3,1,70,0,0
38997,271.493212669683,4,3,1,70,1,0
38997,-66.6666666666667,4,3,1,70,0,0
39132,225.563909774436,4,3,2,70,1,0
39132,-133.333333333333,4,3,2,70,0,0
39809,-133.333333333333,4,3,10,70,0,0
40035,-66.6666666666667,4,3,2,70,0,0
40373,-66.6666666666667,4,3,10,70,0,0
40542,-66.6666666666667,4,3,2,70,0,0
41106,-66.6666666666667,4,3,2,40,0,0
41275,-66.6666666666667,4,3,2,70,0,0
41613,-66.6666666666667,4,3,10,70,0,0
41839,-66.6666666666667,4,3,2,70,0,0
42741,-133.333333333333,4,3,4,70,0,0
43192,-50,4,3,5,70,0,0
43644,-66.6666666666667,4,3,2,70,0,0
43869,-66.6666666666667,4,3,4,70,0,0
45335,-66.6666666666667,4,3,2,70,0,0
45448,-66.6666666666667,4,3,4,70,0,0
47253,-58.8235294117647,4,3,2,70,0,0
47365,-58.8235294117647,4,3,4,70,0,0
48944,-58.8235294117647,4,3,2,70,0,0
49057,-50,4,3,4,70,0,0
50410,-50,4,3,10,70,0,0
50862,-66.6666666666667,4,3,2,70,0,0
50974,-66.6666666666667,4,3,4,70,0,0
52553,-66.6666666666667,4,3,2,70,0,0
52666,-66.6666666666667,4,3,4,70,0,0
54019,-58.8235294117647,4,3,1,60,0,0
54470,-58.8235294117647,4,3,1,80,0,1
56275,-58.8235294117647,4,3,3,80,0,1
56895,-58.8235294117647,4,3,1,70,0,1
56952,-58.8235294117647,4,3,2,80,0,1
57065,-58.8235294117647,4,3,1,70,0,1
57177,-66.6666666666667,4,3,4,70,0,1
57234,-66.6666666666667,4,3,4,40,0,1
57290,-66.6666666666667,4,3,4,70,0,1
57347,-66.6666666666667,4,3,4,40,0,1
57403,-66.6666666666667,4,3,4,70,0,1
57516,-66.6666666666667,4,3,4,60,0,1
57629,-66.6666666666667,4,3,10,70,0,1
58080,-58.8235294117647,4,3,10,70,0,1
58418,-58.8235294117647,4,3,2,70,0,1
58756,-58.8235294117647,4,3,10,70,0,1
58869,-58.8235294117647,4,3,2,70,0,1
59207,-58.8235294117647,4,3,10,70,0,1
59884,-58.8235294117647,4,3,4,70,0,1
61125,-58.8235294117647,4,3,10,70,0,1
61688,-58.8235294117647,4,3,4,70,0,0
67102,-1000,4,3,6,60,0,0
68004,-58.8235294117647,4,3,10,70,0,0
68681,-40,4,3,2,70,0,0
69132,-40,4,3,4,70,0,0
69358,-50,4,3,4,70,0,0
70598,-50,4,3,2,70,0,0
70937,-50,4,3,4,70,0,0
72516,-40,4,3,2,70,0,0
72967,-50,4,3,4,70,0,0
73418,-50,4,3,2,70,0,0
73644,-50,4,3,4,70,0,0
74207,-50,4,3,2,70,0,0
74320,-40,4,3,2,70,0,0
75335,-50,4,3,2,70,0,0
75448,-50,4,3,10,70,0,0
76125,-40,4,3,2,70,0,0
76350,-40,4,3,4,70,0,0
76576,-50,4,3,4,70,0,0
77816,-50,4,3,2,70,0,0
77929,-50,4,3,4,70,0,0
79734,-40,4,3,2,70,0,0
79959,-40,4,3,4,70,0,0
80185,-50,4,3,4,70,0,0
81538,-50,4,3,2,70,0,0
81764,-50,4,3,10,60,0,0
81877,-50,4,3,2,50,0,0
81989,-50,4,3,4,70,0,0
82441,-50,4,3,2,70,0,0
83343,-66.6666666666667,4,3,2,70,0,0
83568,-66.6666666666667,4,3,4,70,0,0
86275,-50,4,3,4,70,0,0
86501,-66.6666666666667,4,3,2,70,0,0
87065,-66.6666666666667,4,3,4,60,0,0
87854,-50,4,3,4,60,0,0
88644,-50,4,3,2,60,0,0
88756,-50,4,3,2,70,0,0
89433,-50,4,3,10,70,0,0
89659,-50,4,3,2,70,0,0
89884,-50,4,3,10,70,0,0
90335,-50,4,3,2,70,0,0
90561,-50,4,3,2,70,0,0
90786,-50,4,3,4,70,0,0
91012,-66.6666666666667,4,3,4,70,0,0
94170,-50,4,3,4,70,0,0
94621,-66.6666666666667,4,3,4,70,0,0
95974,-50,4,3,2,70,0,0
96651,-76.9230769230769,4,3,2,70,0,0
96707,-76.9230769230769,4,3,2,40,0,0
96764,-50,4,3,2,70,0,0
96989,-50,4,3,10,70,0,0
97215,-50,4,3,2,70,0,0
97441,-40,4,3,2,70,0,0
97779,-50,4,3,2,70,0,0
98230,-66.6666666666667,4,3,2,70,0,0
101388,-50,4,3,2,70,0,0
101839,-66.6666666666667,4,3,2,70,0,0
103192,-50,4,3,2,70,0,0
104207,-40,4,3,2,70,0,0
104997,-33.3333333333333,4,3,7,70,0,0
105222,-33.3333333333333,4,3,7,50,0,0
106125,-33.3333333333333,4,3,7,40,0,0
106801,-66.6666666666667,4,3,2,70,0,0
107027,-66.6666666666667,4,3,4,70,0,0
109959,-66.6666666666667,4,3,4,50,0,0
110016,-66.6666666666667,4,3,4,30,0,0
110298,-66.6666666666667,4,3,4,70,0,0
110410,-33.3333333333333,4,3,7,70,0,0
110636,-33.3333333333333,4,3,7,50,0,0
111538,-33.3333333333333,4,3,7,40,0,0
112215,-66.6666666666667,4,3,2,70,0,0
112441,-66.6666666666667,4,3,4,70,0,0
114245,-66.6666666666667,4,3,2,70,0,0
114471,-66.6666666666667,4,3,10,70,0,0
114583,-66.6666666666667,4,3,2,30,0,0
114696,-66.6666666666667,4,3,2,70,0,0
115260,-66.6666666666667,4,3,10,70,0,0
115711,-66.6666666666667,4,3,2,70,0,0
116388,-66.6666666666667,4,3,4,70,0,0
117629,-66.6666666666667,4,3,2,70,0,0
117741,-66.6666666666667,4,3,2,30,0,0
117854,-66.6666666666667,4,3,2,70,0,0
118080,-66.6666666666667,4,3,2,30,0,0
118192,-66.6666666666667,4,3,2,70,0,0
118418,-66.6666666666667,4,3,2,30,0,0
118531,-66.6666666666667,4,3,2,70,0,0
118756,-66.6666666666667,4,3,2,40,0,0
118982,-66.6666666666667,4,3,2,70,0,0
119433,-66.6666666666667,4,3,5,70,0,0
122140,-40,4,3,7,70,0,0
122365,-40,4,3,10,70,0,0
122704,-66.6666666666667,4,3,2,70,0,0
123041,-100,4,3,4,70,0,1
123116,-100,4,3,4,70,0,0
128455,-45.4545454545455,4,3,2,70,0,0
129132,-66.6666666666667,4,3,2,70,0,0
129245,-66.6666666666667,4,3,10,70,0,0
129358,-50,4,3,2,70,0,0
129471,-50,4,3,10,70,0,0
129583,-50,4,3,2,70,0,0
129809,-50,4,3,10,70,0,0
130259,-40,4,3,2,70,0,1
130486,-40,4,3,4,70,0,1
133869,-40,4,3,2,70,0,1
133982,-40,4,3,4,70,0,1
137253,-40,4,3,10,70,0,1
137365,-40,4,3,4,70,0,1
137591,-66.6666666666667,4,3,4,40,0,1
137704,-66.6666666666667,4,3,4,70,0,1
137929,-83.3333333333333,4,3,10,70,0,1
138042,-83.3333333333333,4,3,4,70,0,1
138155,-83.3333333333333,4,3,10,70,0,1
138268,-83.3333333333333,4,3,4,70,0,1
138380,-100,4,3,2,70,0,0
139283,-1000,4,3,6,70,0,0
140185,-66.6666666666667,4,3,2,70,0,0
140410,-66.6666666666667,4,3,10,70,0,0
140636,-66.6666666666667,4,3,2,70,0,0
141087,-50,4,3,2,70,0,0
141313,-50,4,3,4,70,0,0
142779,-50,4,3,2,70,0,0
142892,-50,4,3,4,70,0,0
144809,-50,4,3,10,70,0,0
145035,-50,4,3,2,70,0,0
145824,-50,4,3,10,70,0,0
146501,-100,4,3,2,70,0,0
148305,-83.3333333333333,4,3,2,70,0,0
148756,-66.6666666666667,4,3,2,70,0,0
149207,-100,4,3,2,70,0,0
153550,-100,4,3,2,30,0,0
153606,-100,4,3,2,70,0,0
153944,-100,4,3,10,70,0,0
154057,-100,4,3,2,30,0,0
154113,-100,4,3,2,50,0,0
154170,-100,4,3,2,70,0,0
154734,-100,4,3,2,30,0,0
154959,-100,4,3,2,70,0,0
155185,-100,4,3,10,70,0,0
155523,-1000,4,3,2,70,0,0
157328,-66.6666666666667,4,3,2,70,0,0
157553,-66.6666666666667,4,3,10,70,0,0
157666,-66.6666666666667,4,3,2,70,0,0
158004,-66.6666666666667,4,3,10,70,0,0
158117,-66.6666666666667,4,3,2,70,0,0
158286,-66.6666666666667,4,3,2,40,0,0
158343,-66.6666666666667,4,3,2,70,0,0
158399,-66.6666666666667,4,3,2,40,0,0
158456,-66.6666666666667,4,3,10,70,0,0
158512,-66.6666666666667,4,3,2,40,0,0
158568,-66.6666666666667,4,3,10,70,0,0
158625,-66.6666666666667,4,3,2,40,0,0
158681,-66.6666666666667,4,3,2,70,0,0
158738,-66.6666666666667,4,3,10,70,0,0
158850,-66.6666666666667,4,3,2,70,0,0
159132,-40,4,3,2,70,0,0
160035,-50,4,3,2,70,0,0
161050,-50,4,3,2,40,0,0
161162,-50,4,3,2,70,0,0
161613,-50,4,3,2,40,0,0
161726,-50,4,3,10,70,0,0
161839,-1000,4,3,2,70,0,0
162741,-40,4,3,2,70,0,0
163192,-50,4,3,4,70,0,0
164433,-50,4,3,2,70,0,0
164546,-40,4,3,4,70,0,0
166350,-40,4,3,2,70,0,0
166576,-40,4,3,4,70,0,0
166801,-50,4,3,4,70,0,0
168042,-50,4,3,2,70,0,0
169283,-50,4,3,10,70,0,0
169959,-33.3333333333333,4,3,2,70,0,0
170410,-40,4,3,4,70,0,0
171764,-40,4,3,2,70,0,0
172553,-40,4,3,10,70,0,0
172666,-40,4,3,2,70,0,0
172779,-40,4,3,10,70,0,0
172892,-40,4,3,2,70,0,0
173568,-33.3333333333333,4,3,7,70,0,0
173794,-33.3333333333333,4,3,7,50,0,0
174696,-33.3333333333333,4,3,7,40,0,0
175373,-66.6666666666667,4,3,2,70,0,0
175429,-66.6666666666667,4,3,10,70,0,0
175711,-66.6666666666667,4,3,4,70,0,0
175824,-66.6666666666667,4,3,10,70,0,0
175937,-66.6666666666667,4,3,4,70,0,0
176050,-250,4,3,4,70,0,0
176726,-66.6666666666667,4,3,10,70,0,0
177177,-66.6666666666667,4,3,4,70,0,0
177403,-250,4,3,2,70,0,0
178192,-66.6666666666667,4,3,10,70,0,0
178531,-66.6666666666667,4,3,4,70,0,0
178644,-66.6666666666667,4,3,10,70,0,0
178869,-66.6666666666667,4,3,4,70,0,0
178982,-66.6666666666667,4,3,10,70,0,0
179207,-100,4,3,4,70,0,0
179320,-66.6666666666667,4,3,10,70,0,0
179546,-66.6666666666667,4,3,4,70,0,0
179659,-66.6666666666667,4,3,4,60,0,0
179884,-66.6666666666667,4,3,4,70,0,0
180110,-66.6666666666667,4,3,2,70,0,0
180617,-66.6666666666667,4,3,10,70,0,0
180786,-100,4,3,1,80,0,1
180843,-100,4,3,3,80,0,1
187328,-100,4,3,1,80,0,1
187779,-37.037037037037,4,3,2,70,0,1
188230,-37.037037037037,4,3,4,70,0,1
191613,-40,4,3,2,70,0,1
191726,-40,4,3,4,70,0,1
193418,-40,4,3,4,70,0,1
194997,-37.037037037037,4,3,10,70,0,1
195110,-37.037037037037,4,3,4,70,0,1
195222,-37.037037037037,4,3,2,70,0,1
196125,-50,4,3,4,70,0,1
196275,-66.6666666666667,4,3,4,40,0,1
196350,-66.6666666666667,4,3,4,60,0,1
196463,-66.6666666666667,4,3,4,70,0,1
196576,-100,4,3,4,70,0,1
196801,-100,4,3,10,70,0,1
197026,-50,4,3,2,70,0,0
197253,-50,4,3,4,70,0,0
198719,-50,4,3,2,70,0,0
198832,-50,4,3,4,70,0,0
200636,-50,4,3,2,70,0,0
200749,-50,4,3,4,70,0,0
202328,-50,4,3,2,70,0,0
202553,-50,4,3,10,70,0,0
202666,-50,4,3,2,70,0,0
202892,-50,4,3,10,70,0,0
203004,-50,4,3,4,70,0,0
203794,-50,4,3,10,70,0,0
204245,-50,4,3,2,70,0,0
204471,-50,4,3,4,70,0,0
205937,-50,4,3,2,70,0,0
206050,-50,4,3,4,70,0,0
209546,-50,4,3,2,70,0,0
209659,-50,4,3,4,70,0,0
209771,-50,4,3,10,70,0,0
209884,-50,4,3,2,70,0,0
210786,-50,4,3,10,70,0,0
211463,-66.6666666666667,4,3,2,70,0,0
211689,-66.6666666666667,4,3,10,70,0,0
211801,-66.6666666666667,4,3,2,70,0,0
212140,-66.6666666666667,4,3,10,70,0,0
212253,-66.6666666666667,4,3,2,70,0,0
212929,-66.6666666666667,4,3,10,70,0,0
213267,-66.6666666666667,4,3,2,70,0,1
213493,-66.6666666666667,4,3,4,70,0,1
215072,-50,4,3,4,70,0,1
215974,-55.5555555555556,4,3,4,70,0,1
216651,-100,4,3,4,70,0,1
216877,-66.6666666666667,4,3,2,70,0,1
217102,-66.6666666666667,4,3,4,70,0,1
217553,-43.4782608695652,4,3,4,70,0,1
218681,-100,4,3,4,70,0,1
219019,-83.3333333333333,4,3,4,70,0,1
219358,-66.6666666666667,4,3,4,70,0,1
219583,-100,4,3,4,70,0,1
220486,-66.6666666666667,4,3,2,70,0,1
220598,-66.6666666666667,4,3,4,70,0,1
222290,-58.8235294117647,4,3,2,70,0,1
222516,-58.8235294117647,4,3,4,70,0,1
223192,-55.5555555555556,4,3,4,70,0,1
224095,-66.6666666666667,4,3,2,70,0,1
224320,-66.6666666666667,4,3,4,70,0,1
226801,-133.333333333333,4,3,4,70,0,1
227253,-66.6666666666667,4,3,4,70,0,1
227309,-66.6666666666667,4,3,1,70,0,1
227590,-66.6666666666667,4,3,4,70,0,0
227703,-50,4,3,2,70,0,1
227816,-50,4,3,4,70,0,1
229395,-50,4,3,2,70,0,1
229508,-50,4,3,4,70,0,1
231313,-50,4,3,2,70,0,1
231538,-50,4,3,4,70,0,1
233004,-50,4,3,2,70,0,1
233230,-50,4,3,10,70,0,1
233456,-50,4,3,2,70,0,1
233681,-50,4,3,4,70,0,1
234245,-50,4,3,10,70,0,1
234922,-40,4,3,2,70,0,1
235147,-40,4,3,4,70,0,1
236613,-40,4,3,2,70,0,1
236726,-40,4,3,4,70,0,1
238080,-40,4,3,2,70,0,1
238192,-40,4,3,2,30,0,1
238249,-40,4,3,2,70,0,1
238362,-40,4,3,10,70,0,1
238418,-40,4,3,2,70,0,1
238531,-33.3333333333333,4,3,7,70,0,1
238756,-33.3333333333333,4,3,7,50,0,1
239433,-33.3333333333333,4,3,7,60,0,1
239659,-33.3333333333333,4,3,7,50,0,1
240335,-100,4,3,2,70,0,0
244847,-100,4,3,5,100,0,0
245749,-33.3333333333333,4,3,6,70,0,0
246200,-66.6666666666667,4,3,2,70,0,0
247835,-66.6666666666667,4,3,10,70,0,0
248004,-66.6666666666667,4,3,2,70,0,0
248230,-66.6666666666667,4,3,10,70,0,0
248343,-66.6666666666667,4,3,2,70,0,0
248681,-66.6666666666667,4,3,10,70,0,0
248907,-66.6666666666667,4,3,2,70,0,0
249358,-33.3333333333333,4,3,6,70,0,0
249809,-66.6666666666667,4,3,2,70,0,0
251388,-66.6666666666667,4,3,10,70,0,0
251613,-66.6666666666667,4,3,2,70,0,0
251952,-66.6666666666667,4,3,10,70,0,0
252065,-66.6666666666667,4,3,2,70,0,0
252177,-66.6666666666667,4,3,10,70,0,0
252403,-66.6666666666667,4,3,2,70,0,0
252572,-66.6666666666667,4,3,10,70,0,0
252741,-66.6666666666667,4,3,2,70,0,0
252798,-66.6666666666667,4,3,10,70,0,0
252967,-66.6666666666667,4,3,2,70,0,0
256350,-66.6666666666667,4,3,10,70,0,0
256576,-66.6666666666667,4,3,2,70,0,0
258606,-66.6666666666667,4,3,10,60,0,0
258832,-66.6666666666667,4,3,2,70,0,0
259170,-66.6666666666667,4,3,10,60,0,0
259283,-66.6666666666667,4,3,2,70,0,0
259452,-66.6666666666667,4,3,10,70,0,0
259508,-66.6666666666667,4,3,2,70,0,0
259565,-66.6666666666667,4,3,10,70,0,0
259621,-66.6666666666667,4,3,2,70,0,0
259790,-66.6666666666667,4,3,10,70,0,0
259959,-66.6666666666667,4,3,2,70,0,0
260016,-66.6666666666667,4,3,10,70,0,0
260185,-100,4,3,2,70,0,0
265598,-100,4,3,10,70,0,0
265674,-100,4,3,2,70,0,0
265899,-100,4,3,10,70,0,0
266050,-100,4,3,2,70,0,0
266275,-100,4,3,10,70,0,0
266350,-100,4,3,2,70,0,0
266952,-100,4,3,10,70,0,0
267027,-100,4,3,2,70,0,0
267177,-100,4,3,10,70,0,0
267253,-100,4,3,2,70,0,0
267403,458.015267175573,4,3,5,100,1,0
268319,476.190476190476,4,3,5,50,1,0
268795,461.538461538462,4,3,5,50,1,0
269256,444.444444444444,4,3,5,50,1,0
269700,461.538461538462,4,3,5,50,1,0
271084,483.870967741935,4,3,5,50,1,0
272051,458.015267175573,4,3,5,50,1,0
272967,461.538461538462,4,3,5,50,1,0
275736,428.571428571429,4,3,5,50,1,0
276164,480,4,3,5,50,1,0
276644,437.956204379563,4,3,5,50,1,0
277081,530.973451327433,4,3,5,50,1,0
277611,437.956204379563,4,3,5,50,1,0
278486,458.015267175573,4,3,5,50,1,0
279402,461.538461538462,4,3,5,50,1,0
279863,504.201680672269,4,3,5,50,1,0
280367,444.444444444445,4,3,5,50,1,0
281700,487.804878048781,4,3,5,50,1,0
282187,451.127819548873,4,3,5,50,1,0
282187,-200,4,3,5,50,0,0
283089,483.870967741935,4,3,5,50,1,0
283089,-133.333333333333,4,3,5,50,0,0
283572,461.538461538462,4,3,5,50,1,0
283572,-133.333333333333,4,3,5,50,0,0
284033,428.571428571428,4,3,5,50,1,0
284461,468.750000000001,4,3,5,50,1,0
284461,-200,4,3,5,50,0,0
284929,434.782608695652,4,3,5,50,1,0
285363,486.302480142649,4,3,5,50,1,0
286821,444.444444444444,4,3,5,50,1,0
287265,447.761194029851,4,3,5,50,1,0
287712,458.015267175573,4,3,5,50,1,0
288170,469.851213782302,4,3,5,50,1,0
288170,-200,4,3,5,50,0,0
288639,468.75,4,3,5,50,1,0
289107,461.538461538462,4,3,5,50,1,0
289568,434.782608695652,4,3,5,50,1,0
290002,461.538461538462,4,3,5,50,1,0
290002,-200,4,3,5,50,0,0
290463,454.545454545455,4,3,5,50,1,0
290917,499.168053244592,4,3,5,50,1,0
291416,434.782608695652,4,3,5,50,1,0
291850,490.196078431373,4,3,5,50,1,0
292340,461.538461538462,4,3,5,50,1,0
292801,447.76119402985,4,3,5,50,1,0
293249,472.44094488189,4,3,5,50,1,0
293249,-200,4,3,5,50,0,0
294193,-100,4,3,5,50,0,0
294666,465.116279069767,4,3,5,50,1,0
294666,-133.333333333333,4,3,5,50,0,0
295131,504.201680672269,4,3,5,50,1,0
295131,-166.666666666667,4,3,5,50,0,0
296139,483.870967741935,4,3,5,50,1,0
296622,549.450549450549,4,3,5,50,1,0
297171,545.454545454546,4,3,5,50,1,0
297171,-200,4,3,5,50,0,0
297716,560.747663551402,4,3,5,50,1,0
298276,638.297872340426,4,3,5,50,1,0
298276,-333.333333333333,4,3,5,50,0,0
298914,710.900473933649,4,3,5,50,1,0
300335,225.563909774436,4,3,2,70,1,0
300335,-1000,4,3,2,70,0,0
302139,-50,4,3,2,70,0,0
303041,-33.3333333333333,4,3,2,70,0,0
303154,-50,4,3,2,70,0,0
303380,-50,4,3,10,70,0,0
303492,-50,4,3,2,70,0,0
303718,-50,4,3,10,70,0,0
303944,-66.6666666666667,4,3,2,70,0,0
305748,-50,4,3,2,70,0,0
306650,-1000,4,3,2,70,0,0
307553,-66.6666666666667,4,3,1,70,0,1
310710,-66.6666666666667,4,3,10,70,0,1
311162,-58.8235294117647,4,3,2,70,0,1
311387,-58.8235294117647,4,3,10,70,0,1
311500,-58.8235294117647,4,3,2,70,0,1
311838,-58.8235294117647,4,3,10,70,0,1
311951,-58.8235294117647,4,3,2,70,0,1
312289,-58.8235294117647,4,3,10,70,0,1
312402,-58.8235294117647,4,3,2,70,0,1
312628,-58.8235294117647,4,3,10,70,0,1
312853,-58.8235294117647,4,3,2,70,0,1
313192,-58.8235294117647,4,3,10,70,0,1
313248,-58.8235294117647,4,3,2,70,0,1
314658,-58.8235294117647,4,3,2,70,0,0
314771,-40,4,3,2,70,0,1
315109,-40,4,3,4,70,0,1
316462,-40,4,3,2,70,0,1
316575,-40,4,3,4,70,0,1
318380,-40,4,3,2,70,0,1
318718,-40,4,3,4,70,0,1
320071,-40,4,3,2,70,0,1
321312,-40,4,3,10,70,0,1
321989,-40,4,3,2,70,0,1
322327,-40,4,3,4,70,0,1
323680,-40,4,3,2,70,0,1
323906,-40,4,3,4,70,0,1
324695,-25,4,3,4,70,0,1
325598,-40,4,3,2,70,0,1
325936,-40,4,3,4,70,0,1
327289,-40,4,3,2,70,0,1
327515,-40,4,3,10,70,0,1
327628,-40,4,3,2,70,0,1
328530,-40,4,3,10,70,0,1
329094,-40,4,3,10,70,0,0
329207,-66.6666666666667,4,3,1,80,0,1
329658,-66.6666666666667,4,3,3,80,0,1
331462,-66.6666666666667,4,3,1,80,0,1
331913,-66.6666666666667,4,3,2,80,0,1
331970,-66.6666666666667,4,3,3,80,0,1
332365,-66.6666666666667,4,3,2,80,0,1
332421,-66.6666666666667,4,3,10,70,0,1
332816,-66.6666666666667,4,3,1,80,0,1
333267,-66.6666666666667,4,3,3,80,0,1
335071,-66.6666666666667,4,3,1,80,0,1
335974,-66.6666666666667,4,3,2,80,0,1
336030,-66.6666666666667,4,3,10,70,0,1
336425,-66.6666666666667,4,3,2,70,0,1
336650,-66.6666666666667,4,3,10,70,0,1
336763,-66.6666666666667,4,3,2,70,0,1
337101,-66.6666666666667,4,3,10,70,0,1
337214,-66.6666666666667,4,3,4,70,0,1
337891,-66.6666666666667,4,3,10,70,0,1
338229,-55.5555555555556,4,3,2,70,0,0
338568,-55.5555555555556,4,3,4,70,0,0
339921,-55.5555555555556,4,3,2,70,0,0
340034,-55.5555555555556,4,3,4,70,0,0
341838,-50,4,3,2,70,0,0
341951,-50,4,3,4,70,0,0
343530,-50,4,3,2,70,0,0
343643,-40,4,3,2,70,0,0
344545,-50,4,3,2,70,0,0
345109,-50,4,3,10,70,0,0
345335,-50,4,3,2,70,0,0
345447,-55.5555555555556,4,3,2,70,0,0
345786,-55.5555555555556,4,3,4,70,0,0
347139,-55.5555555555556,4,3,2,70,0,0
347252,-55.5555555555556,4,3,4,70,0,0
348605,-58.8235294117647,4,3,1,60,0,0
349056,-58.8235294117647,4,3,1,80,0,1
349282,-58.8235294117647,4,3,3,80,0,1
351312,-58.8235294117647,4,3,1,80,0,1
351481,-58.8235294117647,4,3,1,70,0,1
351538,-55.5555555555556,4,3,4,70,0,1
351650,-58.8235294117647,4,3,1,70,0,1
351763,-66.6666666666667,4,3,4,70,0,1
351819,-66.6666666666667,4,3,4,40,0,1
351876,-66.6666666666667,4,3,4,70,0,1
351932,-66.6666666666667,4,3,4,40,0,1
351989,-66.6666666666667,4,3,4,70,0,1
352101,-66.6666666666667,4,3,4,60,0,1
352214,-66.6666666666667,4,3,4,70,0,1
352271,-66.6666666666667,4,3,10,70,0,1
352665,-58.8235294117647,4,3,2,70,0,1
352891,-58.8235294117647,4,3,10,70,0,1
353004,-58.8235294117647,4,3,2,70,0,1
353342,-58.8235294117647,4,3,10,70,0,1
353455,-58.8235294117647,4,3,2,70,0,1
353793,-58.8235294117647,4,3,10,70,0,1
353906,-58.8235294117647,4,3,2,70,0,1
354131,-58.8235294117647,4,3,10,70,0,1
354357,-58.8235294117647,4,3,4,70,0,1
355823,-58.8235294117647,4,3,10,70,0,1
355936,-58.8235294117647,4,3,2,70,0,1
356049,-58.8235294117647,4,3,10,70,0,1
356162,-58.8235294117647,4,3,2,70,0,1
356274,-66.6666666666667,4,3,5,80,0,1
356387,-66.6666666666667,4,3,5,60,0,0
358079,-100,4,3,2,90,0,1
358135,-100,4,3,2,60,0,0
358981,-100,4,3,2,40,0,0
359883,-100,4,3,2,50,0,0
360335,-100,4,3,2,60,0,0
360786,-100,4,3,2,70,0,0
361663,-100,4,3,2,5,0,0

[Colours]
Combo1 : 255,166,166
Combo2 : 212,212,212
Combo3 : 127,127,127
Combo4 : 184,255,113
Combo5 : 255,255,138
Combo6 : 255,182,108

[HitObjects]
107,331,1660,6,0,P|113:278|165:231,1,120,2|0,0:0|2:0,0:0:0:0:
159,233,3520,2,0,P|184:217|201:189,1,56,2|0,0:0|2:0,0:0:0:0:
198,195,4450,2,0,P|210:169|265:138,1,83.9999974365235,2|0,0:0|2:0,0:0:0:0:
311,37,5380,2,0,B|292:98|361:153|397:115|401:116|405:117|445:78|517:119|511:190,1,300,2|0,0:0|2:0,0:0:0:0:
464,291,7241,2,0,P|446:266|414:252,1,64,2|0,0:0|0:0,0:0:0:0:
416,252,9947,2,0,L|403:251,15,10
339,301,10850,6,0,L|320:248,1,40,8|0,0:0|0:0,0:0:0:0:
335,48,11301,2,0,L|342:89,1,40
329,307,11752,2,0,L|314:253,1,40
347,55,12203,2,0,L|350:96,1,40
318,313,12654,2,0,L|309:258,1,40
358,63,13105,2,0,L|358:105,1,40
307,318,13556,2,0,L|303:262,1,40
369,73,14007,2,0,L|365:114,1,40
93,238,14459,69,2,0:0:0:0:
405,209,14684,1,0,0:0:0:0:
87,214,14910,1,0,0:0:0:0:
426,260,15135,1,0,0:0:0:0:
186,146,15361,1,0,0:0:0:0:
269,334,15586,1,0,0:0:0:0:
204,128,15812,1,0,0:0:0:0:
238,356,16037,1,0,0:0:0:0:
356,151,16263,6,0,L|303:168,1,40
119,248,16714,2,0,L|178:263,1,40
359,159,17165,2,0,L|304:172,1,40
114,235,17616,2,0,L|172:255,1,40
470,255,18068,69,0,0:0:0:0:
402,321,18293,2,0,L|417:373,2,40
444,102,18970,2,0,L|438:157,1,40
307,340,19421,2,0,L|298:286,1,40
358,44,19872,2,0,L|356:99,1,40
200,329,20323,2,0,L|205:272,1,40
220,4,20774,2,0,L|228:57,1,40
78,349,21225,2,0,L|84:292,1,40
30,0,21677,5,2,0:0:0:0:
252,146,21902,1,0,0:0:0:0:
13,266,22128,1,0,0:0:0:0:
80,5,22353,69,2,0:0:0:0:
245,190,22578,1,0,0:0:0:0:
0,241,22804,1,0,0:0:0:0:
159,67,23030,5,0,0:0:0:0:
0,157,23256,1,0,0:0:0:0:
143,197,23481,70,0,L|91:153,2,40
140,293,24158,1,0,0:0:0:0:
252,363,24383,2,0,L|234:317,1,40
337,255,24834,2,0,L|336:308,1,40
427,369,25286,6,0,L|446:312,1,56,0|0,0:0|2:0,0:0:0:0:
462,338,26216,2,0,L|466:293,1,35.9999989013672,0|0,0:0|2:0,0:0:0:0:
494,301,26681,2,0,L|483:242,1,60,0|0,0:0|2:0,0:0:0:0:
512,241,27146,2,0,L|473:165,1,83.9999974365235,0|0,0:0|2:0,0:0:0:0:
512,168,27611,2,0,L|422:70,1,120,0|0,0:0|2:0,0:0:0:0:
495,90,28098,2,0,L|354:4,1,143.999995605469,0|0,0:0|2:0,0:0:0:0:
303,70,28721,70,0,B|348:89|355:125|353:169|315:192|315:192|245:235|248:281|285:308|337:315|374:295|381:250|337:197|337:197|299:186|299:186|284:167|272:145|272:145|238:127|222:99|223:65|223:65|175:103|130:74|127:74|124:74|75:41|16:100,1,840.000032043458,2|0,0:0|2:0,0:0:0:0:
87,160,31205,6,0,P|91:227|41:281,1,140,2|0,0:0|2:0,0:0:0:0:
35,384,33291,2,0,P|73:353|115:341,1,92,0|0,0:0|2:0,0:0:0:0:
275,373,36426,6,0,B|243:276|243:276|226:309,2,120.000004577637,6|0|0,0:0|0:0|0:0,0:0:0:0:
425,239,36753,2,0,B|450:164|450:164|517:98,1,120.000004577637
419,25,36972,1,0,0:0:0:0:
335,146,37074,2,0,B|273:102|273:102|237:46,1,120.000004577637
52,165,37325,6,0,B|120:189|182:169|182:169|158:159|134:166,1,180.000006866455,0|0,0:0|2:0,0:0:0:0:
106,261,37547,2,0,B|177:254|226:210|226:210|199:210|180:227,1,180.000006866455,0|0,0:0|2:0,0:0:0:0:
195,325,37769,2,0,B|257:288|282:227|282:227|258:239|248:262,1,180.000006866455,0|0,0:0|2:0,0:0:0:0:
302,345,37991,2,0,B|342:285|340:219|340:219|323:241|324:266,1,180.000006866455,0|0,0:0|2:0,0:0:0:0:
438,333,38230,5,0,0:0:0:0:
435,316,38323,1,0,0:0:0:0:
432,299,38417,1,0,0:0:0:0:
497,112,38547,2,0,B|456:178|456:178|405:203,1,120.000004577637
265,129,38775,1,0,0:0:0:0:
395,24,38886,2,0,B|312:3|312:3|238:5,1,120.000004577637
88,191,39132,6,0,B|106:123|106:123|95:98,1,90.0000034332277,6|0,0:0|2:0,0:0:0:0:
171,162,39358,2,0,B|152:94|152:94|164:69,1,90.0000034332277,6|0,0:0|2:0,0:0:0:0:
265,129,39583,37,8,0:0:0:0:
258,173,39639,1,8,0:0:0:0:
252,218,39695,1,8,0:0:0:0:
246,262,39752,1,8,0:0:0:0:
240,307,39809,5,8,0:0:0:0:
234,304,39865,1,8,0:0:0:0:
229,301,39921,1,8,0:0:0:0:
223,299,39978,1,8,0:0:0:0:
218,296,40035,6,0,B|291:271|365:285|365:285|349:297|324:303,1,180.000006866455,6|0,0:0|2:0,0:0:0:0:
317,355,40260,1,2,0:0:0:0:
161,190,40373,2,0,B|134:267|65:312|65:312|65:287|80:254,1,180.000006866455,12|0,0:0|2:0,0:0:0:0:
34,248,40598,1,2,0:0:0:0:
80,71,40711,2,0,B|146:88|146:88|210:78,1,120.000004577637,0|2,0:0|0:0,0:0:0:0:
472,103,40937,6,0,B|429:178|429:178|421:251,1,120.000004577637,12|0,0:0|2:0,0:0:0:0:
475,234,41106,2,0,B|470:301|470:301|442:353,1,120.000004577637,8|8,0:0|0:0,0:0:0:0:
373,370,41275,1,8,0:0:0:0:
334,258,41388,1,2,0:0:0:0:
260,351,41501,2,0,B|175:325|175:325|193:367,2,120.000004577637,8|8|4,0:0|0:0|0:0,0:0:0:0:
228,165,41839,38,0,B|153:217|83:205|83:205|107:186|133:184,1,180.000006866455,6|0,0:0|2:0,0:0:0:0:
161,245,42065,1,0,0:0:0:0:
230,68,42177,2,0,B|320:76|366:130|366:130|336:129|314:114,1,180.000006866455,8|0,0:0|2:0,0:0:0:0:
335,47,42403,1,2,0:0:0:0:
441,170,42516,2,0,B|407:223|407:223|394:290,1,120.000004577637,0|2,0:0|0:0,0:0:0:0:
170,339,42741,6,0,B|167:280|208:245|212:245|216:245|254:208|250:141,1,210.000008010865,6|0,0:0|2:0,0:0:0:0:
335,47,43192,2,0,B|344:113|319:148|277:182|220:181|220:181|165:179|114:199|76:244|67:286|67:286|61:228|17:183|17:183|49:210|111:214,1,560,0|0,0:0|2:0,0:0:0:0:
202,94,43644,6,0,B|133:107|133:107|83:133|83:133|132:86,1,180.000006866455,6|0,0:0|2:0,0:0:0:0:
151,21,43869,1,2,0:0:0:0:
286,184,43982,2,0,B|207:179|207:179|155:189,1,120.000004577637,12|2,0:0|0:0,0:0:0:0:
82,361,44207,1,12,0:0:0:0:
239,260,44320,1,2,0:0:0:0:
50,202,44433,1,12,0:0:0:0:
204,333,44546,6,0,B|266:304|266:304|359:305,1,120.000004577637,2|12,0:0|0:0,0:0:0:0:
512,198,44771,2,0,B|463:149|463:149|375:118,1,120.000004577637,2|12,0:0|0:0,0:0:0:0:
202,94,44997,1,2,0:0:0:0:
286,184,45110,1,12,0:0:0:0:
338,42,45222,1,2,0:0:0:0:
337,54,45279,1,2,0:0:0:0:
336,65,45335,1,12,0:0:0:0:
226,0,45448,37,2,0:0:0:0:
234,123,45561,2,0,B|170:143|170:143|130:179,1,120.000004577637,12|2,0:0|0:0,0:0:0:0:
22,384,45786,2,0,B|62:330|62:330|110:305,1,120.000004577637,12|2,0:0|0:0,0:0:0:0:
308,352,46012,1,12,0:0:0:0:
286,184,46125,1,2,0:0:0:0:
109,305,46238,1,12,0:0:0:0:
151,81,46350,6,0,B|211:52|211:52|294:48,1,120.000004577637,2|12,0:0|0:0,0:0:0:0:
352,277,46576,2,0,B|292:306|292:306|209:310,1,120.000004577637,2|12,0:0|0:0,0:0:0:0:
382,68,46801,2,0,B|411:128|411:128|415:211,1,120.000004577637,2|12,0:0|0:0,0:0:0:0:
109,305,47027,2,0,B|80:245|80:245|76:162,1,120.000004577637,2|12,0:0|0:0,0:0:0:0:
451,114,47253,5,6,0:0:0:0:
331,201,47365,2,0,B|282:161|282:161|200:134,1,136.000002593994,12|2,0:0|0:0,0:0:0:0:
0,0,47591,2,0,B|20:69|20:69|16:132,1,136.000002593994,12|2,0:0|0:0,0:0:0:0:
109,305,47816,1,12,0:0:0:0:
212,138,47929,1,2,0:0:0:0:
281,326,48042,1,12,0:0:0:0:
378,86,48155,6,0,B|412:146|412:146|479:200,1,136.000002593994,2|12,0:0|0:0,0:0:0:0:
373,384,48380,2,0,B|330:331|330:331|270:297,1,136.000002593994,2|12,0:0|0:0,0:0:0:0:
212,138,48606,1,2,0:0:0:0:
333,184,48719,1,12,0:0:0:0:
163,266,48832,1,2,0:0:0:0:
176,264,48888,1,2,0:0:0:0:
189,262,48944,1,12,0:0:0:0:
94,178,49057,37,2,0:0:0:0:
261,48,49170,2,0,B|188:66|188:66|90:50,1,160,12|2,0:0|0:0,0:0:0:0:
272,250,49395,1,12,0:0:0:0:
179,27,49508,1,2,0:0:0:0:
94,178,49621,1,12,0:0:0:0:
342,110,49734,2,0,B|388:183|388:183|394:263,1,160,2|12,0:0|0:0,0:0:0:0:
191,372,49959,5,2,0:0:0:0:
194,356,50016,1,2,0:0:0:0:
197,340,50072,1,12,0:0:0:0:
51,305,50185,5,2,0:0:0:0:
62,294,50241,1,2,0:0:0:0:
74,283,50298,1,8,0:0:0:0:
41,161,50410,5,2,0:0:0:0:
56,163,50467,1,2,0:0:0:0:
71,165,50523,1,8,0:0:0:0:
86,167,50580,1,8,0:0:0:0:
101,169,50636,1,4,0:0:0:0:
116,171,50692,1,4,0:0:0:0:
131,173,50749,1,2,0:0:0:0:
146,175,50805,1,2,0:0:0:0:
157,177,50862,37,6,0:0:0:0:
257,83,50974,2,0,B|322:109|322:109|403:106,1,120.000004577637,12|2,0:0|0:0,0:0:0:0:
485,281,51200,1,12,0:0:0:0:
285,249,51313,2,0,B|341:207|341:207|420:188,1,120.000004577637,2|14,0:0|0:0,0:0:0:0:
192,316,51538,2,0,B|248:357|248:357|327:376,1,120.000004577637,2|14,0:0|0:0,0:0:0:0:
153,106,51764,5,2,0:0:0:0:
73,264,51877,1,12,0:0:0:0:
226,152,51989,1,2,0:0:0:0:
192,316,52102,1,12,0:0:0:0:
47,150,52215,2,0,B|53:74|53:74|92:14,1,120.000004577637,2|12,0:0|0:0,0:0:0:0:
253,30,52441,1,2,0:0:0:0:
249,41,52497,1,2,0:0:0:0:
245,52,52553,1,12,0:0:0:0:
365,207,52666,6,0,B|362:140|362:140|388:87,1,120.000004577637,2|12,0:0|0:0,0:0:0:0:
505,225,52892,1,0,0:0:0:0:
344,355,53004,2,0,B|323:291|323:291|281:250,1,120.000004577637,12|2,0:0|0:0,0:0:0:0:
462,138,53230,1,12,0:0:0:0:
287,166,53343,2,0,B|223:145|223:145|182:103,1,120.000004577637,2|12,0:0|0:0,0:0:0:0:
28,260,53568,5,2,0:0:0:0:
187,274,53681,1,12,0:0:0:0:
4,171,53794,2,0,B|93:177|93:177|158:151,1,120.000004577637,2|12,0:0|0:0,0:0:0:0:
106,347,54019,37,10,0:0:0:0:
112,348,54076,1,8,0:0:0:0:
118,349,54132,1,8,0:0:0:0:
124,350,54189,1,8,0:0:0:0:
130,351,54245,1,10,0:0:0:0:
136,352,54301,1,8,0:0:0:0:
142,353,54358,1,8,0:0:0:0:
148,354,54414,1,8,0:0:0:0:
154,355,54471,5,6,0:0:0:0:
126,334,54527,1,8,0:0:0:0:
109,306,54583,1,2,0:0:0:0:
103,272,54640,1,8,0:0:0:0:
110,239,54696,1,2,0:0:0:0:
129,211,54752,1,8,0:0:0:0:
157,192,54809,1,2,0:0:0:0:
176,164,54865,1,8,0:0:0:0:
185,131,54922,1,2,0:0:0:0:
182,98,54978,1,8,0:0:0:0:
168,67,55034,1,2,0:0:0:0:
144,43,55091,1,8,0:0:0:0:
113,30,55147,2,0,L|31:18,3,68.0000012969971,2|8|2|8,0:0|0:0|0:0|0:0,0:0:0:0:
43,152,55373,5,2,0:0:0:0:
76,159,55429,1,8,0:0:0:0:
109,167,55485,1,2,0:0:0:0:
142,174,55542,1,8,0:0:0:0:
174,155,55598,5,2,0:0:0:0:
207,162,55654,1,8,0:0:0:0:
240,170,55710,1,2,0:0:0:0:
273,177,55767,1,8,0:0:0:0:
313,155,55824,38,0,L|389:172,3,68.0000012969971,2|8|2|8,0:0|0:0|0:0|0:0,0:0:0:0:
364,262,56050,5,2,0:0:0:0:
410,257,56106,1,8,0:0:0:0:
451,280,56162,1,2,0:0:0:0:
473,321,56219,1,8,0:0:0:0:
469,368,56275,5,6,0:0:0:0:
432,338,56331,1,8,0:0:0:0:
418,293,56387,1,6,0:0:0:0:
432,248,56444,1,8,0:0:0:0:
468,218,56501,5,6,0:0:0:0:
481,186,56557,1,8,0:0:0:0:
482,153,56613,1,2,0:0:0:0:
471,121,56670,1,8,0:0:0:0:
449,95,56726,38,0,L|376:62,1,68.0000012969971,2|8,0:0|0:0,0:0:0:0:
313,155,56839,1,10,0:0:0:0:
295,165,56895,1,8,0:0:0:0:
277,175,56951,1,2,0:0:0:0:
243,88,57065,1,8,0:0:0:0:
225,98,57121,1,8,0:0:0:0:
207,108,57177,6,0,L|141:86,1,60.0000022888184,8|8,0:0|0:0,0:0:0:0:
22,36,57290,2,0,L|56:89,1,60.0000022888184,8|8,0:0|0:0,0:0:0:0:
146,196,57403,5,2,0:0:0:0:
22,200,57516,1,8,0:0:0:0:
20,217,57572,1,8,0:0:0:0:
18,235,57629,5,4,0:0:0:0:
62,257,57685,2,0,B|94:315|94:315|99:378,1,120.000004577637,4|4,0:0|0:0,0:0:0:0:
149,381,57854,1,8,0:0:0:0:
198,274,57967,1,8,0:0:0:0:
276,384,58080,37,2,0:0:0:0:
321,272,58192,1,2,0:0:0:0:
338,282,58248,1,2,0:0:0:0:
357,289,58304,1,4,0:0:0:0:
377,291,58361,1,4,0:0:0:0:
398,288,58417,1,2,0:0:0:0:
417,281,58473,1,2,0:0:0:0:
434,270,58530,5,12,0:0:0:0:
434,270,58756,2,0,L|467:199,1,68.0000012969971,4|4,0:0|0:0,0:0:0:0:
311,103,58869,1,2,0:0:0:0:
319,70,58925,1,2,0:0:0:0:
328,36,58982,5,12,0:0:0:0:
328,36,59207,1,4,0:0:0:0:
314,50,59263,1,4,0:0:0:0:
297,62,59319,1,2,0:0:0:0:
278,70,59376,1,2,0:0:0:0:
258,73,59432,1,2,0:0:0:0:
238,72,59488,1,2,0:0:0:0:
218,67,59545,1,8,0:0:0:0:
198,61,59601,1,8,0:0:0:0:
178,60,59659,1,4,0:0:0:0:
157,64,59715,1,4,0:0:0:0:
139,71,59771,1,2,0:0:0:0:
122,83,59828,1,2,0:0:0:0:
108,98,59884,6,0,L|94:164,1,68.0000012969971,12|0,0:0|0:0,0:0:0:0:
219,355,59997,2,0,L|209:286,1,68.0000012969971,12|0,0:0|0:0,0:0:0:0:
277,103,60110,1,2,0:0:0:0:
309,93,60166,1,2,0:0:0:0:
341,83,60222,38,0,L|355:149,1,68.0000012969971,12|0,0:0|0:0,0:0:0:0:
242,366,60335,2,0,L|252:297,1,68.0000012969971,12|0,0:0|0:0,0:0:0:0:
140,123,60448,1,2,0:0:0:0:
106,118,60504,1,2,0:0:0:0:
73,114,60560,6,0,L|70:181,1,68.0000012969971,12|0,0:0|0:0,0:0:0:0:
191,384,60674,2,0,L|175:305,1,68.0000012969971,12|0,0:0|0:0,0:0:0:0:
324,124,60786,1,2,0:0:0:0:
358,124,60842,1,2,0:0:0:0:
391,126,60899,6,0,L|381:192,1,68.0000012969971,12|0,0:0|0:0,0:0:0:0:
267,384,61012,2,0,L|283:305,1,68.0000012969971,12|0,0:0|0:0,0:0:0:0:
182,144,61125,1,2,0:0:0:0:
188,110,61181,1,2,0:0:0:0:
194,76,61238,5,8,0:0:0:0:
211,87,61294,1,8,0:0:0:0:
229,94,61350,1,2,0:0:0:0:
249,98,61407,1,2,0:0:0:0:
270,98,61463,1,4,0:0:0:0:
290,94,61519,1,4,0:0:0:0:
309,87,61576,1,2,0:0:0:0:
326,76,61632,1,2,0:0:0:0:
340,62,61689,5,2,0:0:0:0:
340,62,67102,22,0,L|365:116,1,60,14|0,0:0|2:0,0:0:0:0:
373,134,68005,5,4,0:0:0:0:
379,154,68061,1,4,0:0:0:0:
380,174,68116,1,4,0:0:0:0:
378,195,68174,1,4,0:0:0:0:
372,214,68230,1,8,0:0:0:0:
362,232,68287,1,8,0:0:0:0:
350,248,68343,1,8,0:0:0:0:
334,262,68398,1,8,0:0:0:0:
317,272,68456,1,4,0:0:0:0:
298,279,68512,1,4,0:0:0:0:
278,282,68569,1,2,0:0:0:0:
257,282,68625,1,2,0:0:0:0:
237,278,68681,1,12,0:0:0:0:
237,278,68907,6,0,B|171:264|171:264|98:286|98:286|24:270,1,200,6|0,0:0|0:0,0:0:0:0:
238,260,69132,2,0,B|172:246|172:246|99:268|99:268|25:252,1,200,2|0,0:0|0:0,0:0:0:0:
52,69,69358,1,2,0:0:0:0:
76,143,69471,1,8,0:0:0:0:
159,22,69583,1,2,0:0:0:0:
62,150,69696,1,8,0:0:0:0:
257,79,69809,6,0,B|332:134|332:134|361:209,1,160,2|8,0:0|0:0,0:0:0:0:
261,365,70035,1,6,0:0:0:0:
463,262,70147,2,0,B|476:206|476:206|465:137|465:137|459:170,1,160,8|2,0:0|0:0,0:0:0:0:
345,288,70373,1,8,0:0:0:0:
339,120,70486,1,6,0:0:0:0:
345,115,70542,1,2,0:0:0:0:
351,110,70598,1,12,0:0:0:0:
233,193,70711,37,0,0:0:0:0:
177,86,70824,2,0,B|98:112|98:112|20:104,1,160,8|0,0:0|0:0,0:0:0:0:
248,217,71050,2,0,B|164:221|164:221|91:193,1,160,12|2,0:0|0:0,0:0:0:0:
261,365,71275,2,0,B|179:348|179:348|116:302,1,160,12|2,0:0|0:0,0:0:0:0:
161,169,71501,1,12,0:0:0:0:
345,288,71613,5,2,0:0:0:0:
339,192,71726,1,12,0:0:0:0:
425,235,71839,1,2,0:0:0:0:
263,288,71952,2,0,B|290:199|290:199|259:118,1,160,12|2,0:0|0:0,0:0:0:0:
90,60,72177,1,12,0:0:0:0:
90,60,72290,2,0,B|136:175|136:175|76:157,1,160,2|12,0:0|0:0,0:0:0:0:
220,21,72516,6,0,B|284:33|284:33|286:42|286:42|342:53|342:53|347:45|347:45|460:65,1,200,6|8,0:0|0:0,0:0:0:0:
225,7,72741,2,0,B|289:19|289:19|291:28|291:28|347:39|347:39|352:31|352:31|465:51,1,200,2|8,0:0|0:0,0:0:0:0:
468,218,72967,1,2,0:0:0:0:
415,155,73080,1,8,0:0:0:0:
368,276,73192,1,6,0:0:0:0:
424,143,73305,1,8,0:0:0:0:
266,195,73418,6,0,B|180:182|180:182|69:222,1,160,6|8,0:0|0:0,0:0:0:0:
24,384,73644,1,2,0:0:0:0:
263,288,73756,2,0,B|324:299|324:299|373:340|373:340|340:329,1,160,12|2,0:0|0:0,0:0:0:0:
186,376,73982,1,12,0:0:0:0:
165,216,74095,1,2,0:0:0:0:
162,208,74151,1,2,0:0:0:0:
159,200,74207,1,12,0:0:0:0:
304,212,74320,37,8,0:0:0:0:
314,162,74377,1,8,0:0:0:0:
325,113,74433,1,2,0:0:0:0:
230,51,74546,1,2,0:0:0:0:
404,232,74659,2,0,B|422:125|483:101|483:101|475:134|456:155,1,200,8|6,0:0|0:0,0:0:0:0:
304,212,74884,1,8,0:0:0:0:
490,286,74997,1,2,0:0:0:0:
361,101,75110,1,8,0:0:0:0:
356,329,75222,5,6,0:0:0:0:
358,338,75279,1,2,0:0:0:0:
360,345,75335,1,8,0:0:0:0:
253,315,75448,5,8,0:0:0:0:
254,307,75504,1,8,0:0:0:0:
256,299,75561,1,8,0:0:0:0:
161,342,75674,5,12,0:0:0:0:
133,267,75786,1,4,0:0:0:0:
58,294,75899,1,4,0:0:0:0:
85,370,76012,1,4,0:0:0:0:
229,194,76125,38,0,B|221:162|221:162|213:156|213:156|207:132|207:132|211:122|211:122|199:72|199:72|202:65|202:65|195:39|195:39|188:35|188:35|176:-15,1,200,6|0,0:0|0:0,0:0:0:0:
214,194,76350,2,0,B|206:162|206:162|198:156|198:156|192:132|192:132|196:122|196:122|184:72|184:72|187:65|187:65|180:39|180:39|173:35|173:35|161:-15,1,200,2|12,0:0|0:0,0:0:0:0:
41,113,76576,1,2,0:0:0:0:
11,32,76689,1,12,0:0:0:0:
120,173,76801,1,2,0:0:0:0:
21,26,76914,1,12,0:0:0:0:
11,243,77027,6,0,B|94:278|94:278|191:267,1,160,2|12,0:0|0:0,0:0:0:0:
380,173,77253,1,2,0:0:0:0:
330,374,77365,2,0,B|281:328|281:328|276:263|276:263|288:296,1,160,12|2,0:0|0:0,0:0:0:0:
151,373,77591,1,12,0:0:0:0:
193,247,77704,1,2,0:0:0:0:
191,239,77760,1,2,0:0:0:0:
189,231,77816,1,12,0:0:0:0:
360,264,77929,5,2,0:0:0:0:
291,153,78042,2,0,B|306:62|306:62|341:4,1,160,12|2,0:0|0:0,0:0:0:0:
194,156,78268,2,0,B|169:67|169:67|176:0,1,160,12|2,0:0|0:0,0:0:0:0:
104,196,78493,2,0,B|43:126|43:126|21:61,1,160,12|2,0:0|0:0,0:0:0:0:
208,78,78719,1,12,0:0:0:0:
198,244,78832,5,2,0:0:0:0:
272,197,78944,1,12,0:0:0:0:
194,156,79057,1,2,0:0:0:0:
129,303,79170,2,0,B|218:280|218:280|334:326,1,160,12|2,0:0|0:0,0:0:0:0:
507,302,79395,1,4,0:0:0:0:
507,302,79508,2,0,B|445:198|445:198|511:219,1,160,2|12,0:0|0:0,0:0:0:0:
374,337,79734,38,0,B|406:293|363:247|363:244|363:241|312:190|388:106,1,200,6|8,0:0|0:0,0:0:0:0:
361,339,79959,2,0,B|393:295|350:249|350:246|350:243|299:192|375:108,1,200,2|12,0:0|0:0,0:0:0:0:
284,12,80185,1,2,0:0:0:0:
371,31,80298,1,12,0:0:0:0:
241,94,80410,1,2,0:0:0:0:
378,45,80523,1,12,0:0:0:0:
264,189,80636,6,0,B|184:215|184:215|86:196,1,160,2|12,0:0|0:0,0:0:0:0:
0,47,80862,1,2,0:0:0:0:
183,0,80974,2,0,B|198:68|198:68|178:129|178:129|174:94,1,160,12|2,0:0|0:0,0:0:0:0:
284,12,81200,1,12,0:0:0:0:
291,156,81313,1,2,0:0:0:0:
293,163,81369,1,2,0:0:0:0:
295,170,81425,1,12,0:0:0:0:
458,89,81538,6,0,B|434:167|434:167|456:276,1,160,6|8,0:0|0:0,0:0:0:0:
344,369,81764,1,8,0:0:0:0:
337,364,81820,1,8,0:0:0:0:
330,359,81877,1,8,0:0:0:0:
323,354,81933,1,8,0:0:0:0:
316,349,81989,5,2,0:0:0:0:
215,208,82102,2,0,B|232:294|232:294|213:369,2,160,8|6|8,0:0|0:0|0:0,0:0:0:0:
36,165,82441,37,6,0:0:0:0:
136,289,82553,1,8,0:0:0:0:
128,249,82610,1,8,0:0:0:0:
120,209,82666,1,8,0:0:0:0:
201,122,82779,1,0,0:0:0:0:
298,203,82892,5,2,0:0:0:0:
300,195,82948,1,2,0:0:0:0:
302,187,83004,1,2,0:0:0:0:
304,179,83061,1,2,0:0:0:0:
306,171,83117,2,0,B|307:155|299:134|299:134|294:203|351:261,1,160,12|0,0:0|0:0,0:0:0:0:
495,336,83343,5,6,0:0:0:0:
234,43,83568,5,0,0:0:0:0:
220,165,83681,1,12,0:0:0:0:
221,45,83794,37,0,0:0:0:0:
217,168,83907,1,12,0:0:0:0:
208,49,84019,5,0,0:0:0:0:
215,171,84132,1,12,0:0:0:0:
196,53,84245,5,0,0:0:0:0:
214,175,84358,1,12,0:0:0:0:
184,59,84471,5,0,0:0:0:0:
212,178,84584,1,12,0:0:0:0:
173,66,84696,37,0,0:0:0:0:
211,182,84809,1,12,0:0:0:0:
162,73,84922,5,0,0:0:0:0:
211,186,85035,1,12,0:0:0:0:
152,82,85147,5,0,0:0:0:0:
211,190,85260,1,12,0:0:0:0:
143,92,85373,5,0,0:0:0:0:
211,194,85486,1,12,0:0:0:0:
135,102,85598,37,0,0:0:0:0:
211,198,85711,1,12,0:0:0:0:
127,113,85824,5,0,0:0:0:0:
212,202,85937,1,12,0:0:0:0:
121,124,86050,5,0,0:0:0:0:
213,206,86163,1,12,0:0:0:0:
81,202,86275,6,0,B|149:273|149:273|180:365,1,160,2|12,0:0|0:0,0:0:0:0:
348,359,86501,2,0,B|258:310|318:211|318:207|318:203|354:131|249:78|249:78|273:134|343:137,1,420.000016021729,6|0,0:0|2:0,0:0:0:0:
471,114,86952,37,6,0:0:0:0:
473,99,87065,1,12,0:0:0:0:
475,84,87177,1,2,0:0:0:0:
506,228,87290,2,0,B|435:216|435:216|386:238,1,120.000004577637,12|2,0:0|0:0,0:0:0:0:
279,374,87516,1,12,0:0:0:0:
185,198,87629,2,0,B|252:211|252:211|296:255,1,120.000004577637,2|12,0:0|0:0,0:0:0:0:
87,360,87854,6,0,B|110:278|90:237|90:237|84:264|91:283,1,160,2|12,0:0|0:0,0:0:0:0:
215,282,88080,2,0,B|208:197|175:165|175:165|179:192|192:208,1,160,2|12,0:0|0:0,0:0:0:0:
312,158,88305,2,0,B|276:80|235:61|235:61|247:86|265:96,1,160,2|12,0:0|0:0,0:0:0:0:
355,0,88531,1,2,0:0:0:0:
362,2,88587,1,2,0:0:0:0:
369,4,88644,1,12,0:0:0:0:
467,105,88756,5,8,0:0:0:0:
426,110,88813,1,8,0:0:0:0:
386,116,88869,1,6,0:0:0:0:
287,45,88982,1,0,0:0:0:0:
358,230,89095,2,0,B|310:275|302:334|302:334|318:317|326:301,1,160,12|2,0:0|0:0,0:0:0:0:
233,176,89320,1,12,0:0:0:0:
183,348,89433,5,8,0:0:0:0:
89,325,89546,1,4,0:0:0:0:
132,216,89659,37,2,0:0:0:0:
124,217,89715,1,2,0:0:0:0:
116,218,89771,1,8,0:0:0:0:
115,78,89884,5,8,0:0:0:0:
187,110,89997,1,8,0:0:0:0:
153,182,90110,1,4,0:0:0:0:
82,149,90222,1,4,0:0:0:0:
224,88,90335,5,2,0:0:0:0:
224,88,90448,1,2,0:0:0:0:
268,244,90561,6,0,B|326:258|326:258|367:234|367:234|464:258,1,160,6|2,0:0|0:0,0:0:0:0:
272,256,90786,2,0,B|330:270|330:270|371:246|371:246|468:270,1,160,14|2,0:0|0:0,0:0:0:0:
493,171,91012,1,2,0:0:0:0:
470,87,91125,1,2,0:0:0:0:
476,185,91238,1,14,0:0:0:0:
453,101,91350,1,2,0:0:0:0:
353,33,91463,38,0,B|342:93|342:93|334:95|334:95|321:162,1,120.000004577637,2|2,0:0|0:0,0:0:0:0:
353,309,91689,1,14,0:0:0:0:
272,256,91801,1,2,0:0:0:0:
177,275,91914,1,2,0:0:0:0:
129,358,92027,1,2,0:0:0:0:
35,268,92140,2,0,B|56:214|56:214|64:211|64:211|88:148,1,120.000004577637,14|2,0:0|0:0,0:0:0:0:
212,59,92365,5,2,0:0:0:0:
307,73,92478,1,2,0:0:0:0:
198,92,92591,2,0,B|258:101|258:101|261:109|261:109|324:119,1,120.000004577637,14|2,0:0|0:0,0:0:0:0:
412,206,92816,1,2,0:0:0:0:
336,265,92929,1,2,0:0:0:0:
440,227,93042,2,0,B|392:264|392:264|393:273|393:273|344:313,1,120.000004577637,14|2,0:0|0:0,0:0:0:0:
186,253,93268,5,0,0:0:0:0:
261,378,93380,2,0,B|245:325|245:325|237:321|237:321|218:252,1,120.000004577637,2|14,0:0|0:0,0:0:0:0:
56,145,93606,1,2,0:0:0:0:
150,162,93719,1,2,0:0:0:0:
88,235,93832,1,2,0:0:0:0:
130,88,93944,2,0,B|181:119|181:119|189:115|189:115|243:148,1,120.000004577637,14|2,0:0|0:0,0:0:0:0:
354,305,94170,6,0,B|373:258|373:258|385:253|385:253|401:207|401:207|395:197|395:197|418:130,1,160,2|2,0:0|0:0,0:0:0:0:
368,305,94395,2,0,B|387:258|387:258|399:253|399:253|415:207|415:207|409:197|409:197|432:130,1,160,14|2,0:0|0:0,0:0:0:0:
351,49,94621,1,2,0:0:0:0:
255,60,94734,1,2,0:0:0:0:
344,37,94847,1,14,0:0:0:0:
248,48,94960,1,2,0:0:0:0:
164,155,95072,38,0,B|148:209|148:209|140:213|140:213|123:272,1,120.000004577637,2|2,0:0|0:0,0:0:0:0:
219,355,95298,1,14,0:0:0:0:
288,289,95410,1,2,0:0:0:0:
384,293,95523,1,2,0:0:0:0:
440,371,95636,1,2,0:0:0:0:
512,265,95749,2,0,B|505:207|505:207|498:202|498:202|491:135,1,120.000004577637,14|2,0:0|0:0,0:0:0:0:
281,62,95974,5,12,0:0:0:0:
367,273,96087,2,0,B|380:186|380:186|350:101,1,160,0|2,0:0|0:0,0:0:0:0:
200,333,96313,2,0,B|265:266|265:266|280:177,1,160,8|2,0:0|0:0,0:0:0:0:
87,235,96538,1,2,0:0:0:0:
82,219,96595,1,2,0:0:0:0:
78,203,96651,2,0,L|144:164,1,51.999997619629,8|8,0:0|0:0,0:0:0:0:
241,173,96764,1,8,0:0:0:0:
119,63,96877,5,8,0:0:0:0:
194,0,96989,1,8,0:0:0:0:
208,96,97102,1,4,0:0:0:0:
87,75,97215,1,6,0:0:0:0:
54,89,97441,2,0,B|163:122|149:229|149:232|149:236|129:352|226:368|226:368|201:328|211:260,1,400,6|2,0:0|0:0,0:0:0:0:
298,190,97779,6,0,B|303:137|303:137|333:86|333:86|339:23,1,160,14|2,0:0|0:0,0:0:0:0:
310,190,98004,2,0,B|315:137|315:137|345:86|345:86|351:23,1,160,2|2,0:0|0:0,0:0:0:0:
480,144,98230,1,10,0:0:0:0:
434,228,98343,1,2,0:0:0:0:
446,323,98456,2,0,B|393:308|393:308|387:313|387:313|322:295,1,120.000004577637,2|2,0:0|0:0,0:0:0:0:
178,333,98681,37,10,0:0:0:0:
133,246,98794,1,2,0:0:0:0:
46,289,98907,1,2,0:0:0:0:
89,374,99019,1,2,0:0:0:0:
121,218,99132,5,10,0:0:0:0:
166,131,99245,1,2,0:0:0:0:
253,174,99358,1,2,0:0:0:0:
210,259,99470,1,2,0:0:0:0:
177,97,99583,6,0,B|234:86|234:86|241:90|241:90|313:75,1,120.000004577637,10|2,0:0|0:0,0:0:0:0:
364,12,99809,1,2,0:0:0:0:
387,105,99922,1,2,0:0:0:0:
479,0,100035,2,0,B|464:54|464:54|455:57|455:57|440:116,1,120.000004577637,10|2,0:0|0:0,0:0:0:0:
384,186,100260,1,2,0:0:0:0:
479,199,100373,1,2,0:0:0:0:
350,302,100486,5,10,0:0:0:0:
389,215,100598,1,2,0:0:0:0:
445,292,100711,1,2,0:0:0:0:
315,354,100824,2,0,B|301:293|301:293|294:290|294:290|281:223,1,120.000004577637,2|10,0:0|0:0,0:0:0:0:
118,211,101050,1,2,0:0:0:0:
197,253,101162,2,0,B|211:192|211:192|218:189|218:189|231:122,1,120.000004577637,6|2,0:0|0:0,0:0:0:0:
120,29,101388,38,0,B|104:57|104:57|105:69|105:69|71:127|71:127|58:134|58:134|40:167,1,160,14|2,0:0|0:0,0:0:0:0:
107,27,101613,2,0,B|91:55|91:55|92:67|92:67|58:125|58:125|45:132|45:132|27:165,1,160,2|2,0:0|0:0,0:0:0:0:
69,314,101839,1,10,0:0:0:0:
158,277,101952,1,2,0:0:0:0:
250,303,102065,2,0,B|278:252|278:252|276:241|276:241|314:169,1,120.000004577637,2|2,0:0|0:0,0:0:0:0:
453,120,102290,5,10,0:0:0:0:
360,95,102403,1,2,0:0:0:0:
385,3,102516,1,2,0:0:0:0:
477,27,102629,1,2,0:0:0:0:
316,111,102741,5,10,0:0:0:0:
220,119,102854,1,2,0:0:0:0:
212,24,102967,1,2,0:0:0:0:
306,15,103080,1,2,0:0:0:0:
191,150,103192,5,12,0:0:0:0:
444,209,103305,2,0,B|354:246|354:246|265:231,1,160,2|2,0:0|0:0,0:0:0:0:
452,36,103531,2,0,B|399:110|399:110|331:139,1,160,12|2,0:0|0:0,0:0:0:0:
132,46,103756,1,2,0:0:0:0:
108,207,103869,1,8,0:0:0:0:
23,70,103982,1,2,0:0:0:0:
135,103,104095,37,2,0:0:0:0:
6,217,104207,2,0,B|102:257|102:257|165:347,2,200,12|2|2,0:0|0:0|0:0,0:0:0:0:
241,188,104546,1,8,0:0:0:0:
86,299,104659,1,8,0:0:0:0:
296,271,104771,1,8,0:0:0:0:
78,164,104884,1,8,0:0:0:0:
328,372,104997,6,0,B|394:327|388:263|388:263|372:183|449:187|439:239|401:245,1,240.000009155274,14|2,0:0|0:0,0:0:0:0:
342,375,105222,2,0,B|403:324|392:261|392:261|369:182|446:180|440:232|403:242,1,240.000009155274,12|2,0:0|0:0,0:0:0:0:
356,376,105448,2,0,B|413:320|396:258|396:258|366:182|443:172|442:225|405:238,1,240.000009155274,12|2,0:0|0:0,0:0:0:0:
370,375,105674,2,0,B|422:314|399:254|399:254|363:181|438:164|442:217|407:233,1,240.000009155274,12|2,0:0|0:0,0:0:0:0:
293,284,105899,6,0,B|227:239|233:175|233:175|249:95|172:99|182:151|220:157,1,240.000009155274,14|2,0:0|0:0,0:0:0:0:
279,287,106125,2,0,B|217:236|228:173|228:173|251:94|174:92|180:144|217:154,1,240.000009155274,12|2,0:0|0:0,0:0:0:0:
265,288,106350,2,0,B|207:232|224:170|224:170|254:94|177:84|178:137|215:150,1,240.000009155274,12|2,0:0|0:0,0:0:0:0:
251,287,106576,2,0,B|198:226|221:166|221:166|257:93|182:76|178:129|213:145,1,240.000009155274,12|2,0:0|0:0,0:0:0:0:
332,206,106801,6,0,L|372:91,1,120.000004577637,6|2,0:0|0:0,0:0:0:0:
386,67,107027,2,0,L|378:187,1,120.000004577637,14|2,0:0|0:0,0:0:0:0:
417,156,107253,2,0,L|394:36,1,120.000004577637,2|2,0:0|0:0,0:0:0:0:
393,6,107478,2,0,L|446:115,1,120.000004577637,14|2,0:0|0:0,0:0:0:0:
512,186,107704,37,2,0:0:0:0:
512,186,107816,1,2,0:0:0:0:
512,186,107929,2,0,L|373:220,1,120.000004577637,14|2,0:0|0:0,0:0:0:0:
361,251,108155,2,0,L|481:254,1,120.000004577637,2|2,0:0|0:0,0:0:0:0:
433,311,108380,2,0,L|295:270,1,120.000004577637,14|2,0:0|0:0,0:0:0:0:
273,194,108606,5,2,0:0:0:0:
273,194,108719,1,2,0:0:0:0:
273,194,108832,2,0,L|233:78,1,120.000004577637,14|2,0:0|0:0,0:0:0:0:
217,56,109057,2,0,L|285:156,1,120.000004577637,2|2,0:0|0:0,0:0:0:0:
286,116,109283,2,0,L|193:35,1,120.000004577637,14|2,0:0|0:0,0:0:0:0:
107,52,109508,5,2,0:0:0:0:
107,52,109621,1,2,0:0:0:0:
107,52,109734,2,0,L|78:188,1,120.000004577637,14|2,0:0|0:0,0:0:0:0:
128,267,109959,5,8,0:0:0:0:
129,272,110016,1,8,0:0:0:0:
130,277,110072,1,8,0:0:0:0:
131,282,110129,1,8,0:0:0:0:
132,287,110185,1,8,0:0:0:0:
216,228,110298,1,2,0:0:0:0:
211,123,110410,38,0,B|268:81|268:81|314:71|314:71|353:78|353:78|382:59|382:59|351:49|351:49|324:63,1,240.000009155274,14|2,0:0|0:0,0:0:0:0:
219,132,110636,2,0,B|273:86|273:86|318:71|318:71|356:75|356:75|383:53|383:53|352:46|352:46|326:62,1,240.000009155274,12|2,0:0|0:0,0:0:0:0:
227,140,110862,2,0,B|276:89|276:89|320:71|320:71|359:71|359:71|384:47|384:47|352:43|352:43|328:61,1,240.000009155274,12|2,0:0|0:0,0:0:0:0:
236,148,111087,2,0,B|281:93|281:93|323:71|323:71|361:68|361:68|384:42|384:42|352:40|352:40|329:61,1,240.000009155274,12|2,0:0|0:0,0:0:0:0:
320,181,111313,6,0,B|377:222|377:222|423:232|423:232|462:225|462:225|491:244|491:244|460:254|460:254|433:240,1,240.000009155274,14|2,0:0|0:0,0:0:0:0:
328,172,111539,2,0,B|382:217|382:217|427:232|427:232|465:228|465:228|492:250|492:250|461:257|461:257|435:241,1,240.000009155274,12|2,0:0|0:0,0:0:0:0:
336,164,111763,2,0,B|385:214|385:214|429:232|429:232|468:232|468:232|493:256|493:256|461:260|461:260|437:242,1,240.000009155274,12|2,0:0|0:0,0:0:0:0:
345,156,111990,2,0,B|390:210|390:210|432:232|432:232|470:235|470:235|493:261|493:261|461:263|461:263|438:242,1,240.000009155274,12|2,0:0|0:0,0:0:0:0:
333,284,112215,6,0,L|216:261,1,120.000004577637,6|2,0:0|0:0,0:0:0:0:
184,250,112441,2,0,L|303:242,1,120.000004577637,14|2,0:0|0:0,0:0:0:0:
263,209,112666,2,0,L|150:247,1,120.000004577637,2|2,0:0|0:0,0:0:0:0:
117,254,112892,2,0,L|216:188,1,120.000004577637,14|2,0:0|0:0,0:0:0:0:
234,83,113117,5,2,0:0:0:0:
234,83,113230,1,2,0:0:0:0:
234,83,113343,2,0,L|350:122,1,120.000004577637,14|2,0:0|0:0,0:0:0:0:
377,141,113568,2,0,L|278:75,1,120.000004577637,2|2,0:0|0:0,0:0:0:0:
322,78,113794,2,0,L|402:169,1,120.000004577637,14|2,0:0|0:0,0:0:0:0:
386,295,114019,37,2,0:0:0:0:
386,295,114132,1,2,0:0:0:0:
386,295,114245,2,0,L|273:232,1,120.000004577637,14|2,0:0|0:0,0:0:0:0:
141,276,114471,5,8,0:0:0:0:
233,306,114583,1,8,0:0:0:0:
234,311,114640,1,8,0:0:0:0:
235,316,114696,1,8,0:0:0:0:
111,355,114809,1,8,0:0:0:0:
162,260,114922,5,2,0:0:0:0:
23,230,115035,1,8,0:0:0:0:
86,352,115147,1,8,0:0:0:0:
116,245,115260,1,8,0:0:0:0:
115,239,115316,1,8,0:0:0:0:
114,232,115373,5,4,0:0:0:0:
117,147,115486,1,4,0:0:0:0:
191,103,115598,1,4,0:0:0:0:
269,138,115711,1,2,0:0:0:0:
271,143,115768,1,2,0:0:0:0:
273,148,115824,37,12,0:0:0:0:
363,24,115937,1,2,0:0:0:0:
441,203,116050,1,8,0:0:0:0:
485,59,116162,1,2,0:0:0:0:
351,206,116275,1,12,0:0:0:0:
291,67,116388,1,2,0:0:0:0:
272,252,116501,1,12,0:0:0:0:
354,123,116613,1,2,0:0:0:0:
178,130,116726,5,12,0:0:0:0:
278,229,116839,1,2,0:0:0:0:
91,259,116952,1,12,0:0:0:0:
216,161,117065,1,2,0:0:0:0:
237,345,117177,1,12,0:0:0:0:
168,229,117290,1,2,0:0:0:0:
345,197,117403,1,12,0:0:0:0:
282,332,117516,1,2,0:0:0:0:
251,128,117629,6,0,B|324:149|324:149|392:117,1,120.000004577637,12|8,0:0|0:0,0:0:0:0:
367,125,117798,1,8,0:0:0:0:
370,120,117854,1,8,0:0:0:0:
381,21,117967,1,2,0:0:0:0:
265,95,118080,5,8,0:0:0:0:
265,89,118136,1,8,0:0:0:0:
265,83,118192,1,8,0:0:0:0:
234,0,118305,1,2,0:0:0:0:
167,122,118418,37,8,0:0:0:0:
167,116,118474,1,8,0:0:0:0:
167,110,118530,1,8,0:0:0:0:
198,27,118643,1,2,0:0:0:0:
106,48,118756,6,0,P|74:36|29:39,2,80.0000030517579,8|8|8,0:0|0:0|0:0,0:0:0:0:
97,165,118982,5,8,0:0:0:0:
265,95,119095,1,8,0:0:0:0:
169,233,119207,1,8,0:0:0:0:
106,48,119320,1,8,0:0:0:0:
106,48,119433,5,0,0:0:0:0:
106,48,122140,38,0,B|123:94|123:94|120:107|120:107|130:134|130:134|141:141|141:141|165:202|165:202|189:217|189:217|202:251|202:251|196:287|196:287|174:232,1,300,14|0,0:0|2:0,0:0:0:0:
212,178,122365,5,8,0:0:0:0:
229,167,122421,1,8,0:0:0:0:
248,161,122477,1,8,0:0:0:0:
268,159,122534,1,8,0:0:0:0:
287,162,122590,1,8,0:0:0:0:
373,267,122704,2,0,L|341:188,1,60.0000022888184,2|2,0:0|0:0,0:0:0:0:
416,51,122816,5,12,0:0:0:0:
416,51,123042,5,6,0:0:0:0:
419,82,123117,1,2,0:0:0:0:
404,110,123192,1,2,0:0:0:0:
372,117,123268,1,2,0:0:0:0:
343,101,123343,1,2,0:0:0:0:
311,97,123418,1,2,0:0:0:0:
282,110,123493,1,6,0:0:0:0:
263,136,123568,1,2,0:0:0:0:
263,168,123644,1,2,0:0:0:0:
279,195,123719,1,2,0:0:0:0:
307,208,123794,1,2,0:0:0:0:
338,204,123869,1,2,0:0:0:0:
365,188,123944,1,14,0:0:0:0:
377,158,124019,1,2,0:0:0:0:
400,135,124095,1,2,0:0:0:0:
431,134,124170,1,2,0:0:0:0:
459,148,124245,1,2,0:0:0:0:
470,177,124320,1,2,0:0:0:0:
463,208,124395,1,6,0:0:0:0:
440,231,124471,1,2,0:0:0:0:
408,237,124546,1,2,0:0:0:0:
383,256,124621,1,2,0:0:0:0:
373,286,124696,1,2,0:0:0:0:
384,315,124771,1,2,0:0:0:0:
411,331,124847,37,6,0:0:0:0:
405,288,124922,1,2,0:0:0:0:
373,259,124997,1,2,0:0:0:0:
330,252,125072,1,2,0:0:0:0:
293,274,125147,1,2,0:0:0:0:
276,313,125222,1,2,0:0:0:0:
239,335,125298,1,6,0:0:0:0:
196,328,125373,1,2,0:0:0:0:
169,295,125448,1,2,0:0:0:0:
169,252,125523,1,2,0:0:0:0:
198,220,125598,1,2,0:0:0:0:
240,214,125674,1,2,0:0:0:0:
269,183,125749,1,14,0:0:0:0:
269,140,125824,1,2,0:0:0:0:
241,107,125899,1,2,0:0:0:0:
198,105,125974,1,2,0:0:0:0:
162,130,126050,1,2,0:0:0:0:
119,130,126125,1,2,0:0:0:0:
85,103,126200,1,6,0:0:0:0:
79,60,126275,1,2,0:0:0:0:
103,24,126350,1,2,0:0:0:0:
144,17,126425,1,2,0:0:0:0:
181,39,126501,1,2,0:0:0:0:
193,79,126576,1,2,0:0:0:0:
177,118,126651,5,6,0:0:0:0:
225,96,126726,1,2,0:0:0:0:
273,118,126801,1,2,0:0:0:0:
284,170,126877,1,2,0:0:0:0:
252,212,126952,1,2,0:0:0:0:
199,218,127027,1,2,0:0:0:0:
152,192,127102,1,6,0:0:0:0:
99,200,127177,1,2,0:0:0:0:
66,242,127253,1,2,0:0:0:0:
71,294,127328,1,2,0:0:0:0:
108,332,127403,1,2,0:0:0:0:
160,337,127478,1,2,0:0:0:0:
200,302,127553,1,14,0:0:0:0:
253,296,127629,1,2,0:0:0:0:
301,318,127704,1,2,0:0:0:0:
323,366,127779,1,2,0:0:0:0:
373,381,127854,1,2,0:0:0:0:
419,355,127929,1,2,0:0:0:0:
426,302,128004,1,6,0:0:0:0:
390,261,128080,1,2,0:0:0:0:
336,262,128155,1,2,0:0:0:0:
290,233,128230,1,2,0:0:0:0:
275,181,128305,1,2,0:0:0:0:
297,132,128380,1,2,0:0:0:0:
349,120,128455,6,0,B|294:211|205:177|202:177|199:177|104:146|81:232|81:232|106:231|127:185,1,352.000010742188,14|0,0:0|0:0,0:0:0:0:
110,101,128794,1,2,0:0:0:0:
178,287,128907,5,12,0:0:0:0:
178,287,129132,2,0,B|159:377|159:377|138:312,1,120.000004577637,2|2,0:0|0:0,0:0:0:0:
309,267,129358,37,8,0:0:0:0:
296,221,129414,1,8,0:0:0:0:
282,174,129471,1,8,0:0:0:0:
383,179,129583,1,2,0:0:0:0:
190,204,129696,1,8,0:0:0:0:
236,94,129809,5,8,0:0:0:0:
237,86,129865,1,8,0:0:0:0:
238,77,129922,1,8,0:0:0:0:
168,15,130035,1,4,0:0:0:0:
141,110,130147,1,4,0:0:0:0:
55,35,130260,5,14,0:0:0:0:
55,35,130486,2,0,B|23:175|23:175|39:272,1,200,12|2,0:0|0:0,0:0:0:0:
232,366,130711,2,0,B|133:262|133:262|110:166,1,200,12|2,0:0|0:0,0:0:0:0:
246,0,130937,2,0,B|211:150|211:150|230:237,1,200,12|2,0:0|0:0,0:0:0:0:
448,343,131162,5,12,0:0:0:0:
335,262,131275,1,2,0:0:0:0:
448,343,131388,2,0,B|351:249|351:249|256:223,1,200,12|2,0:0|0:0,0:0:0:0:
68,246,131613,2,0,B|165:151|165:151|266:133,1,200,12|2,0:0|0:0,0:0:0:0:
440,154,131839,2,0,B|344:57|344:57|239:36,1,200,12|2,0:0|0:0,0:0:0:0:
96,99,132065,37,12,0:0:0:0:
219,159,132177,1,2,0:0:0:0:
96,99,132290,2,0,B|198:189|198:189|230:278,1,200,12|2,0:0|0:0,0:0:0:0:
325,372,132516,2,0,B|344:244|344:244|317:158,1,200,12|2,0:0|0:0,0:0:0:0:
311,8,132741,2,0,B|419:98|419:98|451:187,1,200,12|2,0:0|0:0,0:0:0:0:
282,383,132967,6,0,B|181:357|181:357|78:279,1,200,12|2,0:0|0:0,0:0:0:0:
105,26,133192,2,0,B|211:54|211:54|309:130,1,200,12|2,3:0|3:0,3:0:0:0:
237,384,133418,2,0,B|139:328|139:328|66:230,1,200,12|2,3:0|3:0,3:0:0:0:
149,4,133643,2,0,B|244:59|244:59|319:157,1,200,12|2,3:0|3:0,3:0:0:0:
492,353,133869,5,12,0:0:0:0:
420,169,133982,1,2,0:0:0:0:
458,177,134038,1,2,0:0:0:0:
497,187,134095,6,0,B|470:290|470:290|400:364,1,200,12|2,0:0|0:0,0:0:0:0:
349,289,134264,1,2,0:0:0:0:
402,283,134320,38,0,B|327:358|327:358|221:388,1,200,12|2,0:0|0:0,0:0:0:0:
233,308,134490,1,2,0:0:0:0:
284,319,134545,6,0,B|181:347|181:347|80:320,1,200,12|2,0:0|0:0,0:0:0:0:
124,227,134715,1,2,0:0:0:0:
156,277,134771,6,0,B|113:265|113:265|320:207,1,200,12|2,0:0|0:0,0:0:0:0:
406,249,134941,1,2,0:0:0:0:
385,301,134997,6,0,B|368:342|368:342|344:129,1,200,12|2,0:0|0:0,0:0:0:0:
384,62,135166,1,2,0:0:0:0:
433,91,135222,38,0,B|470:114|470:114|262:100,1,200,12|2,0:0|0:0,0:0:0:0:
198,73,135392,1,2,0:0:0:0:
233,26,135448,6,0,B|262:-7|262:-7|210:194,1,200,12|2,0:0|0:0,0:0:0:0:
156,277,135617,1,2,0:0:0:0:
124,227,135674,5,12,0:0:0:0:
275,255,135786,1,2,0:0:0:0:
267,304,135843,1,2,0:0:0:0:
259,353,135899,5,12,0:0:0:0:
337,195,136012,1,2,0:0:0:0:
362,238,136069,1,2,0:0:0:0:
387,280,136125,37,12,0:0:0:0:
345,109,136237,1,2,0:0:0:0:
392,124,136294,1,2,0:0:0:0:
438,140,136350,5,12,0:0:0:0:
296,38,136463,1,2,0:0:0:0:
343,20,136520,1,2,0:0:0:0:
389,3,136576,5,12,0:0:0:0:
242,121,136689,1,2,0:0:0:0:
195,105,136744,1,2,0:0:0:0:
146,86,136802,5,12,0:0:0:0:
244,231,136914,1,2,0:0:0:0:
291,213,136971,1,2,0:0:0:0:
337,195,137027,37,12,0:0:0:0:
259,344,137140,1,2,0:0:0:0:
212,327,137196,1,2,0:0:0:0:
164,312,137253,5,8,0:0:0:0:
167,323,137309,1,8,0:0:0:0:
170,334,137365,1,2,0:0:0:0:
173,345,137422,1,2,0:0:0:0:
176,356,137478,5,12,0:0:0:0:
305,319,137591,2,0,L|235:291,1,60.0000022888184,8|8,0:0|0:0,0:0:0:0:
170,150,137704,5,12,0:0:0:0:
253,121,137816,1,2,0:0:0:0:
239,208,137929,37,8,0:0:0:0:
223,225,137985,1,8,0:0:0:0:
202,236,138041,1,2,0:0:0:0:
178,241,138098,1,2,0:0:0:0:
155,239,138155,1,4,0:0:0:0:
131,236,138211,1,4,0:0:0:0:
107,241,138267,1,2,0:0:0:0:
86,253,138324,1,2,0:0:0:0:
70,270,138380,5,8,0:0:0:0:
70,270,139283,6,0,L|79:208,1,60,14|0,0:0|2:0,0:0:0:0:
46,165,140185,5,8,0:0:0:0:
87,173,140241,1,8,0:0:0:0:
128,182,140297,1,8,0:0:0:0:
169,191,140354,1,8,0:0:0:0:
210,200,140410,37,8,0:0:0:0:
207,194,140466,1,8,0:0:0:0:
205,188,140522,1,4,0:0:0:0:
203,183,140579,1,4,0:0:0:0:
201,177,140636,5,8,0:0:0:0:
242,185,140692,1,8,0:0:0:0:
283,194,140748,1,8,0:0:0:0:
324,203,140805,1,8,0:0:0:0:
365,212,140862,5,2,0:0:0:0:
362,206,140918,1,2,0:0:0:0:
360,200,140974,1,2,0:0:0:0:
358,195,141031,1,2,0:0:0:0:
356,189,141087,5,6,0:0:0:0:
356,189,141313,2,0,B|366:238|341:263|339:267|336:271|311:295|329:362,1,160,2|12,0:0|0:0,0:0:0:0:
111,366,141538,1,2,0:0:0:0:
221,214,141651,1,12,0:0:0:0:
53,219,141764,1,2,0:0:0:0:
213,313,141877,1,12,0:0:0:0:
138,153,141989,37,2,0:0:0:0:
90,293,142102,1,12,0:0:0:0:
221,214,142215,2,0,B|227:141|227:141|220:135|220:135|225:52,1,160,2|12,0:0|0:0,0:0:0:0:
356,249,142441,2,0,B|350:176|350:176|357:170|357:170|352:87,1,160,2|12,0:0|0:0,0:0:0:0:
484,252,142666,1,2,0:0:0:0:
486,259,142722,1,2,0:0:0:0:
488,266,142779,1,12,0:0:0:0:
512,132,142892,6,0,B|439:157|439:157|430:153|430:153|341:182,1,160,2|12,0:0|0:0,0:0:0:0:
340,40,143117,1,2,0:0:0:0:
270,130,143230,1,12,0:0:0:0:
195,0,143343,2,0,B|186:76|186:76|179:83|179:83|168:176,1,160,2|12,3:0|3:0,3:0:0:0:
43,119,143568,1,2,0:0:0:0:
121,238,143681,1,12,0:0:0:0:
0,340,143794,6,0,B|78:333|78:333|82:341|82:341|198:331,1,160,2|12,0:0|0:0,0:0:0:0:
182,174,144019,1,2,0:0:0:0:
342,308,144132,2,0,B|264:301|264:301|260:309|260:309|144:299,1,160,12|2,0:0|0:0,0:0:0:0:
170,155,144357,1,12,0:0:0:0:
49,238,144471,1,2,0:0:0:0:
187,302,144583,1,12,0:0:0:0:
95,135,144696,5,8,0:0:0:0:
112,89,144753,1,8,0:0:0:0:
129,44,144809,1,4,0:0:0:0:
10,81,144922,1,2,0:0:0:0:
197,152,145035,2,0,B|233:93|219:40|219:40|206:60|205:86,1,160,12|2,0:0|0:0,0:0:0:0:
356,186,145260,1,12,0:0:0:0:
269,47,145373,1,2,0:0:0:0:
424,74,145486,1,8,0:0:0:0:
230,173,145598,37,2,0:0:0:0:
229,181,145655,1,2,0:0:0:0:
228,188,145711,1,8,0:0:0:0:
329,227,145824,5,8,0:0:0:0:
344,325,145937,1,8,0:0:0:0:
232,361,146050,5,4,0:0:0:0:
210,282,146162,1,4,0:0:0:0:
132,303,146275,1,4,0:0:0:0:
154,380,146388,1,4,0:0:0:0:
232,361,146501,5,4,0:0:0:0:
232,361,146726,1,12,0:0:0:0:
210,282,146839,2,0,P|166:229|72:244,1,160,2|0,0:0|0:0,0:0:0:0:
169,182,147177,1,12,0:0:0:0:
169,182,147403,37,0,0:0:0:0:
139,107,147516,1,2,0:0:0:0:
169,182,147629,2,0,P|245:192|297:136,1,160,12|2,0:0|0:0,0:0:0:0:
297,136,148080,1,12,0:0:0:0:
339,68,148192,1,2,0:0:0:0:
417,51,148305,6,0,P|462:65|495:99,1,95.9999970703126,2|0,0:0|0:0,0:0:0:0:
418,136,148531,2,0,P|443:176|446:223,1,95.9999970703126,12|2,0:0|0:0,0:0:0:0:
268,315,148756,6,0,P|311:275|324:218,1,120.000004577637
225,224,148982,2,0,P|221:165|187:118,1,120.000004577637,12|0,0:0|0:0,0:0:0:0:
61,144,149207,5,0,0:0:0:0:
101,213,149320,1,2,0:0:0:0:
61,144,149433,2,0,P|58:88|94:40,1,80,12|0,0:0|0:0,0:0:0:0:
128,14,149659,1,0,0:0:0:0:
128,14,149884,2,0,P|172:40|219:36,1,80,12|2,0:0|0:0,0:0:0:0:
329,16,150110,37,2,0:0:0:0:
275,74,150222,1,2,0:0:0:0:
297,150,150335,1,14,0:0:0:0:
375,163,150448,1,2,0:0:0:0:
427,223,150561,1,2,0:0:0:0:
409,301,150674,1,2,0:0:0:0:
340,341,150786,1,14,0:0:0:0:
263,317,150899,1,2,0:0:0:0:
232,243,151012,1,2,0:0:0:0:
263,169,151125,1,2,0:0:0:0:
228,96,151238,1,14,0:0:0:0:
149,82,151350,1,2,0:0:0:0:
88,134,151463,5,2,0:0:0:0:
87,142,151576,1,2,0:0:0:0:
86,150,151689,1,10,0:0:0:0:
85,157,151801,1,2,0:0:0:0:
182,223,151914,5,6,0:0:0:0:
204,137,152027,1,2,0:0:0:0:
288,110,152140,1,10,0:0:0:0:
353,168,152253,1,2,0:0:0:0:
339,254,152365,1,6,0:0:0:0:
405,311,152478,1,2,0:0:0:0:
488,282,152591,1,10,0:0:0:0:
509,196,152704,1,2,0:0:0:0:
442,139,152816,6,0,L|346:129,1,80,6|2,0:0|0:0,0:0:0:0:
380,218,153042,1,10,0:0:0:0:
297,188,153155,1,2,0:0:0:0:
313,274,153268,2,0,L|217:264,1,80,6|2,0:0|0:0,0:0:0:0:
161,162,153493,2,0,L|173:218,1,40,12|8,0:0|0:0,0:0:0:0:
116,271,153606,1,2,0:0:0:0:
65,167,153719,38,0,P|82:109|152:65,1,120,10|0,0:0|2:0,0:0:0:0:
144,64,153945,1,8,0:0:0:0:
161,54,154001,1,8,0:0:0:0:
175,40,154056,1,8,0:0:0:0:
187,23,154114,1,8,0:0:0:0:
194,5,154170,5,8,0:0:0:0:
248,139,154283,1,2,0:0:0:0:
298,0,154395,5,8,0:0:0:0:
220,118,154508,1,2,0:0:0:0:
369,72,154621,5,8,0:0:0:0:
428,143,154734,1,8,0:0:0:0:
434,146,154789,1,8,0:0:0:0:
440,149,154847,1,8,0:0:0:0:
322,197,154959,1,8,0:0:0:0:
429,245,155072,37,2,0:0:0:0:
432,264,155128,1,2,0:0:0:0:
436,284,155184,1,8,0:0:0:0:
439,304,155241,1,8,0:0:0:0:
443,323,155297,5,4,0:0:0:0:
345,288,155410,1,4,0:0:0:0:
291,373,155523,6,0,L|171:340,1,124,6|0,0:0|2:0,0:0:0:0:
128,369,157328,5,8,0:0:0:0:
130,327,157384,1,8,0:0:0:0:
133,285,157441,37,2,0:0:0:0:
138,286,157497,1,2,0:0:0:0:
144,288,157553,1,8,0:0:0:0:
150,289,157610,1,8,0:0:0:0:
156,291,157666,1,2,0:0:0:0:
161,292,157722,1,2,0:0:0:0:
167,294,157779,5,8,0:0:0:0:
169,252,157835,1,8,0:0:0:0:
172,210,157892,5,2,0:0:0:0:
177,211,157948,1,2,0:0:0:0:
183,213,158004,1,8,0:0:0:0:
189,214,158061,1,8,0:0:0:0:
195,216,158117,1,2,0:0:0:0:
200,217,158173,1,2,0:0:0:0:
206,219,158230,6,0,L|184:125,1,60.0000022888184,8|8,0:0|0:0,0:0:0:0:
285,66,158343,2,0,L|263:160,1,60.0000022888184,8|8,0:0|0:0,0:0:0:0:
336,196,158456,37,8,0:0:0:0:
353,200,158512,1,8,0:0:0:0:
371,201,158568,1,8,0:0:0:0:
389,198,158625,1,8,0:0:0:0:
405,192,158681,5,2,0:0:0:0:
443,173,158738,2,0,B|426:237|426:237|443:306,1,120.000004577637,12|2,0:0|0:0,0:0:0:0:
424,347,158907,5,2,0:0:0:0:
409,336,158963,1,2,0:0:0:0:
393,329,159019,1,2,0:0:0:0:
375,325,159076,1,2,0:0:0:0:
357,326,159132,6,0,B|286:343|286:343|219:332|219:332|132:354,1,200,6|0,0:0|0:0,0:0:0:0:
354,312,159358,2,0,B|283:329|283:329|216:318|216:318|129:340,1,200,6|0,0:0|0:0,0:0:0:0:
162,226,160035,38,0,B|218:239|218:239|279:231|279:231|370:251,1,160,6|0,0:0|0:0,0:0:0:0:
165,213,160260,2,0,B|221:226|221:226|282:218|282:218|373:238,1,160,6|0,0:0|0:0,0:0:0:0:
361,113,160937,6,0,B|288:132|288:132|271:122|271:122|206:138,1,160,6|8,0:0|0:0,0:0:0:0:
169,125,161106,1,8,0:0:0:0:
131,113,161162,1,2,0:0:0:0:
185,248,161275,1,8,0:0:0:0:
72,219,161388,5,0,0:0:0:0:
109,331,161501,1,2,0:0:0:0:
185,248,161613,5,8,0:0:0:0:
222,360,161726,1,8,0:0:0:0:
314,237,161839,38,0,B|331:245|331:245|336:253|336:253|351:260,1,44,6|0,0:0|2:0,0:0:0:0:
430,220,162516,1,8,0:0:0:0:
430,220,162741,6,0,B|420:155|420:155|409:146|409:146|403:101|403:101|410:86|410:86|399:14,1,200,6|0,0:0|0:0,0:0:0:0:
413,219,162967,2,0,B|403:154|403:154|392:145|392:145|386:100|386:100|393:85|393:85|382:13,1,200,2|8,0:0|0:0,0:0:0:0:
202,17,163192,1,2,0:0:0:0:
291,46,163305,1,12,0:0:0:0:
153,109,163418,1,2,0:0:0:0:
286,33,163531,1,12,0:0:0:0:
224,215,163644,6,0,B|146:265|146:265|28:281,1,160,2|12,0:0|0:0,0:0:0:0:
333,199,163869,2,0,B|305:287|305:287|225:375,1,160,2|12,0:0|0:0,0:0:0:0:
394,110,164095,1,2,0:0:0:0:
452,245,164207,1,12,0:0:0:0:
495,120,164320,1,2,0:0:0:0:
496,112,164377,1,2,0:0:0:0:
498,104,164433,1,12,0:0:0:0:
333,199,164546,5,0,0:0:0:0:
298,42,164659,2,0,B|373:61|373:61|425:48|425:48|511:70,1,200,12|2,0:0|0:0,0:0:0:0:
232,185,164884,2,0,B|307:166|307:166|359:179|359:179|445:157,1,200,12|2,0:0|0:0,0:0:0:0:
183,36,165110,1,12,0:0:0:0:
150,175,165222,1,2,0:0:0:0:
287,133,165335,1,12,0:0:0:0:
62,105,165448,37,2,0:0:0:0:
62,105,165561,2,0,B|111:192|111:192|106:202|106:202|165:306,1,200,12|2,0:0|0:0,0:0:0:0:
365,300,165786,1,12,0:0:0:0:
287,133,165899,1,2,0:0:0:0:
253,333,166012,2,0,B|284:241|284:241|294:240|294:240|328:132,2,200,12|2|12,0:0|0:0|0:0,0:0:0:0:
160,116,166350,6,0,B|195:95|195:95|196:87|196:87|208:80|208:80|219:81|219:81|269:52|269:52|275:56|275:56|294:45|294:45|295:37|295:37|323:21,1,200,6|8,0:0|0:0,0:0:0:0:
170,124,166576,2,0,B|205:103|205:103|206:95|206:95|218:88|218:88|229:89|229:89|279:60|279:60|285:64|285:64|304:53|304:53|305:45|305:45|333:29,1,200,2|12,0:0|0:0,0:0:0:0:
488,113,166801,1,2,0:0:0:0:
427,26,166914,1,12,0:0:0:0:
409,161,167027,1,2,0:0:0:0:
413,24,167140,1,12,0:0:0:0:
321,151,167253,6,0,B|308:237|308:237|352:366,1,160,2|12,0:0|0:0,0:0:0:0:
512,346,167478,1,2,0:0:0:0:
472,167,167591,2,0,B|466:127|466:127|447:179|447:179|464:261,1,160,12|2,0:0|0:0,0:0:0:0:
381,374,167816,1,12,0:0:0:0:
285,239,167929,1,2,0:0:0:0:
285,230,167986,1,2,0:0:0:0:
285,222,168042,1,12,0:0:0:0:
220,362,168155,5,8,0:0:0:0:
212,314,168211,1,8,0:0:0:0:
204,266,168268,1,2,0:0:0:0:
331,306,168380,1,0,0:0:0:0:
116,368,168493,2,0,B|75:284|29:287|29:287|37:313|61:308,1,160,12|2,0:0|0:0,0:0:0:0:
163,165,168719,2,0,B|239:144|283:188|283:188|255:189|246:178,2,160,12|2|8,0:0|0:0|0:0,0:0:0:0:
86,33,169057,37,2,0:0:0:0:
88,25,169113,1,2,0:0:0:0:
91,17,169170,1,8,0:0:0:0:
188,69,169283,5,8,0:0:0:0:
190,77,169339,1,8,0:0:0:0:
193,85,169396,1,8,0:0:0:0:
286,15,169508,5,12,0:0:0:0:
366,8,169621,1,4,0:0:0:0:
373,87,169734,1,4,0:0:0:0:
293,94,169847,1,4,0:0:0:0:
463,37,169959,6,0,B|495:115|451:154|451:158|451:162|394:206|442:314,1,240.000009155274,12|2,0:0|0:0,0:0:0:0:
476,43,170185,2,0,B|508:121|464:160|464:164|464:168|407:212|455:320,1,240.000009155274,8|2,0:0|0:0,0:0:0:0:
236,363,170410,1,12,0:0:0:0:
339,240,170523,1,2,0:0:0:0:
148,238,170636,1,12,0:0:0:0:
311,330,170749,1,2,0:0:0:0:
238,152,170862,37,12,0:0:0:0:
162,287,170974,1,2,0:0:0:0:
72,113,171087,1,12,0:0:0:0:
41,254,171200,1,2,0:0:0:0:
208,134,171313,1,12,0:0:0:0:
53,152,171425,1,2,0:0:0:0:
234,248,171538,1,12,0:0:0:0:
146,88,171651,1,2,0:0:0:0:
366,126,171764,5,12,0:0:0:0:
279,271,171877,1,2,0:0:0:0:
276,261,171933,1,2,0:0:0:0:
273,251,171989,1,12,0:0:0:0:
411,228,172102,1,2,0:0:0:0:
235,125,172215,1,8,0:0:0:0:
393,105,172328,1,2,0:0:0:0:
396,95,172384,1,2,0:0:0:0:
399,85,172441,1,8,0:0:0:0:
505,163,172553,1,8,0:0:0:0:
508,173,172609,1,10,0:0:0:0:
511,183,172666,5,12,0:0:0:0:
366,126,172779,2,0,B|356:52|356:52|336:79,2,100,4|4|8,0:0|0:0|0:0,0:0:0:0:
334,268,173004,1,2,0:0:0:0:
230,86,173117,1,8,0:0:0:0:
144,303,173230,2,0,B|227:222|146:162|145:159|145:155|69:94|158:19|158:19|115:66|144:127,1,400,8|0,0:0|0:0,0:0:0:0:
265,196,173568,6,0,B|255:259|312:304|312:304|365:333|336:383|294:363|299:324,1,240.000009155274,14|2,0:0|0:0,0:0:0:0:
278,190,173794,2,0,B|262:251|315:301|315:301|365:335|332:382|292:358|300:320,1,240.000009155274,12|2,0:0|0:0,0:0:0:0:
291,185,174019,2,0,B|270:245|318:299|318:299|365:337|328:381|290:354|302:316,1,240.000009155274,12|2,0:0|0:0,0:0:0:0:
304,181,174245,2,0,B|278:239|321:297|321:297|365:339|324:380|288:349|303:313,1,240.000009155274,12|2,0:0|0:0,0:0:0:0:
416,246,174471,38,0,B|470:213|468:140|468:140|456:81|513:71|525:116|492:137,1,240.000009155274,14|2,0:0|0:0,0:0:0:0:
403,239,174695,2,0,B|460:211|464:138|464:138|457:78|515:73|523:119|488:137,1,240.000009155274,12|2,0:0|0:0,0:0:0:0:
390,233,174922,2,0,B|449:210|460:138|460:138|458:77|516:78|520:124|483:139,1,240.000009155274,12|2,0:0|0:0,0:0:0:0:
379,225,175148,2,0,B|440:207|457:136|457:136|460:76|518:81|518:128|480:140,1,240.000009155274,12|2,0:0|0:0,0:0:0:0:
357,130,175373,5,6,0:0:0:0:
352,118,175429,1,8,0:0:0:0:
347,107,175485,1,4,0:0:0:0:
343,96,175542,1,8,0:0:0:0:
338,85,175598,2,0,L|194:73,1,120.000004577637,12|2,0:0|0:0,0:0:0:0:
125,136,175824,5,8,0:0:0:0:
120,124,175880,1,8,0:0:0:0:
115,113,175937,1,2,0:0:0:0:
259,205,176050,6,0,B|233:248|233:248|218:295,2,96,8|4|8,0:0|0:0|0:0,0:0:0:0:
344,159,176839,1,8,0:0:0:0:
434,191,176952,1,4,0:0:0:0:
463,282,177065,1,4,0:0:0:0:
408,359,177177,37,2,0:0:0:0:
408,359,177290,1,2,0:0:0:0:
372,139,177403,2,0,B|396:94|396:94|429:58,2,96,12|6|2,0:0|0:0|0:0,0:0:0:0:
418,279,178192,1,8,0:0:0:0:
430,287,178418,1,8,0:0:0:0:
213,206,178531,5,8,0:0:0:0:
134,250,178644,1,8,0:0:0:0:
180,328,178756,1,4,0:0:0:0:
257,283,178869,1,2,0:0:0:0:
237,172,178982,6,0,L|227:93,3,60.0000022888184,8|8|4|4,0:0|0:0|0:0|0:0,0:0:0:0:
169,55,179207,1,2,0:0:0:0:
184,42,179263,1,2,0:0:0:0:
202,34,179320,1,8,0:0:0:0:
222,30,179376,1,8,0:0:0:0:
242,30,179433,1,4,0:0:0:0:
262,30,179489,1,4,0:0:0:0:
282,26,179546,1,2,0:0:0:0:
300,18,179602,1,2,0:0:0:0:
316,6,179659,5,8,0:0:0:0:
308,46,179715,1,8,0:0:0:0:
324,85,179771,1,8,0:0:0:0:
358,108,179828,1,8,0:0:0:0:
399,110,179884,37,6,0:0:0:0:
399,110,180110,1,10,0:0:0:0:
355,92,180166,1,8,0:0:0:0:
309,103,180222,1,8,0:0:0:0:
278,139,180279,1,8,0:0:0:0:
274,186,180335,5,2,0:0:0:0:
167,162,180448,1,8,0:0:0:0:
201,265,180561,5,2,0:0:0:0:
200,270,180617,1,8,0:0:0:0:
199,276,180673,1,8,0:0:0:0:
199,282,180730,1,8,0:0:0:0:
198,288,180787,5,6,0:0:0:0:
191,273,180842,1,8,0:0:0:0:
186,258,180899,1,2,0:0:0:0:
185,242,180955,1,8,0:0:0:0:
188,226,181012,1,6,0:0:0:0:
193,211,181067,1,8,0:0:0:0:
201,197,181125,1,2,0:0:0:0:
212,185,181180,1,8,0:0:0:0:
224,175,181238,1,6,0:0:0:0:
239,168,181293,1,8,0:0:0:0:
254,164,181350,1,2,0:0:0:0:
270,163,181406,1,8,0:0:0:0:
286,166,181462,1,6,0:0:0:0:
301,171,181518,1,8,0:0:0:0:
315,179,181575,1,2,0:0:0:0:
327,190,181632,1,8,0:0:0:0:
339,200,181689,37,6,0:0:0:0:
353,208,181744,1,8,0:0:0:0:
368,213,181802,1,2,0:0:0:0:
384,215,181857,1,8,0:0:0:0:
400,214,181914,1,6,0:0:0:0:
415,210,181970,1,8,0:0:0:0:
430,203,182027,1,2,0:0:0:0:
442,194,182083,1,8,0:0:0:0:
453,182,182140,2,0,L|469:131,3,40,6|8|2|8,0:0|0:0|0:0|0:0,0:0:0:0:
390,100,182365,2,0,L|392:46,3,40,6|8|2|8,0:0|0:0|0:0|0:0,0:0:0:0:
264,123,182591,5,6,0:0:0:0:
250,142,182646,1,8,0:0:0:0:
242,165,182703,1,2,0:0:0:0:
239,188,182759,1,8,0:0:0:0:
243,212,182816,1,6,0:0:0:0:
253,234,182873,1,8,0:0:0:0:
260,256,182928,1,2,0:0:0:0:
262,280,182986,1,8,0:0:0:0:
258,304,183041,1,6,0:0:0:0:
248,326,183097,1,8,0:0:0:0:
234,345,183155,1,2,0:0:0:0:
215,359,183210,1,8,0:0:0:0:
193,369,183268,1,6,0:0:0:0:
169,374,183324,1,8,0:0:0:0:
146,372,183381,1,2,0:0:0:0:
123,365,183437,1,8,0:0:0:0:
102,352,183492,5,6,0:0:0:0:
86,335,183550,1,8,0:0:0:0:
74,314,183605,1,2,0:0:0:0:
67,291,183663,1,8,0:0:0:0:
66,268,183719,1,6,0:0:0:0:
71,244,183774,1,8,0:0:0:0:
81,223,183832,1,2,0:0:0:0:
97,204,183887,1,8,0:0:0:0:
116,190,183944,2,0,L|174:165,3,40,6|8|2|8,0:0|0:0|0:0|0:0,0:0:0:0:
163,83,184170,2,0,L|223:100,3,40,6|8|2|8,0:0|0:0|0:0|0:0,0:0:0:0:
236,203,184395,5,6,0:0:0:0:
253,229,184451,1,8,0:0:0:0:
280,247,184507,1,2,0:0:0:0:
311,252,184564,1,8,0:0:0:0:
342,245,184620,1,6,0:0:0:0:
367,226,184676,1,8,0:0:0:0:
393,206,184734,1,2,0:0:0:0:
424,198,184790,1,8,0:0:0:0:
455,203,184847,1,6,0:0:0:0:
482,219,184903,1,8,0:0:0:0:
502,244,184959,1,2,0:0:0:0:
510,275,185016,1,8,0:0:0:0:
506,306,185072,1,6,0:0:0:0:
491,334,185129,1,8,0:0:0:0:
466,354,185185,1,2,0:0:0:0:
436,363,185241,1,8,0:0:0:0:
404,360,185298,37,6,0:0:0:0:
376,345,185354,1,8,0:0:0:0:
355,321,185410,1,2,0:0:0:0:
330,301,185466,1,8,0:0:0:0:
299,291,185522,1,6,0:0:0:0:
267,291,185579,1,8,0:0:0:0:
237,301,185635,1,2,0:0:0:0:
212,320,185691,1,8,0:0:0:0:
194,347,185749,2,0,L|168:396,3,40,6|8|2|8,0:0|0:0|0:0|0:0,0:0:0:0:
92,317,185974,2,0,L|33:341,3,40,6|8|2|8,0:0|0:0|0:0|0:0,0:0:0:0:
106,193,186200,5,6,0:0:0:0:
123,228,186256,1,8,0:0:0:0:
154,253,186312,1,2,0:0:0:0:
193,263,186369,1,8,0:0:0:0:
232,255,186425,1,6,0:0:0:0:
264,232,186481,1,8,0:0:0:0:
284,198,186538,1,2,0:0:0:0:
288,159,186595,1,8,0:0:0:0:
277,120,186651,1,6,0:0:0:0:
280,81,186707,1,8,0:0:0:0:
298,45,186764,1,2,0:0:0:0:
327,18,186820,1,8,0:0:0:0:
364,3,186876,1,6,0:0:0:0:
403,2,186933,1,8,0:0:0:0:
441,16,186989,1,2,0:0:0:0:
471,42,187046,1,8,0:0:0:0:
489,77,187102,5,6,0:0:0:0:
494,117,187158,1,8,0:0:0:0:
485,155,187215,1,2,0:0:0:0:
462,188,187271,1,8,0:0:0:0:
429,210,187328,1,6,0:0:0:0:
390,219,187384,1,8,0:0:0:0:
351,213,187440,1,2,0:0:0:0:
316,192,187497,1,8,0:0:0:0:
288,159,187553,2,0,L|268:110,3,40,6|8|2|8,0:0|0:0|0:0|0:0,0:0:0:0:
212,238,187779,5,2,0:0:0:0:
211,241,187835,1,2,0:0:0:0:
210,245,187891,1,2,0:0:0:0:
209,249,187948,1,2,0:0:0:0:
209,253,188004,37,12,0:0:0:0:
209,253,188230,2,0,B|150:155|150:155|139:24,1,216.000000823975,12|2,0:0|0:0,0:0:0:0:
385,0,188456,2,0,B|312:102|312:102|295:207,1,216.000000823975,12|2,0:0|0:0,0:0:0:0:
512,295,188681,2,0,B|453:197|453:197|442:62,1,216.000000823975,12|2,0:0|0:0,0:0:0:0:
212,0,188907,5,12,0:0:0:0:
312,102,189019,1,2,0:0:0:0:
212,0,189132,2,0,B|331:91|331:91|374:182,1,216.000000823975,12|2,0:0|0:0,0:0:0:0:
275,384,189358,2,0,B|289:234|289:234|249:141,1,216.000000823975,12|2,0:0|0:0,0:0:0:0:
39,66,189583,2,0,B|158:157|158:157|198:249,1,216.000000823975,12|2,0:0|0:0,0:0:0:0:
24,378,189809,5,12,0:0:0:0:
178,356,189922,1,2,0:0:0:0:
24,378,190035,2,0,B|150:322|150:322|252:337,1,216.000000823975,12|2,0:0|0:0,0:0:0:0:
504,286,190260,2,0,B|376:230|376:230|276:245,1,216.000000823975,12|2,0:0|0:0,0:0:0:0:
28,193,190486,2,0,B|155:137|155:137|256:152,1,216.000000823975,12|2,0:0|0:0,0:0:0:0:
504,286,190711,6,0,B|417:368|417:368|295:388,1,216.000000823975,12|2,0:0|0:0,0:0:0:0:
165,123,190937,2,0,B|254:40|254:40|374:21,1,216.000000823975,12|2,0:0|0:0,0:0:0:0:
475,324,191162,2,0,B|367:379|367:379|246:368,1,216.000000823975,12|2,0:0|0:0,0:0:0:0:
186,63,191388,2,0,B|292:9|292:9|414:18,1,216.000000823975,12|2,0:0|0:0,0:0:0:0:
509,251,191613,37,12,0:0:0:0:
384,93,191726,1,2,0:0:0:0:
397,55,191783,1,2,0:0:0:0:
408,17,191839,6,0,B|301:1|301:1|162:53,1,200,12|2,0:0|0:0,0:0:0:0:
251,107,192008,1,2,0:0:0:0:
283,56,192065,6,0,B|179:99|179:99|84:217,1,200,12|2,0:0|0:0,0:0:0:0:
198,212,192233,1,2,0:0:0:0:
194,152,192290,6,0,B|130:243|130:243|100:395,1,200,12|2,0:0|0:0,0:0:0:0:
194,345,192459,1,2,0:0:0:0:
171,293,192515,38,0,B|159:356|159:356|336:259,1,200,12|2,0:0|0:0,0:0:0:0:
396,247,192685,1,2,0:0:0:0:
399,301,192741,6,0,B|357:336|357:336|339:120,1,200,12|2,0:0|0:0,0:0:0:0:
350,68,192910,1,2,0:0:0:0:
400,82,192966,6,0,B|419:132|419:132|209:76,1,200,12|2,0:0|0:0,0:0:0:0:
167,46,193135,1,2,0:0:0:0:
197,3,193191,6,0,B|251:1|251:1|126:179,1,200,12|2,0:0|0:0,0:0:0:0:
127,219,193362,1,2,0:0:0:0:
65,220,193417,37,12,0:0:0:0:
251,178,193531,1,2,0:0:0:0:
209,150,193587,1,2,0:0:0:0:
167,120,193644,5,12,0:0:0:0:
345,191,193756,1,2,0:0:0:0:
330,143,193812,1,2,0:0:0:0:
315,94,193869,5,12,0:0:0:0:
413,252,193982,1,2,0:0:0:0:
432,206,194038,1,2,0:0:0:0:
452,159,194095,5,12,0:0:0:0:
423,338,194207,1,2,0:0:0:0:
468,315,194264,1,2,0:0:0:0:
512,293,194320,37,12,0:0:0:0:
325,284,194433,1,2,0:0:0:0:
320,333,194489,1,2,0:0:0:0:
315,383,194546,5,12,0:0:0:0:
192,276,194659,1,2,0:0:0:0:
185,226,194715,1,2,0:0:0:0:
179,175,194772,5,12,0:0:0:0:
68,270,194884,1,2,0:0:0:0:
64,320,194940,1,2,0:0:0:0:
60,373,194997,5,8,0:0:0:0:
69,367,195053,1,8,0:0:0:0:
78,361,195110,1,2,0:0:0:0:
87,355,195166,1,2,0:0:0:0:
96,349,195222,38,0,B|159:345|159:345|230:299|230:299|304:294,1,216.000000823975,12|2,0:0|0:0,0:0:0:0:
437,319,195448,1,2,0:0:0:0:
257,187,195561,2,0,B|320:183|320:183|391:137|391:137|465:132,1,216.000000823975,8|2,0:0|0:0,0:0:0:0:
306,4,195786,1,2,0:0:0:0:
366,122,195899,1,2,0:0:0:0:
438,12,196012,1,2,0:0:0:0:
286,90,196125,6,0,B|221:106|180:43|179:41|177:39|141:-17|43:16,1,213.333333333333,12|8,0:0|0:0,0:0:0:0:
15,70,196350,1,8,0:0:0:0:
106,96,196463,1,2,0:0:0:0:
25,158,196576,5,8,0:0:0:0:
43,202,196632,1,8,0:0:0:0:
61,246,196689,5,2,0:0:0:0:
71,229,196745,1,2,0:0:0:0:
86,215,196801,1,8,0:0:0:0:
103,205,196858,1,8,0:0:0:0:
122,200,196914,1,4,0:0:0:0:
142,199,196970,1,4,0:0:0:0:
162,203,197027,38,0,B|209:207|238:179|241:177|245:175|273:149|352:166,1,160,6|0,0:0|0:0,0:0:0:0:
440,257,197253,1,2,0:0:0:0:
296,248,197365,1,12,0:0:0:0:
420,343,197478,2,0,B|373:339|344:367|341:369|337:371|309:397|230:380,1,160,2|12,0:0|0:0,0:0:0:0:
95,268,197704,1,2,0:0:0:0:
182,378,197816,1,12,0:0:0:0:
162,203,197929,6,0,B|188:171|181:121|181:117|181:113|172:59|217:28,1,160,2|12,0:0|0:0,0:0:0:0:
379,16,198155,1,2,0:0:0:0:
271,94,198268,1,12,0:0:0:0:
393,107,198380,1,2,0:0:0:0:
290,7,198493,1,12,0:0:0:0:
350,130,198606,1,2,0:0:0:0:
352,137,198662,1,2,0:0:0:0:
354,144,198719,1,12,0:0:0:0:
196,49,198832,6,0,B|156:47|123:84|120:85|118:86|86:123|5:104,1,160,2|12,0:0|0:0,0:0:0:0:
10,297,199057,2,0,B|35:324|80:304|82:304|85:305|131:285|166:304,1,160,2|12,0:0|0:0,0:0:0:0:
362,217,199283,1,2,0:0:0:0:
193,180,199395,1,12,0:0:0:0:
272,333,199508,1,2,0:0:0:0:
306,157,199621,1,12,0:0:0:0:
164,303,199734,5,2,0:0:0:0:
354,255,199847,1,12,0:0:0:0:
181,207,199959,2,0,B|172:131|172:131|166:127|166:127|157:43,1,160,2|12,0:0|0:0,0:0:0:0:
306,157,200185,2,0,B|315:81|315:81|321:77|321:77|330:-7,1,160,2|12,0:0|0:0,0:0:0:0:
435,197,200410,1,2,0:0:0:0:
483,67,200523,1,12,0:0:0:0:
328,185,200636,38,0,B|357:258|357:258|353:263|353:263|383:339,1,160,6|12,0:0|0:0,0:0:0:0:
257,253,200862,1,2,0:0:0:0:
232,374,200974,1,12,0:0:0:0:
166,232,201087,2,0,B|117:293|117:293|110:292|110:292|60:356,1,160,6|12,0:0|0:0,0:0:0:0:
138,140,201313,1,2,0:0:0:0:
0,134,201425,1,12,0:0:0:0:
122,26,201538,6,0,B|194:51|194:51|200:46|200:46|283:75,1,160,2|12,0:0|0:0,0:0:0:0:
246,219,201764,1,2,0:0:0:0:
381,60,201877,2,0,B|309:85|309:85|303:80|303:80|220:109,1,160,12|2,0:0|0:0,0:0:0:0:
257,253,202102,1,12,0:0:0:0:
144,156,202215,1,2,0:0:0:0:
141,148,202271,1,2,0:0:0:0:
138,140,202328,1,12,0:0:0:0:
333,184,202441,5,8,0:0:0:0:
342,230,202497,1,8,0:0:0:0:
351,276,202553,1,8,0:0:0:0:
226,249,202666,1,2,0:0:0:0:
445,232,202779,2,0,B|445:316|499:337|499:337|492:303|436:308,1,160,12|2,0:0|0:0,0:0:0:0:
307,358,203004,1,12,0:0:0:0:
333,184,203117,2,0,B|325:147|271:129|269:129|267:129|216:112|212:47,1,160,2|12,0:0|0:0,0:0:0:0:
50,66,203343,5,2,0:0:0:0:
42,68,203399,1,2,0:0:0:0:
34,70,203456,1,12,0:0:0:0:
86,169,203568,1,2,0:0:0:0:
133,61,203681,1,12,0:0:0:0:
177,166,203794,37,8,0:0:0:0:
170,245,203907,1,8,0:0:0:0:
249,252,204019,1,4,0:0:0:0:
256,172,204132,1,4,0:0:0:0:
137,269,204245,5,6,0:0:0:0:
137,269,204471,1,2,0:0:0:0:
62,196,204583,1,12,0:0:0:0:
67,337,204696,2,0,B|105:306|141:325|145:325|150:325|193:349|253:313,1,160,2|12,0:0|0:0,0:0:0:0:
320,228,204922,1,2,0:0:0:0:
365,344,205035,1,12,0:0:0:0:
422,229,205147,6,0,B|427:182|397:153|394:152|390:151|358:121|381:55,1,160,2|12,0:0|0:0,0:0:0:0:
506,3,205373,1,2,0:0:0:0:
439,143,205486,1,12,0:0:0:0:
312,0,205598,2,0,B|317:47|287:76|284:77|280:78|248:108|271:174,1,160,2|12,0:0|0:0,0:0:0:0:
422,229,205824,1,2,0:0:0:0:
429,227,205880,1,2,0:0:0:0:
436,224,205937,1,12,0:0:0:0:
278,224,206050,6,0,B|243:227|214:274|210:274|206:274|178:324|109:296,1,160,2|12,0:0|0:0,0:0:0:0:
0,223,206275,1,2,0:0:0:0:
169,191,206388,1,12,0:0:0:0:
35,306,206501,1,2,0:0:0:0:
105,133,206613,1,12,0:0:0:0:
144,303,206726,1,2,0:0:0:0:
12,139,206839,1,12,0:0:0:0:
206,257,206952,38,0,B|181:214|196:180|196:178|196:174|211:132|181:79,1,160,2|12,0:0|0:0,0:0:0:0:
313,180,207177,1,2,0:0:0:0:
343,55,207290,1,12,0:0:0:0:
417,244,207403,2,0,B|452:208|446:172|447:170|448:166|444:121|487:78,1,160,2|12,0:0|0:0,0:0:0:0:
339,192,207629,1,2,0:0:0:0:
316,61,207741,1,12,0:0:0:0:
195,179,207854,6,0,B|135:213|88:201|88:201|111:184|137:180,1,160,2|12,0:0|0:0,0:0:0:0:
283,221,208080,2,0,B|351:220|386:187|386:187|357:183|333:192,1,160,2|12,0:0|0:0,0:0:0:0:
184,208,208305,2,0,B|117:225|75:202|75:202|102:191|127:193,1,160,2|12,0:0|0:0,0:0:0:0:
297,248,208531,2,0,B|363:229|388:188|388:188|359:192|338:207,1,160,2|12,0:0|0:0,0:0:0:0:
177,236,208756,5,2,0:0:0:0:
54,339,208869,1,12,0:0:0:0:
101,209,208982,1,2,0:0:0:0:
130,367,209095,1,12,0:0:0:0:
40,260,209207,1,2,0:0:0:0:
190,314,209320,1,12,0:0:0:0:
50,343,209433,1,2,0:0:0:0:
45,349,209489,1,2,0:0:0:0:
40,355,209546,1,12,0:0:0:0:
101,209,209659,5,8,0:0:0:0:
68,173,209715,1,8,0:0:0:0:
35,138,209771,1,8,0:0:0:0:
117,75,209884,1,2,0:0:0:0:
182,213,209997,2,0,B|171:302|134:320|134:320|128:298|153:274,1,160,12|2,0:0|0:0,0:0:0:0:
315,303,210222,1,12,0:0:0:0:
327,196,210335,2,0,B|316:107|279:89|279:89|273:111|298:135,1,160,2|12,0:0|0:0,0:0:0:0:
444,158,210561,37,2,0:0:0:0:
451,156,210617,1,2,0:0:0:0:
458,154,210674,1,12,0:0:0:0:
471,56,210786,5,8,0:0:0:0:
464,54,210842,1,8,0:0:0:0:
457,52,210899,1,8,0:0:0:0:
367,105,211012,5,8,0:0:0:0:
288,124,211125,1,8,0:0:0:0:
268,47,211238,1,4,0:0:0:0:
345,26,211350,1,4,0:0:0:0:
293,154,211463,5,8,0:0:0:0:
251,149,211519,1,8,0:0:0:0:
209,145,211576,37,2,0:0:0:0:
210,150,211632,1,2,0:0:0:0:
211,156,211688,1,8,0:0:0:0:
213,162,211745,1,8,0:0:0:0:
214,168,211801,1,2,0:0:0:0:
216,174,211857,1,2,0:0:0:0:
217,179,211913,5,8,0:0:0:0:
175,174,211971,1,8,0:0:0:0:
133,170,212027,5,2,0:0:0:0:
134,175,212083,1,2,0:0:0:0:
135,181,212139,1,8,0:0:0:0:
137,187,212196,1,8,0:0:0:0:
138,193,212252,1,2,0:0:0:0:
140,199,212308,1,2,0:0:0:0:
141,204,212365,5,8,0:0:0:0:
53,274,212478,1,8,0:0:0:0:
94,269,212534,1,8,0:0:0:0:
132,287,212590,1,8,0:0:0:0:
155,321,212647,1,8,0:0:0:0:
158,362,212703,1,8,0:0:0:0:
233,275,212816,37,2,0:0:0:0:
244,271,212872,1,2,0:0:0:0:
256,269,212928,1,8,0:0:0:0:
268,270,212985,1,8,0:0:0:0:
279,272,213041,1,4,0:0:0:0:
332,347,213155,1,4,0:0:0:0:
372,259,213268,6,0,B|357:198|306:176|272:180|272:180|223:114|249:63|299:62|357:81|343:153|272:180|272:180|247:168|217:167|217:167|144:188|79:143|79:143|105:172|116:216|116:216|117:193|127:173,1,720.000027465821,6|14,0:0|0:0,0:0:0:0:
138,86,214057,1,2,0:0:0:0:
138,86,214170,6,0,B|174:97|227:73|227:73|250:85|250:85|290:49|346:81|337:134,1,240.000009155274,2|14,0:0|0:0,0:0:0:0:
372,259,214508,2,0,B|366:218|395:177|395:177|359:207|313:198|313:198|271:191|243:227,1,240.000009155274,2|2,0:0|0:0,0:0:0:0:
196,327,214847,1,14,0:0:0:0:
296,290,214959,1,2,0:0:0:0:
165,252,215072,6,0,B|126:271|106:313|123:361|123:361|81:331|31:344|31:344|86:303|67:255|67:255|75:232|93:215|93:215|95:186|95:186|124:149|124:149|185:34|57:18|5:119|112:148|112:148|155:166|194:140|194:140|221:173|221:173|251:146|307:144,1,880,2|0,0:0|2:0,0:0:0:0:
372,259,215749,1,14,0:0:0:0:
336,123,215862,1,2,0:0:0:0:
296,290,215974,38,0,B|343:384|463:361|501:278|480:177|396:144|325:180|304:217|304:217|279:177|240:172|240:172|291:129|286:55|286:55|332:77|372:73|372:73|351:89|337:121,1,791.999975830079,2|0,0:0|2:0,0:0:0:0:
233,248,216651,2,0,P|221:293|248:348,1,80,14|2,0:0|0:0,0:0:0:0:
75,352,216877,6,0,B|95:302|144:280|144:280|148:234|169:202|169:202|155:170|174:129,1,240.000009155274,6|14,0:0|0:0,0:0:0:0:
272,17,217215,2,0,B|280:38|297:51|297:51|268:69|250:103|257:137|257:137|245:167|245:167|281:173|310:215,1,240.000009155274,2|2,0:0|0:0,0:0:0:0:
477,204,217553,6,0,B|439:253|371:248|371:248|381:288|375:302|375:302|350:376|425:396|484:351|474:284|409:263|357:299|357:299|306:265|230:313,1,552.000010528565,14|2,0:0|0:0,0:0:0:0:
158,364,218004,5,14,0:0:0:0:
192,298,218080,1,0,0:0:0:0:
158,232,218155,1,0,0:0:0:0:
96,234,218230,37,2,0:0:0:0:
142,249,218305,1,0,0:0:0:0:
175,234,218380,1,0,0:0:0:0:
197,191,218456,5,14,0:0:0:0:
207,184,218531,1,0,0:0:0:0:
219,181,218606,1,0,0:0:0:0:
272,201,218681,6,0,B|336:202|370:184|370:184|403:201|403:201|418:194|439:187,1,160,2|14,0:0|0:0,0:0:0:0:
471,79,219019,2,0,B|439:93|420:112|420:112|377:90|333:104|333:104|314:95|292:94,1,191.999994140625,2|2,0:0|0:0,0:0:0:0:
205,2,219358,2,0,B|225:75|199:107|199:107|190:70,1,120.000004577637,14|2,0:0|0:0,0:0:0:0:
77,39,219583,6,0,B|96:98|63:154|63:154|128:164|138:242|138:242|173:207|173:207|216:239|260:214|260:214|293:194|330:194|372:222,1,480,2|14,0:0|0:0,0:0:0:0:
405,323,220373,1,2,0:0:0:0:
282,304,220486,38,0,B|242:331|235:374|235:374|186:331|125:360|125:360|91:299,1,240.000009155274,6|14,0:0|0:0,0:0:0:0:
63,203,220824,2,0,B|133:208|166:259|166:259|154:199|197:143,1,240.000009155274,2|2,0:0|0:0,0:0:0:0:
348,208,221162,2,0,B|292:192|255:224|255:224|267:220|281:219,1,120.000004577637,14|2,0:0|0:0,0:0:0:0:
346,107,221388,6,0,B|421:121|446:188|446:188|463:162|501:151|501:151|485:123|484:96,1,240.000009155274,2|14,0:0|0:0,0:0:0:0:
481,105,221670,1,0,0:0:0:0:
476,94,221726,2,0,B|390:116|331:47|331:47|313:88|261:99,1,240.000009155274,2|2,0:0|0:0,0:0:0:0:
275,219,222065,2,0,B|248:277|268:312|268:312|274:297|264:283,1,120.000004577637,14|2,3:0|3:0,3:0:0:0:
193,147,222290,6,0,B|117:139|77:192|77:192|97:153|91:95|91:95|105:137,1,272.000005187988,6|14,0:0|0:0,0:0:0:0:
166,257,222629,2,0,B|222:267|239:314|239:314|269:290|269:290|324:323|378:290|378:290|396:318,1,272.000005187988,2|2,0:0|0:0,0:0:0:0:
483,218,222967,2,0,P|430:165|337:173,1,136.000002593994,14|2,0:0|0:0,0:0:0:0:
166,257,223192,6,0,B|241:224|241:146|241:146|282:158|282:158|291:82|366:70|366:70|306:69|306:69|232:21|310:-21|364:17|336:60|310:66|310:66|265:74|265:74|230:67|205:80|205:80|190:58|165:48|165:48|160:80|160:80|114:38|49:61|27:114,1,863.999973632813,2|14,0:0|0:0,0:0:0:0:
59,197,223982,1,2,0:0:0:0:
166,257,224095,38,0,B|192:319|167:350|167:350|161:329|171:305,1,120.000004577637,6|2,0:0|0:0,0:0:0:0:
255,231,224320,5,14,0:0:0:0:
332,249,224395,1,0,0:0:0:0:
351,319,224471,1,0,0:0:0:0:
399,360,224546,1,2,0:0:0:0:
454,351,224621,1,0,0:0:0:0:
482,312,224696,1,0,0:0:0:0:
477,272,224771,1,14,0:0:0:0:
452,251,224847,1,0,0:0:0:0:
428,250,224922,1,0,0:0:0:0:
413,257,224997,5,2,0:0:0:0:
476,251,225072,1,0,0:0:0:0:
504,212,225147,1,0,0:0:0:0:
501,172,225222,1,14,0:0:0:0:
476,150,225298,1,0,0:0:0:0:
452,150,225373,1,0,0:0:0:0:
437,155,225448,1,2,0:0:0:0:
413,155,225523,1,0,0:0:0:0:
380,131,225598,1,0,0:0:0:0:
373,74,225674,1,14,0:0:0:0:
396,42,225749,1,0,0:0:0:0:
419,36,225824,1,0,0:0:0:0:
434,39,225899,5,2,0:0:0:0:
394,78,225974,1,0,0:0:0:0:
337,84,226050,1,0,0:0:0:0:
292,49,226125,1,14,0:0:0:0:
244,47,226200,1,0,0:0:0:0:
216,62,226275,1,0,0:0:0:0:
206,74,226350,1,2,0:0:0:0:
201,89,226425,1,0,0:0:0:0:
202,105,226501,1,0,0:0:0:0:
207,119,226576,1,14,0:0:0:0:
211,125,226651,1,0,0:0:0:0:
217,130,226726,1,0,0:0:0:0:
223,134,226801,38,0,B|276:173|254:219|254:222|254:226|234:278|294:319,1,210.000008010865,2|0,0:0|2:0,0:0:0:0:
344,343,227253,1,8,0:0:0:0:
342,337,227309,1,8,0:0:0:0:
341,331,227365,1,8,0:0:0:0:
340,325,227422,1,8,0:0:0:0:
341,319,227478,1,8,0:0:0:0:
342,313,227534,1,8,0:0:0:0:
343,307,227591,1,2,0:0:0:0:
453,324,227703,6,0,B|477:225|477:225|470:124,1,160,6|0,0:0|0:0,0:0:0:0:
389,50,227929,1,2,0:0:0:0:
420,57,227986,1,0,0:0:0:0:
450,48,228042,1,12,0:0:0:0:
315,158,228155,2,0,B|402:148|402:148|500:174,1,160,2|12,0:0|0:0,0:0:0:0:
313,239,228380,1,2,0:0:0:0:
453,324,228493,1,12,0:0:0:0:
281,379,228606,6,0,B|209:313|209:313|185:239,1,160,2|12,0:0|0:0,0:0:0:0:
214,110,228832,1,2,0:0:0:0:
73,249,228944,2,0,B|68:151|68:151|104:82,1,160,12|2,0:0|0:0,0:0:0:0:
237,12,229170,1,12,0:0:0:0:
245,154,229283,1,2,0:0:0:0:
242,161,229339,1,2,0:0:0:0:
239,168,229395,1,12,0:0:0:0:
362,83,229508,6,0,B|376:174|376:174|452:281,1,160,2|12,0:0|0:0,0:0:0:0:
402,365,229734,1,2,0:0:0:0:
381,340,229790,1,0,0:0:0:0:
351,327,229847,1,12,0:0:0:0:
203,340,229959,2,0,B|282:272|282:272|311:207,1,160,2|12,0:0|0:0,0:0:0:0:
218,88,230185,1,2,0:0:0:0:
362,83,230298,1,12,0:0:0:0:
237,12,230410,38,0,B|170:78|170:78|98:97,1,160,2|12,0:0|0:0,0:0:0:0:
161,210,230636,1,2,0:0:0:0:
36,200,230749,1,12,0:0:0:0:
92,312,230862,2,0,B|167:262|167:262|218:187,1,160,2|12,0:0|0:0,0:0:0:0:
316,105,231087,2,0,B|341:191|341:191|332:281,1,160,2|12,0:0|0:0,0:0:0:0:
508,375,231313,6,0,B|492:287|492:287|419:172,1,160,6|12,0:0|0:0,0:0:0:0:
283,297,231538,1,2,0:0:0:0:
313,285,231595,1,0,0:0:0:0:
334,261,231651,1,12,0:0:0:0:
316,105,231764,2,0,B|243:167|243:167|141:162,1,160,2|12,0:0|0:0,0:0:0:0:
56,42,231989,1,2,0:0:0:0:
182,9,232102,1,12,0:0:0:0:
59,138,232215,6,0,B|68:228|68:228|150:335,1,160,2|12,0:0|0:0,0:0:0:0:
283,297,232441,1,0,0:0:0:0:
230,88,232553,2,0,B|179:162|179:162|173:297,1,160,12|2,0:0|0:0,0:0:0:0:
219,372,232779,1,12,0:0:0:0:
319,276,232892,1,2,0:0:0:0:
318,268,232948,1,2,0:0:0:0:
317,260,233004,1,12,0:0:0:0:
417,350,233117,5,8,0:0:0:0:
414,301,233174,1,8,0:0:0:0:
411,253,233230,1,8,0:0:0:0:
318,355,233343,1,8,0:0:0:0:
508,300,233456,2,0,B|478:239|498:179|498:179|509:208|502:230,1,160,12|2,0:0|0:0,0:0:0:0:
331,228,233681,1,12,0:0:0:0:
472,135,233794,1,2,0:0:0:0:
508,300,233907,1,12,0:0:0:0:
357,150,234019,37,2,0:0:0:0:
355,142,234076,1,2,0:0:0:0:
353,134,234132,1,12,0:0:0:0:
257,179,234245,5,8,0:0:0:0:
255,187,234302,1,8,0:0:0:0:
253,195,234358,1,8,0:0:0:0:
172,97,234471,5,8,0:0:0:0:
92,82,234583,1,8,0:0:0:0:
78,162,234696,1,4,0:0:0:0:
156,174,234809,1,4,0:0:0:0:
13,92,234922,6,0,B|50:203|50:203|39:300,1,200,6|0,0:0|0:0,0:0:0:0:
192,367,235147,1,2,0:0:0:0:
186,326,235204,1,0,0:0:0:0:
193,286,235260,1,12,0:0:0:0:
346,189,235373,1,2,0:0:0:0:
156,174,235486,1,12,0:0:0:0:
322,278,235598,1,2,0:0:0:0:
216,121,235711,1,12,0:0:0:0:
420,111,235824,38,0,B|442:215|442:215|408:306,1,200,2|12,0:0|0:0,0:0:0:0:
192,367,236050,1,2,0:0:0:0:
346,189,236162,2,0,B|266:260|266:260|171:276,1,200,12|2,0:0|0:0,0:0:0:0:
37,99,236388,1,12,0:0:0:0:
11,256,236501,1,2,0:0:0:0:
10,265,236557,1,2,0:0:0:0:
9,274,236613,1,12,0:0:0:0:
156,174,236726,6,0,B|189:71|189:71|279:0,1,200,2|12,0:0|0:0,0:0:0:0:
468,35,236952,1,2,0:0:0:0:
446,68,237008,1,0,0:0:0:0:
443,108,237065,1,12,0:0:0:0:
512,254,237177,1,2,0:0:0:0:
316,187,237290,1,12,0:0:0:0:
437,342,237403,2,0,B|329:329|329:329|239:362,1,200,2|12,0:0|0:0,0:0:0:0:
60,316,237629,5,6,0:0:0:0:
224,215,237741,1,12,0:0:0:0:
60,316,237854,2,0,B|181:272|181:272|237:199,1,200,2|12,0:0|0:0,0:0:0:0:
44,21,238080,2,0,B|50:131|50:131|112:210,1,200,2|12,0:0|0:0,0:0:0:0:
165,208,238249,1,8,0:0:0:0:
224,215,238305,5,8,0:0:0:0:
230,222,238361,1,4,0:0:0:0:
236,230,238418,1,2,0:0:0:0:
242,238,238474,1,2,0:0:0:0:
248,246,238531,38,0,B|235:182|285:144|285:144|329:119|346:76|266:58|278:108,1,240.000009155274,14|2,0:0|0:0,0:0:0:0:
245,242,238756,2,0,B|237:177|290:143|290:143|336:122|357:81|279:56|286:107,1,240.000009155274,12|2,0:0|0:0,0:0:0:0:
242,237,238982,2,0,B|240:171|296:142|296:142|343:125|368:86|292:54|295:106,1,240.000009155274,12|2,0:0|0:0,0:0:0:0:
239,231,239207,2,0,B|243:165|301:142|301:142|350:129|377:92|305:54|303:105,1,240.000009155274,12|2,0:0|0:0,0:0:0:0:
333,233,239433,38,0,B|342:297|402:316|402:316|452:324|483:359|414:403|408:352,1,240.000009155274,14|2,0:0|0:0,0:0:0:0:
331,237,239658,2,0,B|346:300|407:313|407:313|458:317|491:349|426:399|416:349,1,240.000009155274,12|2,0:0|0:0,0:0:0:0:
330,243,239884,2,0,B|350:304|413:312|413:312|463:312|499:341|439:396|424:347,1,240.000009155274,12|2,0:0|0:0,0:0:0:0:
329,250,240109,2,0,B|355:309|417:312|417:312|468:307|506:333|451:393|432:345,1,240.000009155274,12|2,0:0|0:0,0:0:0:0:
442,181,240335,5,6,0:0:0:0:
442,181,244847,21,2,0:0:0:0:
442,181,245298,1,2,0:0:0:0:
442,181,245749,6,0,L|157:141,1,240.000009155274,14|2,0:0|0:0,0:0:0:0:
438,192,245974,2,0,L|153:152,1,240.000009155274,10|2,0:0|0:0,0:0:0:0:
67,113,246200,1,6,0:0:0:0:
69,124,246313,1,2,0:0:0:0:
69,135,246425,1,2,0:0:0:0:
67,146,246538,1,2,0:0:0:0:
4,228,246651,5,14,0:0:0:0:
7,239,246764,1,2,0:0:0:0:
12,249,246877,1,2,0:0:0:0:
18,258,246989,1,2,0:0:0:0:
26,266,247102,1,6,0:0:0:0:
35,272,247215,1,2,0:0:0:0:
45,276,247328,1,2,0:0:0:0:
56,279,247441,1,2,0:0:0:0:
67,279,247553,1,6,0:0:0:0:
79,278,247666,1,2,0:0:0:0:
145,200,247779,5,2,0:0:0:0:
146,197,247835,1,8,0:0:0:0:
147,194,247892,1,12,0:0:0:0:
216,257,248004,1,6,0:0:0:0:
215,269,248117,1,2,0:0:0:0:
269,174,248230,1,12,0:0:0:0:
274,184,248343,1,2,0:0:0:0:
279,194,248456,1,6,0:0:0:0:
207,100,248568,37,10,0:0:0:0:
202,110,248681,1,4,0:0:0:0:
197,120,248794,1,4,0:0:0:0:
285,32,248907,5,14,0:0:0:0:
333,126,249019,1,10,0:0:0:0:
415,40,249132,5,2,0:0:0:0:
411,28,249245,1,2,0:0:0:0:
490,131,249358,6,0,L|416:367,1,240.000009155274,14|2,0:0|0:0,0:0:0:0:
499,138,249583,2,0,L|425:374,1,240.000009155274,10|2,0:0|0:0,0:0:0:0:
273,368,249809,1,6,0:0:0:0:
275,356,249922,1,2,0:0:0:0:
274,344,250035,1,2,0:0:0:0:
270,332,250147,1,2,0:0:0:0:
162,285,250260,37,14,0:0:0:0:
157,273,250373,1,2,0:0:0:0:
154,261,250486,1,2,0:0:0:0:
153,249,250598,1,2,0:0:0:0:
154,237,250711,1,6,0:0:0:0:
158,225,250824,1,2,0:0:0:0:
164,214,250937,1,2,0:0:0:0:
172,205,251050,1,2,0:0:0:0:
182,199,251162,1,6,0:0:0:0:
291,190,251275,5,10,0:0:0:0:
288,178,251388,1,4,0:0:0:0:
285,166,251501,1,4,0:0:0:0:
196,120,251613,5,14,0:0:0:0:
198,108,251726,1,2,0:0:0:0:
200,96,251839,1,2,0:0:0:0:
203,84,251952,1,8,0:0:0:0:
265,19,252065,5,6,0:0:0:0:
174,0,252177,1,8,0:0:0:0:
168,1,252233,1,8,0:0:0:0:
162,3,252289,1,4,0:0:0:0:
156,4,252346,1,4,0:0:0:0:
150,6,252403,37,10,0:0:0:0:
167,50,252459,1,8,0:0:0:0:
184,95,252515,5,14,0:0:0:0:
178,96,252572,1,4,0:0:0:0:
172,98,252628,1,8,0:0:0:0:
166,99,252685,1,8,0:0:0:0:
146,129,252741,5,10,0:0:0:0:
139,128,252798,1,8,0:0:0:0:
133,126,252854,1,4,0:0:0:0:
127,125,252911,1,4,0:0:0:0:
88,95,252967,6,0,L|56:217,1,120.000004577637,6|2,0:0|0:0,0:0:0:0:
106,332,253192,1,2,0:0:0:0:
109,320,253305,1,2,0:0:0:0:
183,231,253418,37,6,0:0:0:0:
210,335,253531,1,2,0:0:0:0:
315,307,253644,1,2,0:0:0:0:
287,203,253756,1,2,0:0:0:0:
227,257,253869,5,14,0:0:0:0:
268,331,253982,1,2,0:0:0:0:
343,288,254095,1,2,0:0:0:0:
300,214,254207,1,2,0:0:0:0:
276,259,254320,5,6,0:0:0:0:
315,300,254433,1,2,0:0:0:0:
356,259,254546,1,2,0:0:0:0:
316,219,254659,1,2,0:0:0:0:
386,367,254771,5,6,0:0:0:0:
398,333,254884,1,2,0:0:0:0:
423,307,254997,1,2,0:0:0:0:
458,299,255110,1,2,0:0:0:0:
507,214,255222,37,2,0:0:0:0:
435,203,255335,1,2,0:0:0:0:
384,151,255448,1,2,0:0:0:0:
380,78,255561,1,2,0:0:0:0:
247,13,255674,5,2,0:0:0:0:
295,121,255786,1,10,0:0:0:0:
229,221,255899,1,2,0:0:0:0:
108,221,256012,1,2,0:0:0:0:
169,344,256125,5,14,0:0:0:0:
39,295,256238,1,10,0:0:0:0:
63,381,256350,1,4,0:0:0:0:
56,372,256463,1,4,0:0:0:0:
169,344,256576,6,0,L|306:370,1,120.000004577637,6|2,0:0|0:0,0:0:0:0:
338,246,256801,1,2,0:0:0:0:
327,250,256914,1,2,0:0:0:0:
247,176,257027,37,6,0:0:0:0:
186,264,257140,1,2,0:0:0:0:
96,202,257253,1,2,0:0:0:0:
158,114,257365,1,2,0:0:0:0:
196,185,257478,5,14,0:0:0:0:
132,240,257591,1,2,0:0:0:0:
77,174,257704,1,2,0:0:0:0:
142,120,257816,1,2,0:0:0:0:
150,170,257929,5,6,0:0:0:0:
99,195,258042,1,2,0:0:0:0:
74,143,258155,1,2,0:0:0:0:
126,119,258268,1,2,0:0:0:0:
115,283,258380,5,6,0:0:0:0:
148,270,258493,1,2,0:0:0:0:
181,257,258606,37,4,0:0:0:0:
184,261,258662,1,4,0:0:0:0:
187,265,258719,1,4,0:0:0:0:
190,269,258775,1,4,0:0:0:0:
193,273,258832,5,14,0:0:0:0:
261,251,258944,1,2,0:0:0:0:
328,277,259057,1,2,0:0:0:0:
355,343,259170,1,8,0:0:0:0:
353,348,259226,1,8,0:0:0:0:
351,353,259283,5,6,0:0:0:0:
445,266,259395,1,10,0:0:0:0:
446,260,259451,1,8,0:0:0:0:
448,254,259507,1,2,0:0:0:0:
449,248,259564,1,4,0:0:0:0:
451,242,259621,5,10,0:0:0:0:
405,256,259677,1,8,0:0:0:0:
359,270,259734,37,14,0:0:0:0:
360,264,259789,1,8,0:0:0:0:
362,258,259847,1,4,0:0:0:0:
363,252,259902,1,4,0:0:0:0:
332,221,259959,5,10,0:0:0:0:
331,215,260016,1,4,0:0:0:0:
329,209,260072,1,4,0:0:0:0:
328,203,260129,1,4,0:0:0:0:
367,170,260185,6,0,L|394:112,2,53.3333333333333,6|2|2,0:0|0:0|0:0,0:0:0:0:
285,88,260410,1,2,0:0:0:0:
274,63,260486,1,2,0:0:0:0:
275,36,260561,1,2,0:0:0:0:
289,13,260636,5,6,0:0:0:0:
310,84,260711,1,2,0:0:0:0:
269,146,260786,1,2,0:0:0:0:
193,146,260862,1,2,0:0:0:0:
152,208,260937,1,2,0:0:0:0:
181,276,261012,1,2,0:0:0:0:
254,289,261087,37,14,0:0:0:0:
225,257,261162,1,2,0:0:0:0:
181,254,261238,1,2,0:0:0:0:
149,282,261313,1,2,0:0:0:0:
144,324,261388,1,2,0:0:0:0:
111,351,261463,1,2,0:0:0:0:
69,342,261538,5,6,0:0:0:0:
86,321,261613,1,2,0:0:0:0:
111,312,261689,1,2,0:0:0:0:
137,312,261764,1,2,0:0:0:0:
159,325,261839,1,2,0:0:0:0:
175,345,261914,1,2,0:0:0:0:
249,381,261989,5,6,0:0:0:0:
252,354,262065,1,2,0:0:0:0:
269,333,262140,1,2,0:0:0:0:
293,322,262215,1,2,0:0:0:0:
310,302,262290,1,2,0:0:0:0:
316,276,262365,1,2,0:0:0:0:
306,250,262441,5,6,0:0:0:0:
361,300,262516,1,2,0:0:0:0:
433,284,262591,1,2,0:0:0:0:
459,214,262666,1,2,0:0:0:0:
413,154,262741,1,2,0:0:0:0:
427,80,262816,1,2,0:0:0:0:
496,50,262892,37,14,0:0:0:0:
478,88,262967,1,2,0:0:0:0:
440,107,263042,1,2,0:0:0:0:
398,99,263117,1,2,0:0:0:0:
358,114,263192,1,2,0:0:0:0:
336,151,263268,1,2,0:0:0:0:
343,192,263343,5,6,0:0:0:0:
358,170,263418,1,2,0:0:0:0:
356,143,263493,1,2,0:0:0:0:
338,122,263568,1,2,0:0:0:0:
323,99,263644,1,2,0:0:0:0:
323,72,263719,1,2,0:0:0:0:
261,6,263794,5,6,0:0:0:0:
250,30,263869,1,2,0:0:0:0:
228,45,263944,1,2,0:0:0:0:
202,53,264019,1,2,0:0:0:0:
175,49,264095,1,2,0:0:0:0:
152,34,264170,1,2,0:0:0:0:
143,8,264245,5,6,0:0:0:0:
200,71,264320,1,2,0:0:0:0:
195,155,264395,1,2,0:0:0:0:
116,191,264471,1,2,0:0:0:0:
98,274,264546,1,2,0:0:0:0:
155,336,264621,1,2,0:0:0:0:
239,323,264696,37,14,0:0:0:0:
191,300,264771,1,2,0:0:0:0:
138,313,264847,1,2,0:0:0:0:
88,292,264922,1,2,0:0:0:0:
67,242,264997,1,2,0:0:0:0:
87,192,265072,1,2,0:0:0:0:
66,142,265147,5,6,0:0:0:0:
56,166,265222,1,2,0:0:0:0:
61,192,265298,1,2,0:0:0:0:
79,211,265373,1,2,0:0:0:0:
105,215,265448,1,2,0:0:0:0:
130,208,265523,1,2,0:0:0:0:
200,167,265598,5,12,0:0:0:0:
209,220,265674,1,2,0:0:0:0:
249,254,265749,1,2,0:0:0:0:
301,247,265824,1,2,0:0:0:0:
339,210,265899,1,4,0:0:0:0:
392,214,265974,1,4,0:0:0:0:
423,257,266050,1,6,0:0:0:0:
409,308,266125,1,2,0:0:0:0:
361,331,266200,1,2,0:0:0:0:
311,310,266275,1,12,0:0:0:0:
283,264,266350,1,2,0:0:0:0:
231,248,266425,1,2,0:0:0:0:
183,273,266501,5,6,0:0:0:0:
256,281,266576,1,2,0:0:0:0:
315,235,266651,1,2,0:0:0:0:
304,161,266726,1,2,0:0:0:0:
238,125,266801,1,2,0:0:0:0:
233,49,266877,1,2,0:0:0:0:
291,3,266952,1,12,0:0:0:0:
362,25,267027,1,2,0:0:0:0:
382,96,267102,1,2,0:0:0:0:
349,162,267177,1,12,0:0:0:0:
369,234,267253,1,2,0:0:0:0:
437,263,267328,1,2,0:0:0:0:
498,217,267403,5,0,0:0:0:0:
498,217,282187,6,0,P|443:220|407:244,1,80,2|0,0:0|0:0,0:0:0:0:
421,231,283089,2,0,P|384:246|329:244,1,90.0000034332277,2|0,0:0|0:0,0:0:0:0:
308,222,283572,2,0,P|264:222|231:241,1,60.0000022888184
166,299,284033,69,2,0:0:0:0:
166,299,284461,2,0,P|231:275|247:250,1,80
229,174,285363,1,0,0:0:0:0:
144,134,285849,5,0,0:0:0:0:
290,30,286335,1,2,0:0:0:0:
158,155,286821,1,0,0:0:0:0:
290,30,287265,1,2,0:0:0:0:
441,277,287712,69,2,0:0:0:0:
441,277,288170,2,0,P|406:239|396:196,1,80
398,117,289107,1,0,0:0:0:0:
281,57,289568,5,2,0:0:0:0:
281,57,290002,2,0,P|302:120|294:158,1,80
272,213,290917,1,0,0:0:0:0:
196,267,291416,69,2,0:0:0:0:
336,324,291850,1,2,0:0:0:0:
179,308,292340,1,0,0:0:0:0:
380,169,292801,1,2,0:0:0:0:
134,169,293211,5,0,0:0:0:0:
134,169,293249,70,0,P|125:124|136:91,1,80,2|0,0:0|0:0,0:0:0:0:
386,20,294193,2,0,P|387:93|342:132,1,120,2|0,0:0|2:0,0:0:0:0:
357,124,294666,2,0,P|323:162|317:209,1,90.0000034332277,2|0,0:0|2:0,0:0:0:0:
375,311,295131,6,0,B|335:275|289:295|286:295|284:295|238:325|194:276,1,191.999994140625,2|0,0:0|0:0,0:0:0:0:
195,278,296622,1,0,0:0:0:0:
58,329,297171,70,0,P|80:278|77:243,1,80,2|0,0:0|0:0,0:0:0:0:
79,254,298276,2,0,P|78:219|84:198,1,47.9999985351563,2|0,0:0|0:0,0:0:0:0:
80,206,300335,22,0,L|93:148,1,60,6|0,0:0|2:0,0:0:0:0:
170,109,301237,2,0,L|183:167,1,60,6|0,0:0|2:0,0:0:0:0:
264,242,302139,6,0,B|303:157|268:52|268:52|251:99|276:141,1,240,6|0,0:0|2:0,0:0:0:0:
316,156,302365,1,2,0:0:0:0:
143,241,302477,2,0,B|167:331|262:389|262:389|244:342|198:326,1,240,12|0,0:0|2:0,0:0:0:0:
142,346,302703,1,2,0:0:0:0:
349,265,302816,2,0,B|403:290|403:290|448:325|448:325|420:267,1,160,12|0,0:0|0:0,0:0:0:0:
397,140,303041,6,0,B|311:117|248:174|248:174|269:140|259:85,1,240.000009155274,2|8,0:0|0:0,0:0:0:0:
239,52,303210,1,8,0:0:0:0:
195,29,303267,1,8,0:0:0:0:
168,123,303380,1,8,0:0:0:0:
40,30,303492,5,8,0:0:0:0:
61,169,303605,1,8,0:0:0:0:
126,64,303718,37,4,0:0:0:0:
135,103,303831,1,4,0:0:0:0:
61,169,303944,5,6,0:0:0:0:
56,204,304056,1,2,0:0:0:0:
62,239,304169,1,2,0:0:0:0:
86,265,304282,1,2,0:0:0:0:
190,239,304395,5,6,0:0:0:0:
225,241,304507,1,2,0:0:0:0:
253,262,304620,1,2,0:0:0:0:
262,296,304733,1,2,0:0:0:0:
333,360,304846,5,6,0:0:0:0:
216,366,304959,2,0,B|281:348|281:348|343:362,1,120.000004577637,8|0,0:0|0:0,0:0:0:0:
391,293,305184,1,2,0:0:0:0:
363,212,305297,2,0,B|426:184|426:184|457:128,1,120.000004577637,6|2,0:0|0:0,0:0:0:0:
382,48,305522,1,2,0:0:0:0:
382,48,305635,1,2,0:0:0:0:
273,137,305748,38,0,B|183:131|183:131|112:84,1,160,6|2,0:0|0:0,0:0:0:0:
185,10,305974,1,2,0:0:0:0:
199,179,306086,1,10,0:0:0:0:
124,92,306199,2,0,B|79:167|79:167|77:263,1,160,6|2,0:0|0:0,0:0:0:0:
231,350,306425,1,8,0:0:0:0:
131,328,306538,1,2,0:0:0:0:
251,276,306650,6,0,B|256:290|256:290|253:295|253:295|256:308,1,32
255,306,307553,5,6,0:0:0:0:
273,262,307609,1,8,0:0:0:0:
316,243,307665,1,2,0:0:0:0:
360,258,307722,1,8,0:0:0:0:
406,266,307778,1,2,0:0:0:0:
447,243,307835,1,8,0:0:0:0:
465,199,307891,1,2,0:0:0:0:
451,154,307947,1,8,0:0:0:0:
412,128,308003,1,2,0:0:0:0:
365,132,308060,1,8,0:0:0:0:
331,164,308116,1,2,0:0:0:0:
287,182,308173,1,8,0:0:0:0:
242,169,308229,1,2,0:0:0:0:
216,130,308286,1,8,0:0:0:0:
220,82,308342,1,2,0:0:0:0:
198,39,308398,1,8,0:0:0:0:
151,24,308455,5,2,0:0:0:0:
116,33,308511,1,8,0:0:0:0:
95,63,308568,1,2,0:0:0:0:
92,98,308624,1,8,0:0:0:0:
114,133,308680,37,2,0:0:0:0:
116,163,308737,1,8,0:0:0:0:
106,191,308793,1,2,0:0:0:0:
86,213,308850,1,8,0:0:0:0:
46,230,308906,5,2,0:0:0:0:
35,244,308962,1,8,0:0:0:0:
30,261,309019,1,2,0:0:0:0:
31,278,309075,1,8,0:0:0:0:
64,311,309131,6,0,L|88:373,3,60.0000022888184,2|8|2|8,0:0|0:0|0:0|0:0,0:0:0:0:
169,243,309357,5,2,0:0:0:0:
204,239,309413,1,8,0:0:0:0:
236,255,309470,1,2,0:0:0:0:
252,286,309526,1,8,0:0:0:0:
249,322,309583,38,0,L|221:374,3,60.0000022888184,2|8|2|8,0:0|0:0|0:0|0:0,0:0:0:0:
344,275,309808,5,2,0:0:0:0:
292,256,309865,1,8,0:0:0:0:
275,204,309921,1,2,0:0:0:0:
310,163,309977,1,8,0:0:0:0:
355,154,310034,5,2,0:0:0:0:
386,127,310090,1,8,0:0:0:0:
394,85,310147,1,2,0:0:0:0:
369,51,310203,1,8,0:0:0:0:
328,43,310259,5,10,0:0:0:0:
338,102,310316,1,8,0:0:0:0:
394,121,310372,1,8,0:0:0:0:
453,118,310428,1,8,0:0:0:0:
501,154,310485,1,8,0:0:0:0:
501,213,310541,1,8,0:0:0:0:
455,253,310598,1,8,0:0:0:0:
396,240,310654,1,8,0:0:0:0:
365,188,310710,37,8,0:0:0:0:
366,193,310767,1,8,0:0:0:0:
367,198,310823,1,8,0:0:0:0:
368,203,310880,1,8,0:0:0:0:
343,227,310936,5,4,0:0:0:0:
342,232,310992,1,4,0:0:0:0:
341,237,311049,1,4,0:0:0:0:
340,242,311106,1,4,0:0:0:0:
376,276,311162,5,6,0:0:0:0:
306,347,311274,1,2,0:0:0:0:
290,333,311330,1,2,0:0:0:0:
272,323,311386,1,8,0:0:0:0:
253,318,311443,1,8,0:0:0:0:
232,318,311499,1,2,0:0:0:0:
212,323,311555,1,2,0:0:0:0:
194,331,311612,5,12,0:0:0:0:
194,331,311838,2,0,L|190:254,1,68.0000012969971,4|4,0:0|0:0,0:0:0:0:
281,104,311951,1,2,0:0:0:0:
289,71,312007,1,2,0:0:0:0:
298,38,312064,37,12,0:0:0:0:
298,38,312289,1,8,0:0:0:0:
308,55,312345,1,8,0:0:0:0:
322,69,312401,1,2,0:0:0:0:
340,80,312458,1,2,0:0:0:0:
359,87,312514,1,2,0:0:0:0:
379,89,312570,1,2,0:0:0:0:
399,87,312628,1,4,0:0:0:0:
419,84,312685,1,4,0:0:0:0:
439,87,312741,1,8,0:0:0:0:
458,94,312797,1,8,0:0:0:0:
475,104,312854,1,2,0:0:0:0:
490,119,312910,1,2,0:0:0:0:
500,136,312966,5,12,0:0:0:0:
500,136,313192,1,12,0:0:0:0:
454,123,313248,1,8,0:0:0:0:
410,137,313304,1,8,0:0:0:0:
381,174,313361,1,8,0:0:0:0:
377,220,313417,5,8,0:0:0:0:
296,86,313530,1,2,0:0:0:0:
267,259,313643,1,12,0:0:0:0:
286,83,313756,1,2,0:0:0:0:
165,251,313868,5,8,0:0:0:0:
105,256,313924,1,8,0:0:0:0:
57,220,313980,1,8,0:0:0:0:
45,162,314037,1,8,0:0:0:0:
75,110,314093,37,8,0:0:0:0:
46,313,314207,1,8,0:0:0:0:
180,115,314319,1,8,0:0:0:0:
61,323,314432,1,8,0:0:0:0:
276,164,314545,1,8,0:0:0:0:
76,333,314658,1,8,0:0:0:0:
352,306,314771,6,0,B|414:281|412:228|412:225|412:221|411:165|502:127,1,200,6|0,0:0|0:0,0:0:0:0:
368,0,314996,1,2,0:0:0:0:
276,164,315109,1,12,0:0:0:0:
172,18,315222,2,0,B|203:57|177:115|178:119|179:123|144:171|202:238,1,200,2|12,0:0|0:0,0:0:0:0:
352,306,315447,1,2,0:0:0:0:
158,371,315560,1,12,0:0:0:0:
203,123,315673,5,2,0:0:0:0:
288,351,315786,1,12,0:0:0:0:
77,267,315898,1,2,0:0:0:0:
276,164,316011,1,12,0:0:0:0:
158,371,316124,2,0,B|112:368|87:307|82:306|77:304|58:258|0:252,1,200,2|12,0:0|0:0,0:0:0:0:
105,69,316350,1,2,0:0:0:0:
107,59,316406,1,2,0:0:0:0:
109,49,316462,1,12,0:0:0:0:
159,197,316575,6,0,B|208:205|245:163|250:163|257:163|292:110|384:137,1,200,2|12,0:0|0:0,0:0:0:0:
492,267,316801,1,2,0:0:0:0:
324,228,316913,1,12,0:0:0:0:
512,157,317026,2,0,B|463:147|442:95|438:93|431:91|416:29|321:23,1,200,2|12,0:0|0:0,0:0:0:0:
172,118,317252,1,2,0:0:0:0:
342,130,317365,1,12,0:0:0:0:
216,32,317477,37,2,0:0:0:0:
282,195,317590,1,12,0:0:0:0:
362,31,317703,2,0,B|383:133|383:133|391:133|391:133|411:225,1,200,2|12,0:0|0:0,0:0:0:0:
235,384,317928,2,0,B|256:281|256:281|264:281|264:281|284:189,1,200,2|12,0:0|0:0,0:0:0:0:
170,24,318154,1,2,0:0:0:0:
342,130,318267,1,12,0:0:0:0:
130,133,318380,6,0,B|61:200|61:200|64:207|64:207|-13:281,1,200,6|8,0:0|0:0,0:0:0:0:
200,206,318605,1,2,0:0:0:0:
133,381,318718,1,12,0:0:0:0:
282,195,318831,2,0,B|305:288|305:288|313:289|313:289|338:392,1,200,6|8,0:0|0:0,0:0:0:0:
380,192,319056,1,2,0:0:0:0:
505,332,319169,1,12,0:0:0:0:
493,117,319282,6,0,B|404:88|404:88|400:79|400:79|302:46,1,200,2|12,0:0|0:0,0:0:0:0:
308,231,319507,1,2,0:0:0:0:
105,102,319620,2,0,B|197:88|197:88|203:80|203:80|305:65,1,200,12|2,0:0|0:0,0:0:0:0:
336,267,319846,1,12,0:0:0:0:
122,191,319959,1,2,0:0:0:0:
112,188,320015,1,2,0:0:0:0:
102,185,320071,1,12,0:0:0:0:
219,289,320184,5,8,0:0:0:0:
278,278,320241,1,8,0:0:0:0:
336,267,320297,1,2,0:0:0:0:
271,375,320410,1,2,0:0:0:0:
222,191,320522,2,0,B|316:148|304:81|304:81|281:112|283:145,1,200,12|2,0:0|0:0,0:0:0:0:
408,207,320748,1,12,0:0:0:0:
405,22,320861,2,0,B|446:113|446:113|456:114|456:114|497:201,1,200,2|8,0:0|0:0,0:0:0:0:
411,359,321086,37,2,0:0:0:0:
412,348,321143,1,2,0:0:0:0:
413,338,321199,1,8,0:0:0:0:
287,210,321312,5,8,0:0:0:0:
250,345,321425,1,8,0:0:0:0:
385,308,321538,1,8,0:0:0:0:
276,240,321650,5,4,0:0:0:0:
276,340,321763,1,4,0:0:0:0:
362,289,321876,1,4,0:0:0:0:
307,290,321989,5,6,0:0:0:0:
307,290,322214,2,0,B|269:249|288:203|288:200|289:197|308:144|259:93,1,200,2|12,0:0|0:0,0:0:0:0:
61,67,322440,1,2,0:0:0:0:
194,160,322553,1,12,0:0:0:0:
157,17,322665,1,2,0:0:0:0:
77,161,322778,1,12,0:0:0:0:
245,54,322891,38,0,B|293:92|347:74|351:75|355:76|409:54|493:119,1,200,2|12,0:0|0:0,0:0:0:0:
482,272,323116,1,2,0:0:0:0:
375,166,323229,1,12,0:0:0:0:
390,371,323342,2,0,B|368:316|312:302|309:303|306:305|247:291|233:201,1,200,2|12,0:0|0:0,0:0:0:0:
245,54,323568,1,2,0:0:0:0:
248,44,323624,1,2,0:0:0:0:
252,35,323680,1,12,0:0:0:0:
293,177,323793,6,0,B|257:139|191:166|188:166|185:166|123:187|75:138,1,200,2|12,0:0|0:0,0:0:0:0:
15,303,324019,1,0,0:0:0:0:
171,200,324131,1,12,0:0:0:0:
115,363,324244,1,2,0:0:0:0:
100,156,324357,1,12,0:0:0:0:
222,314,324470,1,2,0:0:0:0:
277,139,324583,1,12,0:0:0:0:
401,364,324695,6,0,B|389:269|296:250|292:248|290:246|188:227|178:132,1,320,2|12,0:0|0:0,0:0:0:0:
422,309,324921,2,0,B|326:314|292:225|289:222|287:220|250:123|155:130,1,320,2|12,0:0|0:0,0:0:0:0:
323,377,325147,2,0,B|336:282|251:240|248:237|246:235|152:190|168:95,1,320,2|12,0:0|0:0,0:0:0:0:
437,235,325372,2,0,B|344:256|294:175|291:172|288:171|235:81|143:105,1,320,2|12,0:0|0:0,0:0:0:0:
217,354,325598,6,0,B|124:333|124:333|119:339|119:339|15:315,1,200,6|8,0:0|0:0,0:0:0:0:
178,250,325823,1,2,0:0:0:0:
24,156,325936,1,12,0:0:0:0:
250,183,326049,2,0,B|199:102|199:102|191:103|191:103|134:12,1,200,2|12,0:0|0:0,0:0:0:0:
342,153,326274,1,2,0:0:0:0:
286,0,326387,1,12,0:0:0:0:
440,30,326500,38,0,B|423:128|423:128|429:134|429:134|406:251,1,200,2|12,0:0|0:0,0:0:0:0:
178,250,326725,1,2,0:0:0:0:
370,347,326838,2,0,B|353:249|353:249|359:243|359:243|336:126,1,200,12|2,0:0|0:0,0:0:0:0:
108,127,327064,1,12,0:0:0:0:
222,263,327177,1,2,0:0:0:0:
231,262,327233,1,2,0:0:0:0:
240,261,327289,1,12,0:0:0:0:
271,85,327402,5,8,0:0:0:0:
227,127,327459,1,8,0:0:0:0:
184,169,327515,1,8,0:0:0:0:
341,152,327628,1,2,0:0:0:0:
146,54,327741,2,0,B|83:146|25:140|25:140|48:109|92:120,1,200,12|2,0:0|0:0,0:0:0:0:
152,244,327966,1,12,0:0:0:0:
0,290,328079,2,0,B|88:321|88:321|90:330|90:330|212:374,1,200,2|8,0:0|0:0,0:0:0:0:
351,271,328304,5,2,0:0:0:0:
360,268,328361,1,2,0:0:0:0:
369,265,328417,1,12,0:0:0:0:
330,169,328530,5,8,0:0:0:0:
320,167,328586,1,8,0:0:0:0:
309,165,328643,1,4,0:0:0:0:
299,163,328699,1,4,0:0:0:0:
288,162,328756,37,8,0:0:0:0:
260,66,328868,1,8,0:0:0:0:
163,91,328981,1,4,0:0:0:0:
190,189,329094,1,4,0:0:0:0:
228,34,329207,5,6,0:0:0:0:
215,54,329263,1,8,0:0:0:0:
197,69,329319,1,2,0:0:0:0:
174,78,329376,1,8,0:0:0:0:
151,79,329432,1,2,0:0:0:0:
128,73,329489,1,8,0:0:0:0:
105,64,329545,1,2,0:0:0:0:
81,64,329601,1,8,0:0:0:0:
59,73,329658,1,6,0:0:0:0:
41,89,329714,1,8,0:0:0:0:
30,110,329770,1,2,0:0:0:0:
27,134,329827,1,8,0:0:0:0:
33,157,329883,1,6,0:0:0:0:
46,177,329940,1,8,0:0:0:0:
65,190,329996,1,2,0:0:0:0:
88,196,330052,1,8,0:0:0:0:
112,194,330109,5,6,0:0:0:0:
147,195,330165,1,8,0:0:0:0:
179,212,330221,1,2,0:0:0:0:
200,240,330278,1,8,0:0:0:0:
207,275,330334,1,6,0:0:0:0:
224,307,330391,1,8,0:0:0:0:
253,327,330447,1,2,0:0:0:0:
289,328,330504,1,8,0:0:0:0:
320,311,330560,5,6,0:0:0:0:
338,267,330616,1,8,0:0:0:0:
331,218,330673,1,2,0:0:0:0:
343,171,330729,1,8,0:0:0:0:
387,150,330786,1,6,0:0:0:0:
433,158,330842,1,8,0:0:0:0:
463,194,330898,1,2,0:0:0:0:
462,242,330955,1,8,0:0:0:0:
435,281,331011,37,6,0:0:0:0:
429,298,331068,1,8,0:0:0:0:
429,315,331124,1,2,0:0:0:0:
434,331,331180,1,8,0:0:0:0:
444,345,331237,6,0,L|521:376,3,60.0000022888184,6|8|2|8,0:0|0:0|0:0|0:0,0:0:0:0:
326,348,331462,5,14,0:0:0:0:
343,289,331519,1,8,0:0:0:0:
310,238,331575,1,8,0:0:0:0:
252,229,331631,1,8,0:0:0:0:
208,271,331688,1,8,0:0:0:0:
148,271,331744,1,8,0:0:0:0:
111,221,331801,1,8,0:0:0:0:
125,162,331857,1,8,0:0:0:0:
177,134,331913,5,10,0:0:0:0:
143,184,331970,1,8,0:0:0:0:
83,188,332026,1,8,0:0:0:0:
46,139,332083,1,8,0:0:0:0:
65,82,332139,1,8,0:0:0:0:
122,64,332195,1,8,0:0:0:0:
173,96,332252,1,8,0:0:0:0:
231,86,332308,1,8,0:0:0:0:
266,36,332365,37,10,0:0:0:0:
251,24,332421,2,0,B|245:81|245:81|281:192,1,120.000004577637,8|8,0:0|0:0,0:0:0:0:
308,146,332590,2,0,B|314:203|314:203|278:314,1,120.000004577637,4|4,0:0|0:0,0:0:0:0:
202,343,332816,5,6,0:0:0:0:
212,315,332872,1,8,0:0:0:0:
231,292,332928,1,2,0:0:0:0:
257,277,332985,1,8,0:0:0:0:
287,273,333041,1,2,0:0:0:0:
316,279,333097,1,8,0:0:0:0:
342,294,333154,1,2,0:0:0:0:
365,312,333210,1,8,0:0:0:0:
394,321,333266,1,6,0:0:0:0:
423,319,333323,1,8,0:0:0:0:
451,307,333379,1,2,0:0:0:0:
472,286,333435,1,8,0:0:0:0:
484,259,333492,2,0,L|478:190,3,60.0000022888184,6|8|2|8,0:0|0:0|0:0|0:0,0:0:0:0:
401,132,333718,5,6,0:0:0:0:
387,190,333774,1,8,0:0:0:0:
332,217,333831,1,2,0:0:0:0:
277,192,333887,1,8,0:0:0:0:
258,134,333944,1,6,0:0:0:0:
283,80,334000,1,8,0:0:0:0:
269,22,334056,1,2,0:0:0:0:
210,5,334113,1,8,0:0:0:0:
161,40,334169,1,6,0:0:0:0:
154,99,334225,1,8,0:0:0:0:
106,137,334282,1,2,0:0:0:0:
46,144,334338,1,8,0:0:0:0:
8,191,334395,2,0,P|12:233|29:273,1,60.0000022888184,6|8,0:0|0:0,0:0:0:0:
173,191,334507,2,0,P|154:152|125:121,1,60.0000022888184,2|8,0:0|0:0,0:0:0:0:
92,301,334620,5,6,0:0:0:0:
104,328,334676,1,8,0:0:0:0:
126,348,334733,1,2,0:0:0:0:
153,359,334789,1,8,0:0:0:0:
183,360,334846,1,2,0:0:0:0:
211,349,334901,1,8,0:0:0:0:
233,329,334958,1,2,0:0:0:0:
246,302,335014,1,8,0:0:0:0:
248,272,335071,1,6,0:0:0:0:
246,242,335128,1,8,0:0:0:0:
255,213,335183,1,2,0:0:0:0:
275,191,335241,1,8,0:0:0:0:
301,177,335296,1,2,0:0:0:0:
331,174,335352,1,8,0:0:0:0:
359,182,335409,1,2,0:0:0:0:
383,200,335465,1,8,0:0:0:0:
398,225,335522,37,10,0:0:0:0:
344,222,335579,1,8,0:0:0:0:
310,180,335635,1,8,0:0:0:0:
318,126,335692,1,8,0:0:0:0:
364,99,335748,1,8,0:0:0:0:
414,118,335804,1,8,0:0:0:0:
464,97,335861,1,8,0:0:0:0:
473,44,335917,1,8,0:0:0:0:
438,1,335974,5,10,0:0:0:0:
453,9,336030,2,0,B|403:44|403:44|336:50,1,120.000004577637,8|8,0:0|0:0,0:0:0:0:
311,22,336199,2,0,B|250:27|250:27|195:65,1,120.000004577637,4|4,0:0|0:0,0:0:0:0:
127,179,336425,5,8,0:0:0:0:
167,189,336481,1,8,0:0:0:0:
208,200,336537,5,2,0:0:0:0:
206,194,336594,1,2,0:0:0:0:
204,188,336650,1,4,0:0:0:0:
203,182,336707,1,4,0:0:0:0:
201,176,336763,37,8,0:0:0:0:
241,186,336819,1,8,0:0:0:0:
282,197,336875,5,2,0:0:0:0:
280,191,336932,1,2,0:0:0:0:
278,185,336989,5,8,0:0:0:0:
318,195,337045,1,8,0:0:0:0:
359,206,337101,5,8,0:0:0:0:
357,200,337158,1,8,0:0:0:0:
355,194,337214,1,2,0:0:0:0:
354,188,337271,1,2,0:0:0:0:
352,182,337327,37,12,0:0:0:0:
480,204,337440,1,8,0:0:0:0:
469,245,337497,1,8,0:0:0:0:
459,286,337553,1,8,0:0:0:0:
310,278,337665,1,8,0:0:0:0:
378,357,337778,5,2,0:0:0:0:
372,359,337835,1,2,0:0:0:0:
366,361,337891,1,8,0:0:0:0:
360,363,337947,1,8,0:0:0:0:
354,365,338004,5,4,0:0:0:0:
310,278,338116,1,4,0:0:0:0:
227,377,338229,6,0,B|224:301|224:301|180:225|180:225|251:298,1,215.999993408203,6|0,0:0|2:0,0:0:0:0:
310,278,338455,1,2,0:0:0:0:
107,334,338568,2,0,B|65:260|65:260|74:154,1,143.999995605469,12|2,0:0|0:0,0:0:0:0:
215,76,338793,1,12,0:0:0:0:
153,213,338906,1,2,0:0:0:0:
77,94,339019,1,12,0:0:0:0:
238,179,339131,38,0,B|298:128|298:128|308:52,1,143.999995605469,2|12,0:0|0:0,0:0:0:0:
468,3,339357,2,0,B|512:51|512:51|512:129,1,143.999995605469,2|12,0:0|0:0,0:0:0:0:
351,273,339583,1,2,0:0:0:0:
509,237,339695,1,12,0:0:0:0:
392,147,339808,1,2,0:0:0:0:
393,139,339865,1,2,0:0:0:0:
394,132,339921,1,12,0:0:0:0:
436,279,340034,5,2,0:0:0:0:
301,192,340147,2,0,B|231:220|231:220|177:275,1,143.999995605469,12|2,0:0|0:0,0:0:0:0:
0,137,340372,2,0,B|66:118|66:118|140:129,1,143.999995605469,12|2,0:0|0:0,0:0:0:0:
260,263,340598,1,12,0:0:0:0:
88,202,340710,1,2,0:0:0:0:
232,111,340823,1,12,0:0:0:0:
172,321,340936,6,0,B|240:342|240:342|359:338,1,143.999995605469,2|12,0:0|0:0,0:0:0:0:
372,129,341162,2,0,B|304:108|304:108|185:112,1,143.999995605469,2|12,3:0|3:0,3:0:0:0:
432,331,341387,2,0,B|453:263|453:263|449:144,1,143.999995605469,2|12,0:0|0:0,0:0:0:0:
125,135,341613,2,0,B|104:203|104:203|108:322,1,143.999995605469,2|12,0:0|0:0,0:0:0:0:
485,271,341838,5,6,0:0:0:0:
365,207,341951,2,0,B|366:120|366:120|388:50,1,160,12|2,0:0|0:0,0:0:0:0:
131,0,342177,2,0,B|134:73|134:73|163:155,1,160,12|2,0:0|0:0,0:0:0:0:
312,337,342402,1,12,0:0:0:0:
106,275,342515,1,2,0:0:0:0:
287,164,342628,1,12,0:0:0:0:
174,361,342741,38,0,B|109:307|109:307|20:288,1,160,2|12,0:0|0:0,0:0:0:0:
0,87,342966,2,0,B|71:63|71:63|155:77,1,160,2|12,0:0|0:0,0:0:0:0:
273,206,343192,1,2,0:0:0:0:
138,202,343304,1,12,0:0:0:0:
268,118,343417,1,2,0:0:0:0:
272,111,343474,1,2,0:0:0:0:
276,104,343530,1,12,0:0:0:0:
295,245,343643,5,2,0:0:0:0:
396,82,343756,2,0,B|424:181|424:181|502:297,1,200,12|2,0:0|0:0,0:0:0:0:
236,367,343981,1,12,0:0:0:0:
378,167,344094,1,2,0:0:0:0:
138,202,344207,1,12,0:0:0:0:
385,340,344319,2,0,B|274:325|274:325|172:356,1,200,2|12,0:0|0:0,0:0:0:0:
141,140,344545,5,2,0:0:0:0:
151,152,344601,1,2,0:0:0:0:
161,164,344658,1,8,0:0:0:0:
250,44,344771,5,2,0:0:0:0:
254,59,344827,1,2,0:0:0:0:
258,74,344883,1,8,0:0:0:0:
397,41,344996,37,2,0:0:0:0:
395,57,345052,1,2,0:0:0:0:
393,72,345109,1,8,0:0:0:0:
390,88,345165,1,8,0:0:0:0:
388,104,345222,1,4,0:0:0:0:
385,120,345277,1,4,0:0:0:0:
383,136,345334,1,2,0:0:0:0:
381,152,345390,1,2,0:0:0:0:
378,167,345447,5,6,0:0:0:0:
437,302,345560,2,0,B|365:307|365:307|294:342,1,143.999995605469,8|2,0:0|0:0,0:0:0:0:
138,254,345786,1,12,0:0:0:0:
325,233,345898,2,0,B|240:217|240:217|176:159,1,143.999995605469,2|12,0:0|0:0,0:0:0:0:
415,48,346124,2,0,B|333:68|333:68|273:120,1,143.999995605469,2|12,0:0|0:0,0:0:0:0:
300,338,346350,5,2,0:0:0:0:
197,178,346462,1,12,0:0:0:0:
149,367,346575,1,2,0:0:0:0:
325,233,346688,1,12,0:0:0:0:
98,280,346801,2,0,B|71:195|71:195|76:91,1,143.999995605469,2|12,0:0|0:0,0:0:0:0:
235,22,347026,1,2,0:0:0:0:
249,19,347083,1,2,0:0:0:0:
263,16,347139,1,12,0:0:0:0:
236,166,347252,6,0,B|280:229|280:229|293:310,1,143.999995605469,2|12,0:0|0:0,0:0:0:0:
407,193,347477,1,2,0:0:0:0:
174,255,347590,2,0,B|130:318|130:318|117:399,1,143.999995605469,12|2,0:0|0:0,0:0:0:0:
20,224,347816,1,12,0:0:0:0:
210,363,347928,2,0,B|284:335|284:335|364:342,1,143.999995605469,2|12,0:0|0:0,0:0:0:0:
496,156,348154,37,2,0:0:0:0:
308,190,348267,1,12,0:0:0:0:
459,73,348380,2,0,B|375:103|375:103|282:99,1,143.999995605469,2|12,0:0|0:0,0:0:0:0:
354,260,348605,5,10,0:0:0:0:
347,262,348661,1,8,0:0:0:0:
341,264,348717,1,8,0:0:0:0:
334,266,348774,1,8,0:0:0:0:
328,268,348830,1,10,0:0:0:0:
321,270,348886,1,8,0:0:0:0:
315,272,348943,1,8,0:0:0:0:
308,274,348999,1,8,0:0:0:0:
302,277,349056,5,6,0:0:0:0:
320,249,349112,1,8,0:0:0:0:
322,215,349168,1,2,0:0:0:0:
306,185,349225,1,8,0:0:0:0:
278,168,349282,1,6,0:0:0:0:
245,157,349338,1,8,0:0:0:0:
221,134,349394,1,2,0:0:0:0:
210,102,349451,1,8,0:0:0:0:
213,69,349507,1,6,0:0:0:0:
231,40,349563,1,8,0:0:0:0:
260,23,349620,1,2,0:0:0:0:
294,20,349676,1,8,0:0:0:0:
325,32,349733,2,0,L|396:76,3,68.0000012969971,6|8|2|8,0:0|0:0|0:0|0:0,0:0:0:0:
393,178,349959,5,6,0:0:0:0:
366,199,350015,1,8,0:0:0:0:
340,220,350071,1,2,0:0:0:0:
313,242,350128,1,8,0:0:0:0:
275,238,350184,37,6,0:0:0:0:
248,259,350241,1,8,0:0:0:0:
222,280,350297,1,6,0:0:0:0:
195,302,350353,1,8,0:0:0:0:
157,298,350410,6,0,L|100:343,3,68.0000012969971,2|8|2|8,0:0|0:0|0:0|0:0,0:0:0:0:
56,233,350635,5,2,0:0:0:0:
83,195,350691,1,8,0:0:0:0:
82,148,350748,1,6,0:0:0:0:
52,113,350804,1,8,0:0:0:0:
6,103,350861,5,6,0:0:0:0:
32,142,350917,1,8,0:0:0:0:
73,163,350974,1,2,0:0:0:0:
120,162,351030,1,8,0:0:0:0:
158,136,351086,37,2,0:0:0:0:
189,123,351142,1,8,0:0:0:0:
223,123,351198,1,2,0:0:0:0:
254,135,351255,1,8,0:0:0:0:
278,159,351312,6,0,L|326:233,1,68.0000012969971,6|8,0:0|0:0,0:0:0:0:
298,333,351425,1,10,0:0:0:0:
317,338,351481,1,8,0:0:0:0:
338,343,351538,1,2,0:0:0:0:
405,254,351650,1,8,0:0:0:0:
424,259,351706,1,8,0:0:0:0:
445,264,351763,6,0,L|468:202,1,60.0000022888184,8|8,0:0|0:0,0:0:0:0:
398,72,351876,2,0,L|421:134,1,60.0000022888184,8|8,0:0|0:0,0:0:0:0:
315,216,351989,5,2,0:0:0:0:
228,95,352101,1,8,0:0:0:0:
230,77,352158,1,8,0:0:0:0:
233,59,352214,37,8,0:0:0:0:
277,33,352271,2,0,B|334:49|334:49|446:30,1,120.000004577637,4|4,0:0|0:0,0:0:0:0:
430,4,352440,1,8,0:0:0:0:
510,111,352553,1,4,0:0:0:0:
343,127,352665,5,6,0:0:0:0:
448,194,352778,1,2,0:0:0:0:
430,204,352834,1,2,0:0:0:0:
416,219,352890,1,8,0:0:0:0:
405,236,352947,1,8,0:0:0:0:
399,256,353003,1,2,0:0:0:0:
397,276,353059,1,2,0:0:0:0:
400,296,353116,5,12,0:0:0:0:
400,296,353342,2,0,L|428:372,1,68.0000012969971,4|4,0:0|0:0,0:0:0:0:
207,376,353455,1,2,0:0:0:0:
202,342,353511,1,2,0:0:0:0:
196,308,353568,5,12,0:0:0:0:
196,308,353793,1,4,0:0:0:0:
210,294,353849,1,4,0:0:0:0:
227,282,353905,1,2,0:0:0:0:
246,274,353962,1,2,0:0:0:0:
266,271,354018,1,2,0:0:0:0:
286,272,354074,1,2,0:0:0:0:
306,277,354131,1,8,0:0:0:0:
326,283,354189,1,8,0:0:0:0:
346,284,354245,1,4,0:0:0:0:
367,280,354301,1,4,0:0:0:0:
385,273,354357,1,2,0:0:0:0:
402,261,354414,1,2,0:0:0:0:
416,246,354470,38,0,L|430:180,1,68.0000012969971,12|0,0:0|0:0,0:0:0:0:
306,3,354583,2,0,L|320:69,1,68.0000012969971,12|0,0:0|0:0,0:0:0:0:
252,248,354695,1,2,0:0:0:0:
217,251,354752,1,2,0:0:0:0:
183,254,354808,6,0,L|169:188,1,68.0000012969971,12|0,0:0|0:0,0:0:0:0:
288,7,354921,2,0,L|274:73,1,68.0000012969971,12|0,0:0|0:0,0:0:0:0:
371,237,355034,1,2,0:0:0:0:
406,234,355091,1,2,0:0:0:0:
440,231,355147,6,0,L|445:164,1,68.0000012969971,12|0,0:0|0:0,0:0:0:0:
324,0,355260,2,0,L|345:66,1,68.0000012969971,12|0,0:0|0:0,0:0:0:0:
216,232,355372,1,2,0:0:0:0:
181,225,355429,1,2,0:0:0:0:
147,219,355485,6,0,L|150:151,1,68.0000012969971,12|0,0:0|0:0,0:0:0:0:
268,0,355598,2,0,L|253:69,1,68.0000012969971,12|0,0:0|0:0,0:0:0:0:
339,262,355710,1,2,0:0:0:0:
345,295,355767,1,2,0:0:0:0:
351,328,355823,37,8,0:0:0:0:
332,318,355879,1,8,0:0:0:0:
313,312,355935,1,2,0:0:0:0:
293,310,355992,1,2,0:0:0:0:
272,311,356048,1,4,0:0:0:0:
253,316,356105,1,4,0:0:0:0:
234,324,356161,1,2,0:0:0:0:
217,335,356218,1,2,0:0:0:0:
202,349,356274,53,2,0:0:0:0:
202,349,356387,1,2,0:0:0:0:
114,309,356500,2,0,P|142:249|124:193,1,120.000004577637,2|0,0:0|0:0,0:0:0:0:
237,105,356725,2,0,P|224:162|251:214,1,120.000004577637,2|0,0:0|0:0,0:0:0:0:
351,328,356951,2,0,P|400:283|466:286,1,120.000004577637,2|0,0:0|0:0,0:0:0:0:
496,126,357177,6,0,P|438:174|378:169,1,120.000004577637,2|0,0:0|0:0,0:0:0:0:
304,1,357402,2,0,P|382:27|407:74,1,120.000004577637,2|0,0:0|0:0,0:0:0:0:
251,214,357628,70,0,P|280:179|334:164,5,80.0000030517579
92,59,358079,5,6,0:0:0:0:
256,192,358135,12,0,361663,0:0:0:0:
