osu file format v14

[General]
AudioFilename: audio.mp3
AudioLeadIn: 0
PreviewTime: 62620
Countdown: 1
SampleSet: Normal
StackLeniency: 0.7
Mode: 1
LetterboxInBreaks: 0
WidescreenStoryboard: 0

[Editor]
DistanceSpacing: 0.2
BeatDivisor: 4
GridSize: 32
TimelineZoom: 2.899999

[Metadata]
Title:TOGENKYO
TitleUnicode:TOGENKYO
Artist:FREDERIC
ArtistUnicode:FREDERIC
Creator:Janifer
Version:Oni
Source:
Tags:
BeatmapID:2165020
BeatmapSetID:1035555

[Difficulty]
HPDrainRate:4
CircleSize:5
OverallDifficulty:6
ApproachRate:5
SliderMultiplier:1.4
SliderTickRate:1

[Events]
//Background and Video events
0,0,"background.png",0,0
//Break Periods
//Storyboard Layer 0 (Background)
//Storyboard Layer 1 (Fail)
//Storyboard Layer 2 (Pass)
//Storyboard Layer 3 (Foreground)
//Storyboard Layer 4 (Overlay)
//Storyboard Sound Samples

[TimingPoints]
7954,333.333333333333,4,1,0,100,1,0
17287,-90.9090909090909,4,1,0,100,0,0
19953,-100,4,1,0,100,0,0
62620,-100,4,1,0,100,0,1
83953,-100,4,1,0,100,0,0

[HitObjects]
256,192,7954,5,8,0:0:0:0:
256,192,8120,1,8,0:0:0:0:
256,192,8287,1,0,0:0:0:0:
256,192,8454,1,0,0:0:0:0:
256,192,8620,1,8,0:0:0:0:
256,192,8787,1,0,0:0:0:0:
256,192,8954,1,8,0:0:0:0:
256,192,9120,1,0,0:0:0:0:
256,192,9287,1,0,0:0:0:0:
256,192,10120,1,0,0:0:0:0:
256,192,10287,1,8,0:0:0:0:
256,192,10453,1,0,0:0:0:0:
256,192,10620,1,8,0:0:0:0:
256,192,10954,1,0,0:0:0:0:
256,192,11120,1,0,0:0:0:0:
256,192,11287,1,8,0:0:0:0:
256,192,11454,1,0,0:0:0:0:
256,192,11620,1,8,0:0:0:0:
256,192,11787,1,0,0:0:0:0:
256,192,11954,1,0,0:0:0:0:
256,192,12287,1,8,0:0:0:0:
256,192,12620,1,8,0:0:0:0:
256,192,12954,1,0,0:0:0:0:
256,192,13287,1,8,0:0:0:0:
256,192,13454,1,8,0:0:0:0:
256,192,13620,1,0,0:0:0:0:
256,192,13787,1,0,0:0:0:0:
256,192,13954,1,8,0:0:0:0:
256,192,14120,1,0,0:0:0:0:
256,192,14287,1,8,0:0:0:0:
256,192,14454,1,0,0:0:0:0:
256,192,14620,1,0,0:0:0:0:
256,192,15454,1,0,0:0:0:0:
256,192,15620,1,8,0:0:0:0:
256,192,15787,1,0,0:0:0:0:
256,192,15954,1,8,0:0:0:0:
256,192,16120,1,0,0:0:0:0:
256,192,16287,1,8,0:0:0:0:
256,192,16454,1,8,0:0:0:0:
256,192,16620,1,0,0:0:0:0:
256,192,16787,1,0,0:0:0:0:
256,192,16954,1,8,0:0:0:0:
256,192,17120,1,0,0:0:0:0:
256,192,17287,1,12,0:0:0:0:
256,192,17454,1,0,0:0:0:0:
256,192,17620,1,0,0:0:0:0:
256,192,17787,1,12,0:0:0:0:
256,192,17954,1,0,0:0:0:0:
256,192,18120,1,0,0:0:0:0:
256,192,18287,1,12,0:0:0:0:
256,192,18454,1,0,0:0:0:0:
256,192,18620,1,4,0:0:0:0:
256,192,18787,1,8,0:0:0:0:
256,192,18954,1,8,0:0:0:0:
256,192,19120,1,4,0:0:0:0:
256,192,19287,1,8,0:0:0:0:
256,192,19454,1,8,0:0:0:0:
256,192,19620,1,4,0:0:0:0:
256,192,19953,1,0,0:0:0:0:
256,192,20120,1,0,0:0:0:0:
256,192,20287,1,8,0:0:0:0:
256,192,20453,1,8,0:0:0:0:
256,192,20620,1,0,0:0:0:0:
256,192,20787,1,0,0:0:0:0:
256,192,20953,1,8,0:0:0:0:
256,192,21287,1,0,0:0:0:0:
256,192,21453,1,0,0:0:0:0:
256,192,21620,1,8,0:0:0:0:
256,192,21787,1,0,0:0:0:0:
256,192,22120,1,0,0:0:0:0:
256,192,22287,1,8,0:0:0:0:
256,192,22453,1,8,0:0:0:0:
256,192,22537,1,8,0:0:0:0:
256,192,22620,1,0,0:0:0:0:
256,192,22787,1,0,0:0:0:0:
256,192,22954,1,8,0:0:0:0:
256,192,23120,1,8,0:0:0:0:
256,192,23287,1,0,0:0:0:0:
256,192,23454,1,0,0:0:0:0:
256,192,23620,1,8,0:0:0:0:
256,192,23954,1,0,0:0:0:0:
256,192,24120,1,0,0:0:0:0:
256,192,24287,1,8,0:0:0:0:
256,192,24454,1,0,0:0:0:0:
256,192,24787,1,0,0:0:0:0:
256,192,24954,1,8,0:0:0:0:
256,192,25120,1,8,0:0:0:0:
256,192,25204,1,8,0:0:0:0:
256,192,25287,1,4,0:0:0:0:
256,192,25454,1,0,0:0:0:0:
256,192,25621,1,8,0:0:0:0:
256,192,25787,1,8,0:0:0:0:
256,192,25954,1,0,0:0:0:0:
256,192,26121,1,0,0:0:0:0:
256,192,26287,1,8,0:0:0:0:
256,192,26621,1,0,0:0:0:0:
256,192,26787,1,0,0:0:0:0:
256,192,26954,1,8,0:0:0:0:
256,192,27121,1,0,0:0:0:0:
256,192,27454,1,0,0:0:0:0:
256,192,27621,1,8,0:0:0:0:
256,192,27787,1,8,0:0:0:0:
256,192,27871,1,8,0:0:0:0:
256,192,27953,1,0,0:0:0:0:
256,192,28120,1,0,0:0:0:0:
256,192,28287,1,8,0:0:0:0:
256,192,28453,1,8,0:0:0:0:
256,192,28620,1,0,0:0:0:0:
256,192,28787,1,0,0:0:0:0:
256,192,28953,1,8,0:0:0:0:
256,192,29287,1,0,0:0:0:0:
256,192,29453,1,0,0:0:0:0:
256,192,29620,1,8,0:0:0:0:
256,192,29787,1,4,0:0:0:0:
256,192,30120,1,0,0:0:0:0:
256,192,30287,1,8,0:0:0:0:
256,192,30453,1,8,0:0:0:0:
256,192,30537,1,8,0:0:0:0:
256,192,30620,1,0,0:0:0:0:
256,192,30953,1,8,0:0:0:0:
256,192,31120,1,0,0:0:0:0:
256,192,31453,1,0,0:0:0:0:
256,192,31620,1,8,0:0:0:0:
256,192,31787,1,0,0:0:0:0:
256,192,31953,1,8,0:0:0:0:
256,192,32120,1,0,0:0:0:0:
256,192,32287,1,0,0:0:0:0:
256,192,32453,1,8,0:0:0:0:
256,192,32787,1,0,0:0:0:0:
256,192,32953,1,8,0:0:0:0:
256,192,33120,1,8,0:0:0:0:
256,192,33287,1,0,0:0:0:0:
256,192,33620,1,8,0:0:0:0:
256,192,33787,1,0,0:0:0:0:
256,192,33953,1,8,0:0:0:0:
256,192,34120,1,0,0:0:0:0:
256,192,34287,1,8,0:0:0:0:
256,192,34453,1,8,0:0:0:0:
256,192,34620,1,0,0:0:0:0:
256,192,34953,1,8,0:0:0:0:
256,192,35120,1,0,0:0:0:0:
256,192,35453,1,0,0:0:0:0:
256,192,35620,1,8,0:0:0:0:
256,192,35787,1,8,0:0:0:0:
256,192,35953,1,0,0:0:0:0:
256,192,36286,1,8,0:0:0:0:
256,192,36453,1,0,0:0:0:0:
256,192,36786,1,0,0:0:0:0:
256,192,36953,1,8,0:0:0:0:
256,192,37120,1,8,0:0:0:0:
256,192,37286,1,0,0:0:0:0:
256,192,37453,1,0,0:0:0:0:
256,192,37620,1,8,0:0:0:0:
256,192,37786,1,0,0:0:0:0:
256,192,38120,1,0,0:0:0:0:
256,192,38286,1,8,0:0:0:0:
256,192,38453,1,8,0:0:0:0:
256,192,38620,1,0,0:0:0:0:
256,192,38787,1,8,0:0:0:0:
256,192,38953,1,8,0:0:0:0:
256,192,39120,1,0,0:0:0:0:
256,192,39453,1,0,0:0:0:0:
256,192,39620,1,8,0:0:0:0:
256,192,39787,1,8,0:0:0:0:
256,192,39953,1,0,0:0:0:0:
256,192,40286,1,8,0:0:0:0:
256,192,40453,1,0,0:0:0:0:
256,192,40786,1,0,0:0:0:0:
256,192,40953,1,8,0:0:0:0:
256,192,41120,1,8,0:0:0:0:
256,192,41287,1,0,0:0:0:0:
256,192,41620,1,8,0:0:0:0:
256,192,41787,1,0,0:0:0:0:
256,192,42120,1,0,0:0:0:0:
256,192,42287,1,8,0:0:0:0:
256,192,42453,1,0,0:0:0:0:
256,192,42620,1,0,0:0:0:0:
256,192,42787,1,8,0:0:0:0:
256,192,42954,1,8,0:0:0:0:
256,192,43120,1,0,0:0:0:0:
256,192,43454,1,0,0:0:0:0:
256,192,43620,1,8,0:0:0:0:
256,192,43787,1,8,0:0:0:0:
256,192,43954,1,0,0:0:0:0:
256,192,44287,1,8,0:0:0:0:
256,192,44454,1,0,0:0:0:0:
256,192,44787,1,0,0:0:0:0:
256,192,44954,1,8,0:0:0:0:
256,192,45120,1,8,0:0:0:0:
256,192,45287,1,0,0:0:0:0:
256,192,45453,1,8,0:0:0:0:
256,192,45620,1,0,0:0:0:0:
256,192,45787,1,0,0:0:0:0:
256,192,46120,1,0,0:0:0:0:
256,192,46287,1,8,0:0:0:0:
256,192,46454,1,8,0:0:0:0:
256,192,46620,1,0,0:0:0:0:
256,192,46953,1,8,0:0:0:0:
256,192,47120,1,0,0:0:0:0:
256,192,47453,1,0,0:0:0:0:
256,192,47620,1,8,0:0:0:0:
256,192,47787,1,8,0:0:0:0:
256,192,47953,1,0,0:0:0:0:
256,192,48287,1,8,0:0:0:0:
256,192,48453,1,0,0:0:0:0:
256,192,48787,1,0,0:0:0:0:
256,192,48953,1,8,0:0:0:0:
256,192,49120,1,8,0:0:0:0:
256,192,49287,1,0,0:0:0:0:
256,192,49453,1,0,0:0:0:0:
256,192,49620,1,8,0:0:0:0:
256,192,49787,1,8,0:0:0:0:
256,192,49953,1,0,0:0:0:0:
256,192,50120,1,8,0:0:0:0:
256,192,50287,1,0,0:0:0:0:
256,192,50453,1,8,0:0:0:0:
256,192,50620,1,8,0:0:0:0:
256,192,50787,1,0,0:0:0:0:
256,192,50953,1,0,0:0:0:0:
256,192,51287,1,0,0:0:0:0:
256,192,51620,1,12,0:0:0:0:
256,192,51953,1,4,0:0:0:0:
256,192,52287,1,8,0:0:0:0:
256,192,52453,1,0,0:0:0:0:
256,192,52787,1,0,0:0:0:0:
256,192,52953,1,8,0:0:0:0:
256,192,53120,1,0,0:0:0:0:
256,192,53453,1,0,0:0:0:0:
256,192,53620,1,8,0:0:0:0:
256,192,53953,1,0,0:0:0:0:
256,192,54120,1,0,0:0:0:0:
256,192,54287,1,8,0:0:0:0:
256,192,54453,1,8,0:0:0:0:
256,192,54620,1,0,0:0:0:0:
256,192,54953,1,8,0:0:0:0:
256,192,55120,1,0,0:0:0:0:
256,192,55453,1,0,0:0:0:0:
256,192,55620,1,8,0:0:0:0:
256,192,55787,1,0,0:0:0:0:
256,192,56120,1,0,0:0:0:0:
256,192,56287,1,8,0:0:0:0:
256,192,56620,1,0,0:0:0:0:
256,192,56787,1,0,0:0:0:0:
256,192,56953,1,8,0:0:0:0:
256,192,57120,1,8,0:0:0:0:
256,192,57287,1,0,0:0:0:0:
256,192,57620,1,8,0:0:0:0:
256,192,57953,1,0,0:0:0:0:
256,192,58120,1,0,0:0:0:0:
256,192,58287,1,8,0:0:0:0:
256,192,58453,1,8,0:0:0:0:
256,192,58620,1,4,0:0:0:0:
256,192,58953,1,8,0:0:0:0:
256,192,59287,1,8,0:0:0:0:
256,192,59453,1,0,0:0:0:0:
256,192,59620,1,8,0:0:0:0:
256,192,59787,1,8,0:0:0:0:
256,192,59870,1,8,0:0:0:0:
256,192,59953,1,4,0:0:0:0:
256,192,60287,1,8,0:0:0:0:
256,192,60620,1,0,0:0:0:0:
256,192,60953,1,8,0:0:0:0:
256,192,61120,1,0,0:0:0:0:
256,192,61453,1,8,0:0:0:0:
256,192,61620,1,0,0:0:0:0:
256,192,61787,1,0,0:0:0:0:
256,192,61953,1,8,0:0:0:0:
256,192,62120,1,4,0:0:0:0:
256,192,62287,1,4,0:0:0:0:
256,192,62453,1,4,0:0:0:0:
256,192,62620,1,8,0:0:0:0:
256,192,62787,1,8,0:0:0:0:
256,192,62953,1,0,0:0:0:0:
256,192,63287,1,0,0:0:0:0:
256,192,63453,1,0,0:0:0:0:
256,192,63620,1,8,0:0:0:0:
256,192,63787,1,8,0:0:0:0:
256,192,63953,1,0,0:0:0:0:
256,192,64287,1,0,0:0:0:0:
256,192,64453,1,0,0:0:0:0:
256,192,64620,1,8,0:0:0:0:
256,192,64787,1,8,0:0:0:0:
256,192,64953,1,0,0:0:0:0:
256,192,65287,1,0,0:0:0:0:
256,192,65453,1,0,0:0:0:0:
256,192,65620,1,8,0:0:0:0:
256,192,65953,1,0,0:0:0:0:
256,192,66120,1,0,0:0:0:0:
256,192,66287,1,8,0:0:0:0:
256,192,66453,1,0,0:0:0:0:
256,192,66620,1,8,0:0:0:0:
256,192,66787,1,8,0:0:0:0:
256,192,66953,1,0,0:0:0:0:
256,192,67120,1,0,0:0:0:0:
256,192,67287,1,8,0:0:0:0:
256,192,67620,1,8,0:0:0:0:
256,192,67953,1,0,0:0:0:0:
256,192,68120,1,0,0:0:0:0:
256,192,68287,1,8,0:0:0:0:
256,192,68453,1,0,0:0:0:0:
256,192,68620,1,8,0:0:0:0:
256,192,68787,1,0,0:0:0:0:
256,192,68953,1,8,0:0:0:0:
256,192,69120,1,0,0:0:0:0:
256,192,69453,1,0,0:0:0:0:
256,192,69620,1,8,0:0:0:0:
256,192,69953,1,8,0:0:0:0:
256,192,70120,1,0,0:0:0:0:
256,192,70287,1,0,0:0:0:0:
256,192,70453,1,0,0:0:0:0:
256,192,70620,1,8,0:0:0:0:
256,192,70787,1,8,0:0:0:0:
256,192,70953,1,0,0:0:0:0:
256,192,71120,1,8,0:0:0:0:
256,192,71287,1,8,0:0:0:0:
256,192,71453,1,8,0:0:0:0:
256,192,71620,1,8,0:0:0:0:
256,192,71787,1,0,0:0:0:0:
256,192,72120,1,0,0:0:0:0:
256,192,72287,1,8,0:0:0:0:
256,192,72453,1,0,0:0:0:0:
256,192,72787,1,0,0:0:0:0:
256,192,72953,1,8,0:0:0:0:
256,192,73120,1,8,0:0:0:0:
256,192,73203,1,8,0:0:0:0:
256,192,73287,1,0,0:0:0:0:
256,192,73453,1,8,0:0:0:0:
256,192,73620,1,0,0:0:0:0:
256,192,73953,1,0,0:0:0:0:
256,192,74120,1,0,0:0:0:0:
256,192,74287,1,8,0:0:0:0:
256,192,74453,1,8,0:0:0:0:
256,192,74620,1,0,0:0:0:0:
256,192,74953,1,0,0:0:0:0:
256,192,75120,1,0,0:0:0:0:
256,192,75287,1,8,0:0:0:0:
256,192,75453,1,0,0:0:0:0:
256,192,75620,1,8,0:0:0:0:
256,192,75953,1,0,0:0:0:0:
256,192,76287,1,8,0:0:0:0:
256,192,76620,1,0,0:0:0:0:
256,192,76787,1,0,0:0:0:0:
256,192,76953,1,8,0:0:0:0:
256,192,77120,1,0,0:0:0:0:
256,192,77287,1,0,0:0:0:0:
256,192,77453,1,8,0:0:0:0:
256,192,77620,1,8,0:0:0:0:
256,192,77787,1,0,0:0:0:0:
256,192,77953,1,8,0:0:0:0:
256,192,78287,1,12,0:0:0:0:
256,192,78620,1,4,0:0:0:0:
256,192,78787,1,0,0:0:0:0:
256,192,78953,1,8,0:0:0:0:
256,192,79120,1,8,0:0:0:0:
256,192,79287,1,0,0:0:0:0:
256,192,79453,1,8,0:0:0:0:
256,192,79620,1,8,0:0:0:0:
256,192,79787,1,0,0:0:0:0:
256,192,80120,1,8,0:0:0:0:
256,192,80287,1,8,0:0:0:0:
256,192,80453,1,0,0:0:0:0:
256,192,80787,1,0,0:0:0:0:
256,192,80953,1,0,0:0:0:0:
256,192,81120,1,8,0:0:0:0:
256,192,81287,1,0,0:0:0:0:
256,192,81620,1,8,0:0:0:0:
256,192,81787,1,0,0:0:0:0:
256,192,81953,1,0,0:0:0:0:
256,192,82120,1,8,0:0:0:0:
256,192,82287,1,0,0:0:0:0:
256,192,82453,1,8,0:0:0:0:
256,192,82787,1,0,0:0:0:0:
256,192,82953,1,8,0:0:0:0:
256,192,83120,1,0,0:0:0:0:
256,192,83287,1,8,0:0:0:0:
256,192,83453,1,8,0:0:0:0:
256,192,83537,1,8,0:0:0:0:
256,192,83620,1,8,0:0:0:0:
256,192,83787,1,8,0:0:0:0:
256,192,83953,1,4,0:0:0:0:
256,192,84120,1,0,0:0:0:0:
256,192,84287,1,8,0:0:0:0:
256,192,84453,1,8,0:0:0:0:
256,192,84620,1,0,0:0:0:0:
256,192,84787,1,0,0:0:0:0:
256,192,84953,1,8,0:0:0:0:
256,192,85287,1,0,0:0:0:0:
256,192,85453,1,0,0:0:0:0:
256,192,85620,1,8,0:0:0:0:
256,192,85787,1,0,0:0:0:0:
256,192,86120,1,0,0:0:0:0:
256,192,86287,1,8,0:0:0:0:
256,192,86453,1,8,0:0:0:0:
256,192,86537,1,8,0:0:0:0:
256,192,86620,1,0,0:0:0:0:
256,192,86787,1,0,0:0:0:0:
256,192,86954,1,8,0:0:0:0:
256,192,87120,1,8,0:0:0:0:
256,192,87287,1,0,0:0:0:0:
256,192,87454,1,0,0:0:0:0:
256,192,87620,1,8,0:0:0:0:
256,192,87954,1,0,0:0:0:0:
256,192,88120,1,0,0:0:0:0:
256,192,88287,1,8,0:0:0:0:
256,192,88454,1,0,0:0:0:0:
256,192,88787,1,0,0:0:0:0:
256,192,88954,1,8,0:0:0:0:
256,192,89120,1,8,0:0:0:0:
256,192,89204,1,8,0:0:0:0:
256,192,89287,1,4,0:0:0:0:
256,192,89454,1,0,0:0:0:0:
256,192,89621,1,8,0:0:0:0:
256,192,89787,1,8,0:0:0:0:
256,192,89954,1,0,0:0:0:0:
256,192,90121,1,0,0:0:0:0:
256,192,90287,1,8,0:0:0:0:
256,192,90621,1,0,0:0:0:0:
256,192,90787,1,0,0:0:0:0:
256,192,90954,1,8,0:0:0:0:
256,192,91121,1,0,0:0:0:0:
256,192,91454,1,0,0:0:0:0:
256,192,91621,1,8,0:0:0:0:
256,192,91787,1,8,0:0:0:0:
256,192,91871,1,8,0:0:0:0:
256,192,91953,1,4,0:0:0:0:
256,192,92120,1,0,0:0:0:0:
256,192,92287,1,8,0:0:0:0:
256,192,92453,1,8,0:0:0:0:
256,192,92620,1,0,0:0:0:0:
256,192,92787,1,0,0:0:0:0:
256,192,92953,1,8,0:0:0:0:
256,192,93287,1,0,0:0:0:0:
256,192,93453,1,0,0:0:0:0:
256,192,93620,1,8,0:0:0:0:
256,192,93787,1,12,0:0:0:0:
256,192,94120,1,12,0:0:0:0:
