osu file format v14

[General]
AudioFilename: audio.mp3
AudioLeadIn: 0
PreviewTime: 62620
Countdown: 1
SampleSet: Normal
StackLeniency: 0.7
Mode: 1
LetterboxInBreaks: 0
WidescreenStoryboard: 1

[Editor]
DistanceSpacing: 0.2
BeatDivisor: 1
GridSize: 32
TimelineZoom: 2.899999

[Metadata]
Title:TOGENKYO
TitleUnicode:TOGENKYO
Artist:FREDERIC
ArtistUnicode:FREDERIC
Creator:Janifer
Version:Futsuu
Source:
Tags:
BeatmapID:2167313
BeatmapSetID:1035555

[Difficulty]
HPDrainRate:8
CircleSize:5
OverallDifficulty:2
ApproachRate:5
SliderMultiplier:1.4
SliderTickRate:1

[Events]
//Background and Video events
0,0,"background.png",0,0
//Break Periods
//Storyboard Layer 0 (Background)
//Storyboard Layer 1 (Fail)
//Storyboard Layer 2 (Pass)
//Storyboard Layer 3 (Foreground)
//Storyboard Layer 4 (Overlay)
//Storyboard Sound Samples

[TimingPoints]
7954,333.333333333333,4,1,0,100,1,0
17287,-90.9090909090909,4,1,0,100,0,0
19953,-100,4,1,0,100,0,0
62620,-100,4,1,0,100,0,1
83953,-100,4,1,0,100,0,0

[HitObjects]
256,191,7953,5,0,0:0:0:0:
261,191,8620,1,0,0:0:0:0:
266,191,9287,1,8,0:0:0:0:
255,190,10620,1,0,0:0:0:0:
255,190,11287,1,0,0:0:0:0:
255,190,11953,1,8,0:0:0:0:
255,190,12620,1,8,0:0:0:0:
255,190,13287,1,0,0:0:0:0:
257,195,13953,1,0,0:0:0:0:
266,191,14620,1,8,0:0:0:0:
256,192,15953,1,0,0:0:0:0:
256,192,16620,1,8,0:0:0:0:
256,192,17287,1,12,0:0:0:0:
256,192,18620,1,4,0:0:0:0:
256,192,19953,1,0,0:0:0:0:
256,192,20620,1,0,0:0:0:0:
256,192,21287,1,8,0:0:0:0:
256,192,21953,1,8,0:0:0:0:
256,192,22620,1,0,0:0:0:0:
256,192,23287,1,8,0:0:0:0:
256,192,23954,1,0,0:0:0:0:
256,192,24620,1,0,0:0:0:0:
256,192,24954,1,8,0:0:0:0:
256,192,25287,1,8,0:0:0:0:
256,192,25954,1,0,0:0:0:0:
256,192,26621,1,0,0:0:0:0:
256,192,27287,1,8,0:0:0:0:
256,192,27953,1,0,0:0:0:0:
256,192,28620,1,0,0:0:0:0:
256,192,29287,1,8,0:0:0:0:
256,192,29953,1,0,0:0:0:0:
256,192,30620,1,0,0:0:0:0:
256,192,31953,1,0,0:0:0:0:
256,192,33287,1,0,0:0:0:0:
256,192,34620,1,0,0:0:0:0:
256,192,35620,1,8,0:0:0:0:
256,192,35953,1,0,0:0:0:0:
256,192,37286,1,0,0:0:0:0:
256,192,38620,1,0,0:0:0:0:
256,192,39953,1,0,0:0:0:0:
257,197,40953,1,8,0:0:0:0:
253,197,41287,1,0,0:0:0:0:
257,197,42620,1,0,0:0:0:0:
257,197,43953,1,0,0:0:0:0:
257,197,45287,1,0,0:0:0:0:
257,197,46287,1,8,0:0:0:0:
257,197,46620,1,0,0:0:0:0:
257,197,47953,1,0,0:0:0:0:
257,197,49287,1,0,0:0:0:0:
257,197,49953,1,8,0:0:0:0:
257,197,50620,1,0,0:0:0:0:
262,196,51287,1,0,0:0:0:0:
262,196,51953,1,4,0:0:0:0:
262,196,52620,1,8,0:0:0:0:
262,196,53287,1,0,0:0:0:0:
262,196,53620,1,0,0:0:0:0:
256,192,53953,1,8,0:0:0:0:
262,196,54620,1,0,0:0:0:0:
256,192,55287,1,8,0:0:0:0:
256,192,55953,1,0,0:0:0:0:
256,192,56287,1,0,0:0:0:0:
256,192,56620,1,8,0:0:0:0:
262,196,57287,1,4,0:0:0:0:
262,196,58620,1,4,0:0:0:0:
257,192,59953,1,0,0:0:0:0:
257,192,61287,1,8,0:0:0:0:
257,192,61953,1,0,0:0:0:0:
259,194,62620,1,8,0:0:0:0:
256,192,63287,1,8,0:0:0:0:
261,197,63953,1,0,0:0:0:0:
257,199,64620,1,8,0:0:0:0:
259,194,65287,1,0,0:0:0:0:
261,197,65953,1,8,0:0:0:0:
259,194,66620,1,0,0:0:0:0:
261,197,66953,1,0,0:0:0:0:
257,199,67287,1,8,0:0:0:0:
261,197,67953,1,0,0:0:0:0:
261,197,68620,1,8,0:0:0:0:
261,200,69287,1,0,0:0:0:0:
261,197,69620,1,0,0:0:0:0:
261,197,69953,1,8,0:0:0:0:
261,197,70620,1,0,0:0:0:0:
261,197,71287,1,8,0:0:0:0:
261,197,71953,1,8,0:0:0:0:
259,194,73287,1,0,0:0:0:0:
257,199,73954,1,8,0:0:0:0:
261,197,74620,1,0,0:0:0:0:
261,197,75287,1,0,0:0:0:0:
257,199,75954,1,8,0:0:0:0:
261,197,76620,1,0,0:0:0:0:
259,194,77287,1,0,0:0:0:0:
261,197,77620,1,0,0:0:0:0:
257,199,77954,1,8,0:0:0:0:
261,197,78620,1,0,0:0:0:0:
261,197,79287,1,0,0:0:0:0:
257,199,79953,1,8,0:0:0:0:
261,197,80620,1,0,0:0:0:0:
261,197,80953,1,8,0:0:0:0:
261,197,81287,1,0,0:0:0:0:
261,197,81953,1,0,0:0:0:0:
261,197,82953,1,0,0:0:0:0:
256,192,83953,1,0,0:0:0:0:
256,192,84620,1,0,0:0:0:0:
256,192,85287,1,8,0:0:0:0:
256,192,85953,1,8,0:0:0:0:
256,192,86620,1,0,0:0:0:0:
256,192,87287,1,8,0:0:0:0:
256,192,87954,1,0,0:0:0:0:
256,192,88620,1,0,0:0:0:0:
256,192,88954,1,0,0:3:0:0:
256,192,89287,1,8,0:0:0:0:
256,192,89954,1,8,0:0:0:0:
256,192,90621,1,0,0:0:0:0:
256,192,91287,1,8,0:0:0:0:
256,192,91953,1,0,0:0:0:0:
256,192,92620,1,8,0:0:0:0:
256,192,93287,1,0,0:0:0:0:
256,192,93953,1,0,0:0:0:0:
