osu file format v14

[General]
AudioFilename: misakiIsHot.mp3
AudioLeadIn: 0
PreviewTime: 61173
Countdown: 0
SampleSet: Soft
StackLeniency: 0.7
Mode: 0
LetterboxInBreaks: 0
WidescreenStoryboard: 0

[Editor]
Bookmarks: 434,7194,34236,46067,47757,54518,61279,74800,87053
DistanceSpacing: 0.9
BeatDivisor: 4
GridSize: 4
TimelineZoom: 2.594838

[Metadata]
Title:Kanashii Ureshii
TitleUnicode:かなしいうれしい
Artist:FREDERIC
ArtistUnicode:フレデリック
Creator:Gaia
Version:Meyrink's Insane
Source:恋と嘘
Tags:Meyrink Koi to Uso Love and Lies & koiuso opening op tv size
BeatmapID:1349605
BeatmapSetID:635597

[Difficulty]
HPDrainRate:6
CircleSize:4
OverallDifficulty:7
ApproachRate:8.8
SliderMultiplier:1.8
SliderTickRate:1

[Events]
//Background and Video events
Video,0,"LilinaIsBae.flv"
0,0,"koito.jpg",0,0
//Break Periods
//Storyboard Layer 0 (Background)
//Storyboard Layer 1 (Fail)
//Storyboard Layer 2 (Pass)
//Storyboard Layer 3 (Foreground)
//Storyboard Sound Samples

[TimingPoints]
434,422.535211267606,4,2,1,50,1,0
434,-125,4,2,1,50,0,0
5504,-111.111111111111,4,2,2,60,0,0
5821,-111.111111111111,4,2,2,5,0,0
5926,-111.111111111111,4,2,2,60,0,0
6243,-111.111111111111,4,2,2,5,0,0
6349,-111.111111111111,4,2,2,60,0,0
6666,-111.111111111111,4,2,2,5,0,0
6772,-76.9230769230769,4,2,1,70,0,0
7194,-100,4,2,1,55,0,0
19870,-83.3333333333333,4,2,1,60,0,0
20715,-100,4,2,1,60,0,0
26631,-83.3333333333333,4,2,1,60,0,0
27476,-100,4,2,1,60,0,0
32546,-100,4,2,1,30,0,0
32969,-100,4,2,1,40,0,0
33391,-83.3333333333333,4,2,1,50,0,0
33814,-133.333333333333,4,2,2,70,0,0
34131,-133.333333333333,4,2,2,5,0,0
34236,-71.4285714285714,4,2,2,70,0,0
34659,-142.857142857143,4,2,2,70,0,0
34976,-142.857142857143,4,2,2,5,0,0
35081,-90.9090909090909,4,2,2,70,0,0
35926,-71.4285714285714,4,2,2,70,0,0
36349,-142.857142857143,4,2,2,70,0,0
36666,-142.857142857143,4,2,2,5,0,0
36771,-90.9090909090909,4,2,2,70,0,0
37617,-71.4285714285714,4,2,2,70,0,0
38039,-142.857142857143,4,2,2,70,0,0
38356,-142.857142857143,4,2,2,5,0,0
38462,-90.9090909090909,4,2,2,70,0,0
39307,-71.4285714285714,4,2,2,70,0,0
39729,-142.857142857143,4,2,2,70,0,0
40046,-142.857142857143,4,2,2,5,0,0
40152,-90.9090909090909,4,2,2,70,0,0
40997,-71.4285714285714,4,2,2,70,0,0
41419,-142.857142857143,4,2,2,70,0,0
41736,-142.857142857143,4,2,2,5,0,0
41842,-90.9090909090909,4,2,2,70,0,0
42687,-71.4285714285714,4,2,2,70,0,0
43110,-142.857142857143,4,2,2,70,0,0
43426,-142.857142857143,4,2,2,5,0,0
43532,-90.9090909090909,4,2,2,70,0,0
44377,-71.4285714285714,4,2,2,70,0,0
44800,-142.857142857143,4,2,2,70,0,0
45117,-142.857142857143,4,2,2,5,0,0
45222,-90.9090909090909,4,2,2,70,0,0
46067,-100,4,2,1,60,0,0
47335,-83.3333333333333,4,2,1,60,0,0
47652,-83.3333333333333,4,2,1,5,0,0
47757,-125,4,2,2,60,0,0
47969,-125,4,2,2,5,0,0
48074,-66.6666666666667,4,2,2,60,0,0
48286,-66.6666666666667,4,2,2,5,0,0
48391,-66.6666666666667,4,2,2,60,0,0
48603,-125,4,2,2,60,0,0
48814,-125,4,2,2,5,0,0
48919,-66.6666666666667,4,2,2,60,0,0
49131,-66.6666666666667,4,2,2,5,0,0
49236,-66.6666666666667,4,2,2,60,0,0
49448,-125,4,2,2,60,0,0
49659,-125,4,2,2,5,0,0
49764,-66.6666666666667,4,2,2,60,0,0
49976,-66.6666666666667,4,2,2,5,0,0
50081,-66.6666666666667,4,2,2,60,0,0
50293,-125,4,2,2,60,0,0
50504,-125,4,2,2,5,0,0
50610,-66.6666666666667,4,2,2,60,0,0
50821,-66.6666666666667,4,2,2,5,0,0
50926,-66.6666666666667,4,2,2,60,0,0
51138,-125,4,2,2,60,0,0
51349,-125,4,2,2,5,0,0
51455,-66.6666666666667,4,2,2,60,0,0
51666,-66.6666666666667,4,2,2,5,0,0
51771,-66.6666666666667,4,2,2,60,0,0
51983,-125,4,2,2,60,0,0
52194,-125,4,2,2,5,0,0
52300,-66.6666666666667,4,2,2,60,0,0
52511,-66.6666666666667,4,2,2,5,0,0
52616,-66.6666666666667,4,2,2,60,0,0
52828,-125,4,2,2,60,0,0
53039,-125,4,2,2,5,0,0
53145,-66.6666666666667,4,2,2,60,0,0
53356,-66.6666666666667,4,2,2,5,0,0
53461,-66.6666666666667,4,2,2,60,0,0
53673,-125,4,2,2,60,0,0
53884,-125,4,2,2,5,0,0
53990,-66.6666666666667,4,2,2,60,0,0
54201,-66.6666666666667,4,2,2,5,0,0
54306,-66.6666666666667,4,2,2,60,0,0
54518,-100,4,2,1,60,0,0
55574,-66.6666666666667,4,2,1,60,0,0
57053,-100,4,2,1,60,0,0
57898,-100,4,2,1,60,0,0
58532,-100,4,2,1,40,0,0
59166,-100,4,2,1,45,0,0
59588,-100,4,2,1,50,0,0
60011,-76.9230769230769,4,2,1,60,0,0
60434,-76.9230769230769,4,2,1,65,0,0
61279,-90.9090909090909,4,2,1,80,0,1
74377,-76.9230769230769,4,2,1,70,0,0
74800,-90.9090909090909,4,2,1,80,0,1
87053,-100,4,2,1,80,0,0

[Colours]
Combo1 : 230,230,230
Combo2 : 64,159,255
Combo3 : 255,158,62
Combo4 : 255,255,140
Combo5 : 255,0,0

[HitObjects]
283,33,434,6,0,P|249:37|211:42,1,72,2|2,3:2|0:0,0:0:0:0:
149,138,856,2,0,P|182:142|220:148,1,72,2|2,3:2|0:0,0:0:0:0:
333,107,1279,2,0,P|314:176|298:246,1,144,2|2,3:2|3:2,0:0:0:0:
410,255,1912,1,2,0:0:0:0:
346,345,2124,6,0,P|276:350|213:315,1,144,2|2,3:2|3:2,0:0:0:0:
152,188,2757,1,2,0:0:0:0:
84,248,2969,2,0,P|154:237|226:226,1,144,2|2,3:2|3:2,0:0:0:0:
342,188,3603,1,2,0:0:0:0:
342,188,3708,1,0,0:0:0:0:
342,188,3814,6,0,P|332:222|325:257,1,72,2|2,3:2|0:0,0:0:0:0:
251,309,4236,2,0,P|260:343|268:378,1,72,2|2,3:2|0:0,0:0:0:0:
175,252,4659,2,0,P|117:247|66:260,1,108,2|2,3:2|0:0,0:0:0:0:
30,278,5081,1,2,3:0:0:0:
175,146,5293,1,2,0:0:0:0:
101,52,5504,38,0,P|92:112|74:170,1,121.499996292114,0|0,3:2|0:0,0:0:0:0:
158,249,5926,2,0,P|214:226|273:212,1,121.499996292114,0|0,3:2|0:0,0:0:0:0:
304,107,6349,2,0,P|256:69|214:25,1,121.499996292114,0|0,3:2|0:0,0:0:0:0:
176,133,6772,38,0,L|156:261,1,116.999994644165,4|8,3:2|0:0,0:0:0:0:
90,328,7088,1,8,0:0:0:0:
103,307,7194,38,0,L|241:275,1,135,4|0,3:2|0:0,0:0:0:0:
333,381,7617,2,0,P|288:372|244:364,1,90,8|2,0:0|0:0,0:0:0:0:
316,188,8039,1,0,3:2:0:0:
397,324,8250,1,2,0:0:0:0:
397,324,8356,1,0,3:2:0:0:
397,324,8462,1,8,0:0:0:0:
225,228,8673,1,2,3:2:0:0:
376,128,8884,6,0,P|365:194|355:261,1,135,0|0,3:2|0:0,0:0:0:0:
492,354,9307,2,0,P|483:309|473:265,1,90,8|2,0:0|0:0,0:0:0:0:
451,181,9624,1,2,0:0:0:0:
451,181,9729,1,0,3:2:0:0:
247,261,9941,1,2,0:0:0:0:
247,261,10046,1,2,3:2:0:0:
247,261,10152,1,8,0:0:0:0:
282,51,10363,1,2,3:2:0:0:
374,186,10574,37,0,3:2:0:0:
177,124,10786,1,2,0:0:0:0:
115,312,10997,1,8,0:0:0:0:
312,374,11209,1,2,0:0:0:0:
241,187,11419,2,0,P|198:199|155:210,1,90,0|2,3:2|0:0,0:0:0:0:
67,232,11736,1,2,3:2:0:0:
67,232,11842,1,8,0:0:0:0:
156,38,12053,1,2,3:2:0:0:
3,99,12264,6,0,P|71:113|135:125,1,135,0|2,3:2|0:0,0:0:0:0:
226,158,12687,2,0,P|266:141|311:130,1,90,8|2,0:0|0:0,0:0:0:0:
188,271,13110,1,0,3:2:0:0:
346,337,13321,1,2,0:0:0:0:
346,337,13426,1,0,3:2:0:0:
346,337,13532,1,8,0:0:0:0:
315,169,13743,1,2,3:2:0:0:
216,356,13955,6,0,P|168:352|122:342,2,90,2|2|10,3:2|0:0|0:0,0:0:0:0:
371,255,14588,1,2,0:0:0:0:
282,81,14800,2,0,P|234:127|222:193,1,135,0|0,3:2|3:2,0:0:0:0:
262,262,15222,1,8,0:0:0:0:
87,161,15434,1,2,3:2:0:0:
136,352,15645,38,0,P|146:309|156:265,1,90,2|2,3:2|0:0,0:0:0:0:
175,185,15962,1,0,0:0:0:0:
175,185,16067,1,10,0:0:0:0:
7,195,16279,1,2,0:0:0:0:
173,66,16490,1,0,3:2:0:0:
238,253,16701,1,2,0:0:0:0:
238,253,16807,1,0,3:2:0:0:
238,253,16912,1,8,0:0:0:0:
98,124,17124,1,2,3:2:0:0:
0,293,17335,6,0,P|8:337|15:381,1,90,4|2,3:2|0:0,0:0:0:0:
150,266,17757,2,0,P|157:221|165:177,1,90,8|2,0:0|0:0,0:0:0:0:
271,34,18180,2,0,P|317:81|325:147,1,135,0|0,3:2|3:2,0:0:0:0:
294,225,18603,1,8,0:0:0:0:
500,214,18814,1,2,3:2:0:0:
496,210,18919,1,2,0:0:0:0:
492,206,19025,6,0,P|451:194|397:184,1,90,0|2,3:2|0:0,0:0:0:0:
261,325,19448,2,0,P|304:312|348:304,1,90,8|2,0:0|0:0,0:0:0:0:
442,350,19764,37,2,0:0:0:0:
446,345,19870,1,0,3:2:0:0:
449,340,19976,2,0,L|460:285,1,53.9999983520508,2|2,0:0|0:0,0:0:0:0:
350,126,20188,1,0,3:2:0:0:
332,129,20293,2,0,P|320:181|309:234,1,107.999996704102,8|2,0:0|3:2,0:0:0:0:
195,375,20715,5,4,3:2:0:0:
191,181,20926,1,2,0:0:0:0:
348,303,21138,1,8,0:0:0:0:
168,267,21349,1,2,0:0:0:0:
162,269,21455,1,0,0:0:0:0:
156,271,21560,2,0,P|109:225|101:159,1,135,0|0,3:2|3:2,0:0:0:0:
170,57,21983,2,0,P|190:97|203:140,1,90,8|2,0:0|3:2,0:0:0:0:
76,309,22405,6,0,P|145:296|209:286,1,135,0|0,3:2|0:0,0:0:0:0:
298,309,22828,1,8,0:0:0:0:
403,156,23039,1,2,0:0:0:0:
236,48,23250,1,0,3:2:0:0:
321,211,23462,1,2,0:0:0:0:
321,211,23567,1,2,3:2:0:0:
321,211,23673,1,8,0:0:0:0:
406,74,23884,1,2,3:2:0:0:
216,155,24095,38,0,P|228:196|239:241,1,90,0|2,3:2|0:0,0:0:0:0:
378,338,24518,2,0,P|388:294|401:251,1,90,8|2,0:0|0:0,0:0:0:0:
459,4,24941,2,0,P|493:60|482:130,1,135,0|2,3:2|3:2,0:0:0:0:
426,181,25363,1,8,0:0:0:0:
300,8,25574,1,2,3:2:0:0:
198,147,25786,6,0,P|242:138|286:132,1,90,0|2,3:2|0:0,0:0:0:0:
196,294,26208,2,0,P|151:287|107:278,1,90,8|2,0:0|0:0,0:0:0:0:
88,118,26631,6,0,P|96:144|102:171,1,53.9999983520508,0|2,3:2|0:0,0:0:0:0:
0,288,26842,2,0,P|5:261|13:235,1,53.9999983520508,2|0,0:0|3:2,0:0:0:0:
154,66,27053,2,0,P|171:116|185:169,1,107.999996704102,8|2,0:0|3:2,0:0:0:0:
268,382,27476,38,0,P|284:315|299:251,1,135,2|0,3:2|0:0,0:0:0:0:
325,164,27898,1,10,0:0:0:0:
178,252,28110,1,2,0:0:0:0:
334,347,28321,1,0,3:2:0:0:
473,195,28532,1,2,0:0:0:0:
470,198,28638,1,0,3:2:0:0:
467,201,28743,2,0,P|424:213|373:228,1,90,8|2,0:0|3:2,0:0:0:0:
234,159,29166,5,2,3:2:0:0:
378,307,29377,1,2,0:0:0:0:
350,121,29588,1,10,0:0:0:0:
252,312,29800,1,2,0:0:0:0:
457,366,30011,1,0,3:2:0:0:
334,220,30222,1,2,0:0:0:0:
334,220,30328,1,0,3:2:0:0:
334,220,30434,1,8,0:0:0:0:
487,106,30645,1,2,3:2:0:0:
410,290,30856,6,0,P|369:304|321:319,1,90,2|2,3:2|0:0,0:0:0:0:
115,242,31279,2,0,P|158:228|200:214,1,90,8|2,0:0|0:0,0:0:0:0:
372,97,31701,2,0,P|352:160|331:237,1,135,0|0,3:2|3:2,0:0:0:0:
305,321,32124,1,10,0:0:0:0:
100,162,32335,1,2,3:2:0:0:
188,32,32546,37,8,0:0:0:0:
217,53,32651,1,8,0:0:0:0:
236,84,32757,1,8,0:0:0:0:
246,118,32862,1,8,0:0:0:0:
244,160,32969,5,8,0:0:0:0:
230,197,33074,1,8,0:0:0:0:
198,223,33180,1,8,0:0:0:0:
183,263,33286,1,8,0:0:0:0:
187,311,33391,22,0,P|200:336|215:359,1,53.9999983520508,8|8,0:0|0:0,0:0:0:0:
127,167,33603,2,0,P|107:188|91:209,1,53.9999983520508,8|8,0:0|0:0,0:0:0:0:
284,286,33814,6,0,P|332:301|382:307,1,101.250003862381,0|0,3:2|0:0,0:0:0:0:
404,310,34236,54,0,L|277:332,1,125.999996154785,12|0,3:2|0:0,0:0:0:0:
115,353,34659,6,0,P|127:306|143:262,1,94.499997116089,8|0,3:2|0:0,0:0:0:0:
196,168,35081,6,0,P|147:175|98:182,1,99.0000030212403,8|0,3:2|0:0,0:0:0:0:
11,196,35398,1,8,3:2:0:0:
11,196,35504,1,2,0:0:0:0:
192,58,35715,1,8,3:2:0:0:
272,222,35926,38,0,P|335:206|392:186,1,125.999996154785,8|0,3:2|0:0,0:0:0:0:
511,101,36349,6,0,P|496:146|486:192,1,94.499997116089,8|0,3:2|0:0,0:0:0:0:
421,280,36772,6,0,P|408:231|392:185,1,99.0000030212403,8|0,3:2|0:0,0:0:0:0:
336,120,37088,1,8,3:2:0:0:
336,120,37194,1,2,0:0:0:0:
145,161,37405,1,8,3:2:0:0:
259,11,37617,38,0,L|231:138,1,125.999996154785,8|0,3:2|0:0,0:0:0:0:
183,333,38039,6,0,L|163:239,1,94.499997116089,8|0,3:2|0:0,0:0:0:0:
63,153,38462,6,0,L|39:260,1,99.0000030212403,8|0,3:2|0:0,0:0:0:0:
23,326,38779,1,8,3:2:0:0:
23,326,38884,1,2,0:0:0:0:
149,149,39095,1,8,3:2:0:0:
266,316,39307,38,0,P|208:300|143:286,1,125.999996154785,8|0,3:2|0:0,0:0:0:0:
240,118,39729,6,0,L|259:215,1,94.499997116089,8|0,3:2|0:0,0:0:0:0:
266,316,40152,6,0,P|312:297|359:284,1,99.0000030212403,8|0,3:2|0:0,0:0:0:0:
447,276,40469,1,8,3:2:0:0:
447,276,40574,1,2,0:0:0:0:
307,202,40786,1,8,3:2:0:0:
438,65,40997,38,0,P|438:127|411:184,1,125.999996154785,12|0,3:2|0:0,0:0:0:0:
231,133,41419,6,0,P|228:92|246:43,1,94.499997116089,8|0,3:2|0:0,0:0:0:0:
332,106,41842,6,0,P|320:154|308:202,1,99.0000030212403,8|0,3:2|0:0,0:0:0:0:
287,281,42159,1,8,3:2:0:0:
287,281,42264,1,2,0:0:0:0:
135,173,42476,1,8,3:2:0:0:
271,34,42687,38,0,P|209:45|146:55,1,125.999996154785,8|0,3:2|0:0,0:0:0:0:
42,158,43110,6,0,L|139:174,1,94.499997116089,8|0,3:2|0:0,0:0:0:0:
238,238,43532,6,0,P|190:246|140:256,1,99.0000030212403,8|0,3:2|0:0,0:0:0:0:
51,282,43849,1,8,3:2:0:0:
51,282,43955,1,2,0:0:0:0:
234,333,44166,1,8,3:2:0:0:
173,134,44377,38,0,P|156:194|140:255,1,125.999996154785,8|0,3:2|0:0,0:0:0:0:
319,364,44800,6,0,P|311:319|297:264,1,94.499997116089,8|0,3:2|0:0,0:0:0:0:
250,167,45222,6,0,P|298:182|348:192,1,99.0000030212403,8|0,3:2|0:0,0:0:0:0:
432,206,45539,1,8,3:2:0:0:
432,206,45645,1,2,0:0:0:0:
201,269,45856,1,8,3:2:0:0:
232,30,46067,5,8,3:2:0:0:
243,54,46490,1,8,3:2:0:0:
255,78,46912,1,8,3:2:0:0:
266,103,47335,54,0,B|209:91|209:91|157:96|157:96|107:83,1,161.999995056153,8|0,3:2|0:0,0:0:0:0:
7,187,47757,54,0,P|41:181|82:176,1,72,14|0,3:2|0:0,0:0:0:0:
105,176,48074,54,0,L|76:321,1,135.000005149842,8|0,3:2|0:0,0:0:0:0:
70,355,48391,1,10,3:2:0:0:
281,296,48603,6,0,P|245:289|209:285,1,72,10|0,3:2|0:0,0:0:0:0:
168,306,48919,54,0,P|234:316|301:324,1,135.000005149842,8|0,3:2|0:0,0:0:0:0:
348,332,49236,1,10,3:2:0:0:
455,202,49448,6,0,P|450:166|444:130,1,72,10|0,3:2|0:0,0:0:0:0:
461,92,49764,54,0,P|408:134|342:140,1,135.000005149842,8|0,3:2|0:0,0:0:0:0:
300,126,50081,1,10,3:2:0:0:
117,201,50293,6,0,P|152:205|188:211,1,72,10|0,3:2|0:0,0:0:0:0:
228,232,50610,54,0,L|206:98,1,135.000005149842,8|0,3:2|0:0,0:0:0:0:
198,59,50926,1,10,3:2:0:0:
29,27,51138,6,0,P|24:63|18:99,1,72,10|0,3:2|0:0,0:0:0:0:
0,135,51455,54,0,P|77:124|132:159,1,135.000005149842,8|0,3:2|0:0,0:0:0:0:
147,190,51772,1,10,3:2:0:0:
72,306,51983,6,0,P|66:270|61:234,1,72,10|0,3:2|0:0,0:0:0:0:
55,208,52300,54,0,L|37:351,1,135.000005149842,8|0,3:2|0:0,0:0:0:0:
30,384,52617,1,10,3:2:0:0:
181,293,52828,6,0,P|175:257|169:221,1,72,10|0,3:2|0:0,0:0:0:0:
148,191,53145,54,0,L|290:212,1,135.000005149842,8|0,3:2|0:0,0:0:0:0:
328,219,53462,1,10,3:2:0:0:
457,118,53673,6,0,P|421:112|385:106,1,72,10|0,3:2|0:0,0:0:0:0:
353,86,53990,54,0,P|340:153|327:219,1,135.000005149842,8|0,3:2|0:0,0:0:0:0:
319,265,54307,1,8,3:2:0:0:
512,192,54518,37,4,3:1:0:0:
512,192,54941,1,0,3:2:0:0:
512,192,55363,1,0,3:2:0:0:
329,289,55574,22,0,P|295:232|297:165,1,135.000005149842,4|8,3:1|0:0,0:0:0:0:
399,135,55891,2,0,P|434:191|432:258,1,135.000005149842,4|0,3:1|0:0,0:0:0:0:
401,341,56208,53,4,3:1:0:0:
401,341,56631,1,0,3:2:0:0:
401,341,57053,22,0,B|348:332|348:332|282:340|282:340|217:330,1,180,4|0,3:1|3:2,0:0:0:0:
163,241,57687,1,0,0:0:0:0:
163,241,57793,1,0,0:0:0:0:
163,241,57898,6,0,P|207:233|265:222,2,90,0|2|0,3:2|0:0|3:2,0:0:0:0:
41,222,58532,5,2,0:0:0:0:
35,209,58637,1,2,0:0:0:0:
32,196,58743,1,2,0:3:0:0:
27,182,58848,1,2,0:3:0:0:
22,168,58954,1,2,0:3:0:0:
17,155,59060,1,2,0:3:0:0:
25,125,59165,5,2,0:3:0:0:
57,99,59272,1,2,0:3:0:0:
97,96,59377,1,2,0:3:0:0:
134,110,59483,1,2,0:3:0:0:
165,141,59588,37,2,0:3:0:0:
199,170,59694,1,2,0:3:0:0:
243,175,59800,1,2,0:3:0:0:
285,162,59905,1,2,0:3:0:0:
320,134,60011,38,0,P|325:104|327:73,1,58.4999973220826,2|2,0:3|0:3,0:0:0:0:
444,18,60222,2,0,P|446:47|450:75,1,58.4999973220826,2|2,0:3|0:3,0:0:0:0:
494,226,60434,2,0,P|468:214|440:206,1,58.4999973220826,2|2,0:3|0:3,0:0:0:0:
283,253,60645,5,4,3:1:0:0:
266,171,61279,6,0,P|248:243|230:315,1,148.50000453186,4|0,3:2|0:0,0:0:0:0:
126,384,61701,2,0,P|116:330|106:282,1,99.0000030212403,8|2,0:0|0:0,0:0:0:0:
37,97,62124,1,0,3:2:0:0:
26,231,62335,1,2,0:0:0:0:
26,231,62441,1,2,0:0:0:0:
26,231,62546,2,0,P|75:212|126:197,1,99.0000030212403,8|2,0:0|0:0,0:0:0:0:
340,127,62969,6,0,P|285:87|210:104,1,148.50000453186,2|0,3:2|0:0,0:0:0:0:
131,183,63391,2,0,P|126:231|121:282,1,99.0000030212403,8|0,0:0|0:0,0:0:0:0:
266,171,63814,1,0,3:2:0:0:
147,27,64025,1,2,0:0:0:0:
147,27,64131,1,0,0:0:0:0:
147,27,64236,1,8,0:0:0:0:
211,237,64448,1,2,0:0:0:0:
399,84,64659,6,0,P|349:89|300:93,1,99.0000030212403,0|2,3:2|0:0,0:0:0:0:
155,251,65081,2,0,P|204:256|253:261,1,99.0000030212403,8|2,0:0|0:0,0:0:0:0:
358,178,65504,1,0,3:2:0:0:
224,351,65715,1,2,0:0:0:0:
224,351,65821,1,0,0:0:0:0:
224,351,65926,1,8,0:0:0:0:
244,165,66138,1,2,0:0:0:0:
379,327,66349,38,0,P|427:314|479:301,1,99.0000030212403,0|2,3:2|0:0,0:0:0:0:
434,130,66772,1,8,0:0:0:0:
421,119,66877,2,0,P|413:169|406:216,1,99.0000030212403,2|2,0:0|0:0,0:0:0:0:
379,327,67194,1,0,3:2:0:0:
215,234,67405,1,2,0:0:0:0:
215,234,67511,1,2,0:0:0:0:
215,234,67617,1,8,0:0:0:0:
336,111,67828,1,2,0:0:0:0:
292,302,68039,6,0,P|244:315|197:330,1,99.0000030212403,2|2,3:2|0:0,0:0:0:0:
55,270,68462,2,0,P|18:208|15:134,1,148.50000453186,8|2,0:0|0:0,0:0:0:0:
25,99,68884,1,0,3:2:0:0:
198,162,69095,1,2,0:0:0:0:
144,3,69307,2,0,L|120:106,1,99.0000030212403,8|2,0:0|0:0,0:0:0:0:
54,270,69729,6,0,P|102:257|151:250,1,99.0000030212403,0|2,3:2|0:0,0:0:0:0:
232,250,70046,1,2,0:0:0:0:
232,250,70152,1,8,0:0:0:0:
371,320,70363,1,0,0:0:0:0:
278,176,70574,2,0,P|260:249|247:322,1,148.50000453186,0|2,3:2|0:0,0:0:0:0:
363,376,70997,2,0,P|357:320|347:273,1,99.0000030212403,8|2,0:0|0:0,0:0:0:0:
331,102,71419,38,0,P|272:145|196:139,1,148.50000453186,0|2,3:2|0:0,0:0:0:0:
158,118,71842,1,8,0:0:0:0:
268,0,72053,1,2,0:0:0:0:
369,198,72264,1,0,3:2:0:0:
182,262,72476,1,2,0:0:0:0:
182,262,72581,1,2,0:0:0:0:
182,262,72687,1,8,0:0:0:0:
281,126,72898,1,2,0:0:0:0:
359,286,73110,6,0,P|348:335|339:387,1,99.0000030212403,0|2,3:2|0:0,0:0:0:0:
500,248,73532,2,0,P|491:199|480:150,1,99.0000030212403,8|0,0:0|0:0,0:0:0:0:
255,63,73955,1,0,3:2:0:0:
240,87,74060,2,0,P|288:77|337:69,1,99.0000030212403,10|0,0:0|0:0,0:0:0:0:
407,210,74377,22,0,P|377:202|328:196,1,58.4999973220826,8|10,0:0|0:0,0:0:0:0:
203,173,74588,2,0,P|209:201|213:230,1,58.4999973220826,8|2,0:0|0:0,0:0:0:0:
298,333,74800,22,0,P|224:346|152:362,1,148.50000453186,4|0,3:2|0:0,0:0:0:0:
39,273,75222,2,0,P|91:280|140:285,1,99.0000030212403,8|2,0:0|0:0,0:0:0:0:
289,212,75645,1,0,3:2:0:0:
144,97,75856,1,2,0:0:0:0:
144,97,75962,1,2,0:0:0:0:
144,97,76067,1,8,0:0:0:0:
227,283,76279,1,2,0:0:0:0:
320,121,76490,6,0,P|247:128|195:179,1,148.50000453186,2|0,3:2|0:0,0:0:0:0:
112,267,76912,2,0,P|102:217|88:166,1,99.0000030212403,8|0,0:0|0:0,0:0:0:0:
268,0,77335,2,0,P|255:47|245:96,1,99.0000030212403,0|2,3:2|0:0,0:0:0:0:
238,176,77652,1,0,0:0:0:0:
238,176,77757,1,8,0:0:0:0:
394,78,77969,1,2,0:0:0:0:
238,176,78180,6,0,P|190:188|141:200,1,99.0000030212403,0|2,3:2|0:0,0:0:0:0:
307,275,78603,2,0,P|354:261|402:250,1,99.0000030212403,8|2,0:0|0:0,0:0:0:0:
315,116,79025,1,0,3:2:0:0:
199,275,79236,1,2,0:0:0:0:
199,275,79342,1,0,0:0:0:0:
199,275,79448,1,8,0:0:0:0:
370,365,79659,1,2,0:0:0:0:
270,196,79870,37,0,3:2:0:0:
180,356,80081,1,2,0:0:0:0:
23,233,80293,1,8,0:0:0:0:
23,233,80398,2,0,P|70:244|119:255,1,99.0000030212403,2|2,0:0|0:0,0:0:0:0:
199,275,80715,1,0,3:2:0:0:
64,102,80926,1,2,0:0:0:0:
64,102,81032,1,2,0:0:0:0:
64,102,81138,1,8,0:0:0:0:
221,40,81349,1,2,0:0:0:0:
118,210,81560,6,0,P|108:258|102:307,1,99.0000030212403,2|2,3:2|0:0,0:0:0:0:
352,313,81983,2,0,P|302:260|229:255,1,148.50000453186,8|2,0:0|0:0,0:0:0:0:
199,275,82405,1,0,3:2:0:0:
347,159,82617,1,2,0:0:0:0:
259,350,82828,2,0,P|211:360|162:365,1,99.0000030212403,8|2,0:0|0:0,0:0:0:0:
25,226,83250,6,0,P|73:231|121:241,1,99.0000030212403,0|2,3:2|0:0,0:0:0:0:
199,275,83567,1,2,0:0:0:0:
199,275,83673,1,8,0:0:0:0:
51,131,83884,1,0,0:0:0:0:
217,37,84095,2,0,P|194:106|175:181,1,148.50000453186,0|2,3:2|0:0,0:0:0:0:
199,275,84518,2,0,L|300:255,1,99.0000030212403,8|2,0:0|0:0,0:0:0:0:
446,128,84941,38,0,P|373:142|300:157,1,148.50000453186,0|2,3:2|0:0,0:0:0:0:
252,170,85363,1,8,0:0:0:0:
406,283,85574,1,2,0:0:0:0:
336,65,85786,1,0,3:2:0:0:
170,219,85997,1,2,0:0:0:0:
362,163,86208,1,8,0:0:0:0:
362,163,86314,1,8,0:0:0:0:
362,163,86419,1,2,3:2:0:0:
306,349,86631,37,2,3:2:0:0:
82,264,86842,1,2,3:2:0:0:
164,59,87053,1,6,3:2:0:0:
