osu file format v14

[General]
AudioFilename: misakiIsHot.mp3
AudioLeadIn: 0
PreviewTime: 61173
Countdown: 0
SampleSet: Soft
StackLeniency: 0.7
Mode: 0
LetterboxInBreaks: 0
WidescreenStoryboard: 0

[Editor]
DistanceSpacing: 0.8
BeatDivisor: 4
GridSize: 4
TimelineZoom: 1.2

[Metadata]
Title:Kanashii Ureshii
TitleUnicode:かなしいうれしい
Artist:FREDERIC
ArtistUnicode:フレデリック
Creator:Gaia
Version:Insane
Source:恋と嘘
Tags:Meyrink Koi to Uso Love and Lies & koiuso opening op tv size
BeatmapID:1348764
BeatmapSetID:635597

[Difficulty]
HPDrainRate:6
CircleSize:4.2
OverallDifficulty:8
ApproachRate:9
SliderMultiplier:1.8
SliderTickRate:1

[Events]
//Background and Video events
0,0,"koito.jpg",0,0
Video,0,"LilinaIsBae.flv"
//Break Periods
//Storyboard Layer 0 (Background)
//Storyboard Layer 1 (Fail)
//Storyboard Layer 2 (Pass)
//Storyboard Layer 3 (Foreground)
//Storyboard Sound Samples

[TimingPoints]
434,422.535211267606,4,2,1,50,1,0
434,-142.857142857143,4,2,1,50,0,0
2969,-100,4,2,1,50,0,0
3814,-142.857142857143,4,2,1,50,0,0
4659,-125,4,2,1,50,0,0
5504,-250,4,2,2,50,0,0
5821,-250,4,2,2,5,0,0
5926,-200,4,2,2,60,0,0
6243,-200,4,2,2,5,0,0
6349,-142.857142857143,4,2,2,70,0,0
6666,-142.857142857143,4,2,2,5,0,0
6772,-83.3333333333333,4,2,2,80,0,0
6983,-83.3333333333333,4,2,1,80,0,0
7194,-100,4,2,1,60,0,0
32546,-100,4,2,1,40,0,0
32969,-100,4,2,1,50,0,0
33391,-71.4285714285714,4,2,1,60,0,0
33814,-215.05376344086,4,2,2,70,0,0
34025,-215.05376344086,4,2,2,30,0,0
34131,-215.05376344086,4,2,2,5,0,0
34236,-76.9230769230769,4,2,2,60,0,0
34553,-76.9230769230769,4,2,2,5,0,0
34659,-166.666666666667,4,2,2,60,0,0
34976,-166.666666666667,4,2,2,5,0,0
35081,-90.9090909090909,4,2,2,60,0,0
35293,-90.9090909090909,4,2,2,5,0,0
35398,-76.9230769230769,4,2,2,60,0,0
35610,-76.9230769230769,4,2,2,5,0,0
35715,-58.8235294117647,4,2,2,60,0,0
35821,-58.8235294117647,4,2,2,5,0,0
35926,-76.9230769230769,4,2,2,60,0,0
36243,-76.9230769230769,4,2,2,5,0,0
36349,-166.666666666667,4,2,2,60,0,0
36666,-166.666666666667,4,2,2,5,0,0
36771,-90.9090909090909,4,2,2,60,0,0
36983,-90.9090909090909,4,2,2,5,0,0
37088,-76.9230769230769,4,2,2,60,0,0
37300,-76.9230769230769,4,2,2,5,0,0
37405,-58.8235294117647,4,2,2,60,0,0
37511,-58.8235294117647,4,2,2,5,0,0
37617,-76.9230769230769,4,2,2,60,0,0
37934,-76.9230769230769,4,2,2,5,0,0
38039,-166.666666666667,4,2,2,60,0,0
38356,-166.666666666667,4,2,2,5,0,0
38462,-90.9090909090909,4,2,2,60,0,0
38673,-90.9090909090909,4,2,2,5,0,0
38779,-76.9230769230769,4,2,2,60,0,0
38990,-76.9230769230769,4,2,2,5,0,0
39096,-58.8235294117647,4,2,2,60,0,0
39201,-58.8235294117647,4,2,2,5,0,0
39307,-76.9230769230769,4,2,2,60,0,0
39624,-76.9230769230769,4,2,2,5,0,0
39729,-166.666666666667,4,2,2,60,0,0
40046,-166.666666666667,4,2,2,5,0,0
40152,-90.9090909090909,4,2,2,60,0,0
40363,-90.9090909090909,4,2,2,5,0,0
40469,-76.9230769230769,4,2,2,60,0,0
40680,-76.9230769230769,4,2,2,5,0,0
40786,-58.8235294117647,4,2,2,60,0,0
40891,-58.8235294117647,4,2,2,5,0,0
40997,-76.9230769230769,4,2,2,60,0,0
41314,-76.9230769230769,4,2,2,5,0,0
41419,-166.666666666667,4,2,2,60,0,0
41736,-166.666666666667,4,2,2,5,0,0
41842,-90.9090909090909,4,2,2,60,0,0
42053,-90.9090909090909,4,2,2,5,0,0
42159,-76.9230769230769,4,2,2,60,0,0
42370,-76.9230769230769,4,2,2,5,0,0
42476,-58.8235294117647,4,2,2,60,0,0
42581,-58.8235294117647,4,2,2,5,0,0
42687,-76.9230769230769,4,2,2,60,0,0
43004,-76.9230769230769,4,2,2,5,0,0
43110,-166.666666666667,4,2,2,60,0,0
43426,-166.666666666667,4,2,2,5,0,0
43532,-90.9090909090909,4,2,2,60,0,0
43743,-90.9090909090909,4,2,2,5,0,0
43849,-76.9230769230769,4,2,2,60,0,0
44060,-76.9230769230769,4,2,2,5,0,0
44166,-58.8235294117647,4,2,2,60,0,0
44272,-58.8235294117647,4,2,2,5,0,0
44377,-76.9230769230769,4,2,2,60,0,0
44694,-76.9230769230769,4,2,2,5,0,0
44800,-166.666666666667,4,2,2,60,0,0
45117,-166.666666666667,4,2,2,5,0,0
45222,-90.9090909090909,4,2,2,60,0,0
45434,-90.9090909090909,4,2,2,5,0,0
45539,-76.9230769230769,4,2,2,60,0,0
45750,-76.9230769230769,4,2,2,5,0,0
45856,-58.8235294117647,4,2,2,60,0,0
45962,-58.8235294117647,4,2,2,5,0,0
46067,-250,4,2,2,60,0,0
46384,-250,4,2,2,5,0,0
46489,-200,4,2,2,60,0,0
46807,-200,4,2,2,5,0,0
46912,-142.857142857143,4,2,2,60,0,0
47229,-142.857142857143,4,2,2,5,0,0
47335,-83.3333333333333,4,2,2,60,0,0
47652,-83.3333333333333,4,2,2,5,0,0
47757,-125,4,2,2,70,0,0
47969,-125,4,2,2,5,0,0
48074,-62.5,4,2,2,70,0,0
48286,-62.5,4,2,2,5,0,0
48391,-55.5555555555556,4,2,2,70,0,0
48497,-55.5555555555556,4,2,2,5,0,0
48603,-125,4,2,2,70,0,0
48814,-125,4,2,2,5,0,0
48919,-62.5,4,2,2,70,0,0
49131,-62.5,4,2,2,5,0,0
49237,-55.5555555555556,4,2,2,70,0,0
49342,-55.5555555555556,4,2,2,5,0,0
49448,-125,4,2,2,70,0,0
49659,-125,4,2,2,5,0,0
49764,-62.5,4,2,2,70,0,0
49976,-62.5,4,2,2,5,0,0
50082,-55.5555555555556,4,2,2,70,0,0
50187,-55.5555555555556,4,2,2,5,0,0
50293,-125,4,2,2,70,0,0
50504,-125,4,2,2,5,0,0
50610,-62.5,4,2,2,70,0,0
50821,-62.5,4,2,2,5,0,0
50927,-55.5555555555556,4,2,2,70,0,0
51032,-55.5555555555556,4,2,2,5,0,0
51138,-125,4,2,2,70,0,0
51349,-125,4,2,2,5,0,0
51455,-62.5,4,2,2,70,0,0
51666,-62.5,4,2,2,5,0,0
51772,-55.5555555555556,4,2,2,70,0,0
51877,-55.5555555555556,4,2,2,5,0,0
51983,-125,4,2,2,70,0,0
52194,-125,4,2,2,5,0,0
52300,-62.5,4,2,2,70,0,0
52511,-62.5,4,2,2,5,0,0
52617,-55.5555555555556,4,2,2,70,0,0
52722,-55.5555555555556,4,2,2,5,0,0
52828,-125,4,2,2,70,0,0
53039,-125,4,2,2,5,0,0
53145,-62.5,4,2,2,70,0,0
53356,-62.5,4,2,2,5,0,0
53462,-55.5555555555556,4,2,2,70,0,0
53567,-55.5555555555556,4,2,2,5,0,0
53673,-125,4,2,2,70,0,0
53884,-125,4,2,2,5,0,0
53990,-62.5,4,2,2,70,0,0
54201,-62.5,4,2,2,5,0,0
54307,-55.5555555555556,4,2,2,70,0,0
54412,-55.5555555555556,4,2,2,5,0,0
54518,-111.111111111111,4,2,1,60,0,0
54941,-111.111111111111,4,2,1,50,0,0
55574,-71.4285714285714,4,2,1,60,0,0
55891,-71.4285714285714,4,2,1,60,0,0
56631,-71.4285714285714,4,2,1,50,0,0
57053,-111.111111111111,4,2,1,60,0,0
57476,-142.857142857143,4,2,1,50,0,0
57898,-83.3333333333333,4,2,1,40,0,0
59166,-83.3333333333333,4,2,1,45,0,0
59588,-83.3333333333333,4,2,1,50,0,0
59800,-76.9230769230769,4,2,1,50,0,0
60011,-71.4285714285714,4,2,1,55,0,0
60222,-66.6666666666667,4,2,1,55,0,0
60434,-58.8235294117647,4,2,1,60,0,0
60645,-58.8235294117647,4,2,1,70,0,0
61279,-76.9230769230769,4,2,1,70,0,0
70997,-66.6666666666667,4,2,1,70,0,0
71419,-76.9230769230769,4,2,1,70,0,0
73321,-66.6666666666667,4,2,1,70,0,0
73955,-62.5,4,2,1,70,0,0
74377,-55.5555555555556,4,2,1,70,0,0
74800,-76.9230769230769,4,2,1,70,0,0
84095,-66.6666666666667,4,2,1,70,0,0
84941,-76.9230769230769,4,2,1,70,0,0
86208,-58.8235294117647,4,2,1,70,0,0
86419,-66.6666666666667,4,2,1,70,0,0
86631,-66.6666666666667,4,2,2,70,0,0
87053,-100,4,2,1,70,0,0

[Colours]
Combo1 : 230,230,230
Combo2 : 64,159,255
Combo3 : 255,158,62
Combo4 : 255,255,140
Combo5 : 255,0,0

[HitObjects]
324,152,434,6,0,P|320:211|320:288,1,125.999996154785,2|2,3:2|3:2,0:0:0:0:
180,212,1067,1,2,0:0:0:0:
180,212,1279,2,0,P|144:164|176:104,1,125.999996154785,2|2,3:2|3:2,0:0:0:0:
292,44,1912,1,2,0:0:0:0:
288,48,2124,6,0,P|224:60|144:72,1,125.999996154785,2|2,3:2|3:2,0:0:0:0:
28,36,2757,1,2,0:0:0:0:
168,108,2969,6,0,P|196:144|196:248,1,135,2|0,3:2|0:0,0:0:0:0:
144,336,3391,2,0,P|143:269|178:213,1,135,2|0,3:2|0:0,0:0:0:0:
264,218,3814,38,0,P|227:227|180:230,1,62.9999980773926,2|2,3:2|0:0,0:0:0:0:
224,68,4236,2,0,P|218:99|220:132,1,62.9999980773926,2|2,3:2|0:0,0:0:0:0:
368,276,4659,2,0,P|384:228|352:148,1,108,2|2,3:2|0:0,0:0:0:0:
356,152,5081,2,0,L|432:136,1,72,4|2,3:1|0:0,0:0:0:0:
450,7,5504,54,0,P|440:37|438:67,1,54,0|0,3:2|0:0,0:0:0:0:
368,276,5926,22,0,P|363:241|352:207,1,67.5,0|0,3:2|0:0,0:0:0:0:
478,35,6349,6,0,P|454:83|470:143,1,94.499997116089,0|0,3:2|0:0,0:0:0:0:
336,320,6772,6,0,P|332:260|280:200,1,107.999996704102,4|8,3:2|0:0,0:0:0:0:
192,164,7088,1,8,0:0:0:0:
220,195,7194,22,0,P|279:209|372:207,1,135,4|0,3:2|0:0,0:0:0:0:
464,168,7617,1,8,0:0:0:0:
220,195,7828,1,2,0:0:0:0:
345,120,8039,2,0,P|347:163|354:220,1,90,0|2,3:2|0:0,0:0:0:0:
388,288,8356,1,0,3:2:0:0:
388,288,8462,1,8,0:0:0:0:
458,122,8673,1,2,3:2:0:0:
220,195,8884,6,0,P|156:214|68:219,1,135,0|0,3:2|0:0,0:0:0:0:
28,156,9307,1,8,0:0:0:0:
152,304,9518,1,2,0:0:0:0:
160,80,9729,1,0,3:2:0:0:
276,191,9941,1,2,0:0:0:0:
252,199,10046,1,2,3:2:0:0:
220,195,10152,1,8,0:0:0:0:
144,48,10363,1,2,3:2:0:0:
244,116,10574,6,0,P|288:108|360:92,1,90,0|2,3:2|0:0,0:0:0:0:
440,227,10997,2,0,P|396:217|351:209,1,90,8|2,0:0|0:0,0:0:0:0:
248,296,11419,1,0,3:2:0:0:
416,128,11631,1,2,0:0:0:0:
424,100,11736,1,2,3:2:0:0:
412,68,11842,1,8,0:0:0:0:
232,16,12053,1,2,3:2:0:0:
344,236,12264,38,0,P|352:287|352:348,1,90,0|2,3:2|0:0,0:0:0:0:
280,384,12581,1,2,0:0:0:0:
280,384,12687,1,8,0:0:0:0:
456,256,12898,1,2,0:0:0:0:
196,196,13110,1,0,3:2:0:0:
416,128,13321,1,2,0:0:0:0:
396,136,13426,1,0,3:2:0:0:
376,132,13532,1,8,0:0:0:0:
272,32,13743,1,2,3:2:0:0:
344,236,13955,5,2,3:2:0:0:
252,296,14166,1,2,0:0:0:0:
176,216,14377,1,10,0:0:0:0:
268,144,14588,1,2,0:0:0:0:
236,320,14800,6,0,P|176:324|96:344,1,135,0|0,3:2|3:2,0:0:0:0:
32,288,15222,2,0,P|15:339|24:384,1,90,8|2,0:0|3:2,0:0:0:0:
176,216,15645,37,2,3:2:0:0:
252,296,15856,1,2,0:0:0:0:
344,236,16067,1,10,0:0:0:0:
268,144,16279,1,2,0:0:0:0:
248,324,16490,5,0,3:2:0:0:
168,163,16701,1,2,0:0:0:0:
163,191,16807,1,0,3:2:0:0:
176,216,16912,1,8,0:0:0:0:
344,236,17124,1,2,3:2:0:0:
176,216,17335,6,0,P|115:210|8:192,1,135,4|0,3:2|0:0,0:0:0:0:
24,112,17757,2,0,P|16:60|56:28,1,90,8|2,0:0|0:0,0:0:0:0:
352,52,18180,2,0,P|396:100|364:192,1,135,0|0,3:2|3:2,0:0:0:0:
344,236,18603,1,8,0:0:0:0:
160,112,18814,1,2,3:2:0:0:
160,112,18919,1,2,0:0:0:0:
160,112,19025,37,0,3:2:0:0:
300,132,19236,1,2,0:0:0:0:
200,248,19448,2,0,P|184:328|196:364,1,90,8|2,0:0|0:0,0:0:0:0:
284,376,19764,1,2,0:0:0:0:
296,380,19870,1,0,3:2:0:0:
312,384,19976,2,0,P|340:374|376:360,1,45,2|2,0:0|0:0,0:0:0:0:
439,230,20187,1,0,3:2:0:0:
431,250,20293,2,0,P|388:249|327:226,1,90,8|2,0:0|3:2,0:0:0:0:
300,132,20610,1,2,0:0:0:0:
300,132,20715,6,0,P|290:93|284:28,1,90,4|2,3:2|0:0,0:0:0:0:
156,160,21138,2,0,L|148:264,1,90,8|2,0:0|0:0,0:0:0:0:
56,348,21455,1,0,0:0:0:0:
52,320,21560,2,0,P|92:284|184:308,1,135,0|0,3:2|3:2,0:0:0:0:
273,318,21983,2,0,P|229:330|177:334,1,90,8|2,0:0|3:2,0:0:0:0:
56,208,22405,6,0,P|55:152|68:60,1,135,0|0,3:2|0:0,0:0:0:0:
144,16,22828,1,8,0:0:0:0:
232,212,23039,1,2,0:0:0:0:
44,228,23250,1,0,3:2:0:0:
180,112,23462,1,2,0:0:0:0:
200,104,23567,1,2,3:2:0:0:
220,104,23673,2,0,P|286:114|344:120,1,90,8|2,0:0|3:2,0:0:0:0:
464,40,24095,38,0,P|448:80|448:140,1,90,0|2,3:2|0:0,0:0:0:0:
388,328,24518,2,0,P|386:283|369:241,1,90,8|2,0:0|0:0,0:0:0:0:
180,112,24941,1,0,3:2:0:0:
232,300,25152,1,2,0:0:0:0:
256,304,25257,1,2,3:2:0:0:
280,304,25363,1,8,0:0:0:0:
432,160,25574,1,2,3:2:0:0:
192,204,25786,6,0,P|117:219|32:228,1,135,0|2,3:2|0:0,0:0:0:0:
12,160,26208,1,8,0:0:0:0:
180,112,26419,1,2,0:0:0:0:
152,368,26631,1,0,3:2:0:0:
144,356,26736,1,2,0:0:0:0:
144,340,26842,2,0,P|144:321|148:296,1,45,2|0,0:0|3:2,0:0:0:0:
264,144,27053,2,0,P|277:189|276:248,1,90,8|2,0:0|3:2,0:0:0:0:
236,352,27476,6,0,P|276:272|376:304,1,180,2|10,3:2|0:0,0:0:0:0:
496,96,28110,1,2,0:0:0:0:
492,108,28215,1,2,0:0:0:0:
484,124,28321,2,0,P|417:135|348:144,1,135,0|0,3:2|3:2,0:0:0:0:
264,144,28743,1,8,0:0:0:0:
460,216,28955,1,2,3:2:0:0:
392,44,29166,37,2,3:2:0:0:
456,244,29377,1,2,0:0:0:0:
496,96,29588,1,10,0:0:0:0:
264,144,29800,1,2,0:0:0:0:
432,328,30011,1,0,3:2:0:0:
384,168,30222,1,2,0:0:0:0:
384,168,30328,1,0,3:2:0:0:
384,168,30434,1,8,0:0:0:0:
264,348,30645,1,2,3:2:0:0:
456,244,30856,5,2,3:2:0:0:
192,200,31067,1,2,0:0:0:0:
376,316,31279,1,8,0:0:0:0:
132,372,31490,1,2,0:0:0:0:
296,212,31701,2,0,P|292:148|276:76,1,135,0|0,3:2|3:2,0:0:0:0:
200,28,32124,2,0,P|190:58|188:92,1,45,10|0,0:0|0:0,0:0:0:0:
384,168,32335,2,0,P|379:145|372:124,1,45,2|2,3:2|0:0,0:0:0:0:
192,200,32546,5,8,0:0:0:0:
192,233,32651,1,8,0:0:0:0:
202,265,32757,1,8,0:0:0:0:
222,292,32862,1,8,0:0:0:0:
250,311,32968,1,8,0:0:0:0:
282,321,33074,1,8,0:0:0:0:
316,320,33179,1,8,0:0:0:0:
347,309,33285,1,8,0:0:0:0:
374,289,33391,6,0,P|359:349|360:364,1,62.9999980773926,8|8,0:0|0:0,0:0:0:0:
480,196,33603,2,0,P|458:185|408:176,1,62.9999980773926,8|8,0:0|0:0,0:0:0:0:
264,128,33814,6,0,P|294:121|323:108,1,62.9999980773926,0|0,3:2|0:0,0:0:0:0:
408,0,34236,6,0,P|368:64|428:192,1,175.499991966248,12|0,3:2|0:0,0:0:0:0:
452,305,34659,54,0,P|424:292|368:289,1,80.9999975280763,8|0,3:2|0:0,0:0:0:0:
280,220,35081,54,0,P|227:239|164:240,1,99.0000030212403,8|0,3:2|0:0,0:0:0:0:
360,308,35398,2,0,P|429:310|480:348,1,116.999994644165,8|0,3:2|0:0,0:0:0:0:
212,148,35715,2,0,P|204:116|212:64,1,76.5000014591217,8|0,3:2|0:0,0:0:0:0:
64,148,35926,22,0,B|100:196|84:264|84:264|16:276,1,175.499991966248,8|0,3:2|0:0,0:0:0:0:
24,360,36349,54,0,L|120:344,1,80.9999975280763,8|0,3:2|0:0,0:0:0:0:
184,242,36772,54,0,P|220:264|292:262,1,99.0000030212403,8|0,3:2|0:0,0:0:0:0:
120,360,37088,2,0,P|56:364|-8:384,1,116.999994644165,8|0,3:2|0:0,0:0:0:0:
64,148,37405,2,0,P|75:105|76:52,1,76.5000014591217,8|0,3:2|0:0,0:0:0:0:
196,0,37617,22,0,B|184:56|248:92|248:92|292:84|336:36,1,175.499991966248,8|0,3:2|0:0,0:0:0:0:
404,96,38039,54,0,P|398:57|396:4,1,80.9999975280763,8|0,3:2|0:0,0:0:0:0:
324,184,38462,54,0,P|308:232|340:304,1,99.0000030212403,8|0,3:2|0:0,0:0:0:0:
432,116,38779,2,0,P|424:64|421:-6,1,116.999994644165,8|0,3:2|0:0,0:0:0:0:
432,236,39095,2,0,P|458:246|492:252,1,58.4999973220826,8|0,3:2|0:0,0:0:0:0:
388,352,39307,22,0,B|356:312|296:300|296:300|276:340|200:356,1,175.499991966248,8|0,3:2|0:0,0:0:0:0:
136,288,39729,54,0,L|40:280,1,80.9999975280763,8|0,3:2|0:0,0:0:0:0:
226,200,40152,54,0,P|275:195|334:180,1,99.0000030212403,8|0,3:2|0:0,0:0:0:0:
156,316,40469,2,0,P|104:304|20:304,1,116.999994644165,8|0,3:2|0:0,0:0:0:0:
260,112,40786,2,0,P|276:71|268:28,1,76.5000014591217,8|0,3:2|0:0,0:0:0:0:
104,68,40997,22,0,P|64:144|128:236,1,175.499991966248,12|0,3:2|0:0,0:0:0:0:
156,316,41419,54,0,L|252:304,1,80.9999975280763,8|0,3:2|0:0,0:0:0:0:
344,208,41842,54,0,P|404:208|448:264,1,99.0000030212403,8|0,3:2|0:0,0:0:0:0:
208,184,42159,2,0,P|197:127|192:56,1,116.999994644165,8|0,3:2|0:0,0:0:0:0:
364,304,42476,2,0,P|356:344|352:384,1,76.5000014591217,8|0,3:2|0:0,0:0:0:0:
236,305,42687,22,0,P|180:285|96:361,1,175.499991966248,8|0,3:2|0:0,0:0:0:0:
19,207,43110,54,0,P|63:217|103:219,1,80.9999975280763,8|0,3:2|0:0,0:0:0:0:
88,32,43532,54,0,P|72:84|76:148,1,99.0000030212403,8|0,3:2|0:0,0:0:0:0:
236,305,43849,2,0,L|224:176,1,116.999994644165,8|0,3:2|0:0,0:0:0:0:
404,208,44166,2,0,P|370:221|316:232,1,76.5000014591217,8|0,3:2|0:0,0:0:0:0:
196,56,44377,22,0,P|280:52|332:148,1,175.499991966248,8|0,3:2|0:0,0:0:0:0:
225,188,44800,54,0,L|125:176,1,80.9999975280763,8|0,3:2|0:0,0:0:0:0:
316,264,45222,54,0,P|344:308|328:376,1,99.0000030212403,8|0,3:2|0:0,0:0:0:0:
372,132,45539,2,0,P|376:80|388:4,1,116.999994644165,8|0,3:2|0:0,0:0:0:0:
140,160,45856,2,0,P|184:166|220:169,1,76.5000014591217,8|0,3:2|0:0,0:0:0:0:
468,216,46067,6,0,P|431:223|408:232,1,54,8|0,3:2|0:0,0:0:0:0:
144,178,46490,22,0,L|210:187,1,67.5,8|0,3:2|0:0,0:0:0:0:
504,232,46912,6,0,P|459:238|400:252,1,94.499997116089,8|0,3:2|0:0,0:0:0:0:
148,196,47335,38,0,B|227:212|248:216|248:216|252:252|260:292,1,161.999995056153,8|0,3:2|0:0,0:0:0:0:
338,300,47757,54,0,P|327:364|330:400,1,72,12|0,3:2|0:0,0:0:0:0:
348,372,48074,54,0,P|336:272|328:220,1,144,8|0,3:2|0:0,0:0:0:0:
216,24,48391,2,0,P|198:65|200:112,1,80.9999975280763,8|0,3:2|0:0,0:0:0:0:
148,196,48603,6,0,P|116:189|56:184,1,72,8|0,3:2|0:0,0:0:0:0:
67,203,48919,54,0,P|138:196|210:186,1,144,8|0,3:2|0:0,0:0:0:0:
392,104,49236,2,0,P|360:84|320:84,1,72,8|0,3:2|0:0,0:0:0:0:
329,229,49448,6,0,P|336:272|340:320,1,72,8|0,3:2|0:0,0:0:0:0:
320,304,49764,54,0,P|368:264|448:272,1,144,8|0,3:2|0:0,0:0:0:0:
200,364,50081,2,0,P|193:321|189:273,1,72,8|0,3:2|0:0,0:0:0:0:
209,186,50293,6,0,P|168:208|120:216,1,72,8|0,3:2|0:0,0:0:0:0:
152,204,50610,54,0,P|232:192|280:268,1,144,8|0,3:2|0:0,0:0:0:0:
322,121,50926,2,0,P|357:114|398:101,1,72,8|0,3:2|0:0,0:0:0:0:
176,76,51138,6,0,P|145:69|79:66,1,72,10|0,3:2|0:0,0:0:0:0:
0,264,51455,53,8,3:2:0:0:
16,276,51560,2,0,P|54:271|92:256,1,72,2|0,0:0|0:0,0:0:0:0:
72,64,51772,2,0,P|61:115|60:160,1,80.9999975280763,10|0,3:2|0:0,0:0:0:0:
288,304,51983,6,0,L|272:208,1,72,10|0,3:2|0:0,0:0:0:0:
302,97,52300,53,8,3:2:0:0:
322,121,52405,2,0,P|360:132|412:136,1,72,2|0,0:0|0:0,0:0:0:0:
496,300,52617,2,0,P|457:303|408:320,1,80.9999975280763,10|0,3:2|0:0,0:0:0:0:
213,276,52828,6,0,P|200:243|205:208,1,72,10|0,3:2|0:0,0:0:0:0:
88,40,53145,53,8,3:2:0:0:
104,64,53250,2,0,P|83:81|40:96,1,72,2|0,0:0|0:0,0:0:0:0:
276,232,53462,2,0,L|356:244,1,80.9999975280763,10|0,3:2|0:0,0:0:0:0:
322,121,53673,6,0,P|313:84|306:33,1,72,10|0,3:2|0:0,0:0:0:0:
484,36,53990,53,8,3:2:0:0:
468,56,54095,2,0,P|429:70|396:76,1,72,2|0,0:0|0:0,0:0:0:0:
127,186,54307,2,0,P|168:193|207:208,1,80.9999975280763,8|0,3:2|0:0,0:0:0:0:
428,380,54518,22,0,P|415:346|414:344,1,20.2499993820191,4|0,3:1|0:0,0:0:0:0:
420,264,54941,53,0,3:2:0:0:
420,264,55363,1,0,3:2:0:0:
324,356,55574,6,0,P|282:365|184:376,1,125.999996154785,4|8,3:1|0:0,0:0:0:0:
108,273,55891,2,0,B|80:245|88:209|88:209|112:177|144:189,1,125.999996154785,4|0,3:1|0:0,0:0:0:0:
208,232,56208,53,4,3:1:0:0:
208,232,56631,1,0,3:2:0:0:
208,232,57053,22,0,P|198:175|192:104,1,121.499996292114,4|0,3:1|0:0,0:0:0:0:
252,16,57476,2,0,P|284:48|268:104,1,94.499997116089,0|0,3:2|0:0,0:0:0:0:
353,151,57898,6,0,P|422:162|477:159,1,107.999996704102,4|2,3:2|0:0,0:0:0:0:
272,312,58321,2,0,P|218:311|165:322,1,107.999996704102,0|2,3:2|0:0,0:0:0:0:
60,368,58638,1,2,0:0:0:0:
96,345,58743,1,2,3:3:0:0:
123,311,58849,1,2,0:3:0:0:
128,268,58955,1,2,0:3:0:0:
110,228,59060,1,2,0:3:0:0:
82,194,59166,1,2,3:3:0:0:
59,157,59272,1,2,0:3:0:0:
63,114,59377,1,2,0:3:0:0:
86,77,59483,1,2,0:3:0:0:
126,61,59588,6,0,P|142:88|146:138,1,53.9999983520508,2|2,3:3|0:3,0:0:0:0:
208,232,59800,2,0,P|215:202|227:175,1,58.4999973220826,2|2,0:3|0:3,0:0:0:0:
295,10,60011,2,0,P|304:38|300:89,1,62.9999980773926,2|2,3:3|0:3,0:0:0:0:
346,314,60222,2,0,P|338:298|332:248,1,67.5000025749208,2|2,0:3|0:3,0:0:0:0:
496,63,60434,2,0,P|480:93|444:121,1,76.5000014591217,2|2,3:3|3:3,0:0:0:0:
353,151,60645,5,4,3:1:0:0:
353,151,61279,6,0,P|276:134|172:123,1,175.499991966248,4|0,3:2|0:0,0:0:0:0:
60,80,61701,2,0,P|81:155|85:204,1,116.999994644165,8|2,0:0|0:0,0:0:0:0:
173,350,62124,2,0,P|159:294|206:239,1,116.999994644165,0|2,3:2|0:0,0:0:0:0:
288,239,62441,1,2,0:0:0:0:
288,239,62546,1,8,0:0:0:0:
64,288,62757,1,2,0:0:0:0:
37,290,62863,1,2,0:0:0:0:
9,294,62969,5,2,3:2:0:0:
180,123,63180,2,0,P|245:134|276:136,1,58.4999973220826,2|0,0:0|0:0,0:0:0:0:
440,72,63391,1,8,0:0:0:0:
424,52,63497,2,0,P|364:84|352:140,1,116.999994644165,2|2,0:0|0:0,0:0:0:0:
384,300,63814,2,0,B|326:301|264:328|264:328|248:300|220:288,1,175.499991966248,0|0,3:2|0:0,0:0:0:0:
184,364,64236,1,8,0:0:0:0:
304,172,64448,1,2,0:0:0:0:
316,132,64553,1,2,0:0:0:0:
300,96,64659,5,0,3:2:0:0:
100,40,64870,1,2,0:0:0:0:
216,260,65081,1,8,0:0:0:0:
400,184,65293,1,2,0:0:0:0:
237,133,65504,2,0,P|149:150|33:169,1,175.499991966248,0|0,3:2|0:0,0:0:0:0:
0,128,65926,1,8,0:0:0:0:
190,246,66138,1,2,0:0:0:0:
216,260,66243,1,2,0:0:0:0:
256,256,66349,37,0,3:2:0:0:
376,76,66560,2,0,P|356:108|352:144,1,58.4999973220826,2|0,0:0|0:0,0:0:0:0:
460,296,66772,1,8,0:0:0:0:
484,308,66877,2,0,P|500:248|476:184,1,116.999994644165,2|2,0:0|0:0,0:0:0:0:
436,136,67194,1,0,3:2:0:0:
271,312,67405,2,0,P|261:288|255:248,1,58.4999973220826,2|2,0:0|0:0,0:0:0:0:
260,100,67617,1,8,0:0:0:0:
400,244,67828,1,2,0:0:0:0:
104,248,68039,5,2,3:2:0:0:
324,168,68250,1,2,0:0:0:0:
0,128,68462,2,0,P|56:136|120:140,1,116.999994644165,8|2,0:0|0:0,0:0:0:0:
200,80,68779,1,2,0:0:0:0:
200,80,68884,1,0,3:2:0:0:
88,276,69095,1,2,0:0:0:0:
371,243,69307,2,0,P|312:246|254:254,1,116.999994644165,8|2,0:0|0:0,0:0:0:0:
160,368,69624,1,2,0:0:0:0:
184,372,69729,6,0,P|196:340|196:312,1,58.4999973220826,0|0,3:2|0:0,0:0:0:0:
116,139,69941,2,0,P|115:170|128:207,1,58.4999973220826,2|2,0:0|0:0,0:0:0:0:
254,254,70152,1,8,0:0:0:0:
244,240,70257,2,0,P|203:228|124:224,1,116.999994644165,2|0,0:0|0:0,0:0:0:0:
276,128,70574,2,0,B|350:122|388:148|388:148|436:128|432:96,1,175.499991966248,0|2,3:2|0:0,0:0:0:0:
360,56,70997,2,0,P|328:116|336:208,1,135.000005149842,8|2,0:0|0:0,0:0:0:0:
428,308,71314,1,0,0:0:0:0:
436,280,71419,38,0,P|368:224|312:232,1,116.999994644165,0|2,3:2|0:0,0:0:0:0:
140,292,71842,1,8,0:0:0:0:
344,352,72053,1,2,0:0:0:0:
344,352,72159,1,2,0:0:0:0:
344,352,72264,1,0,3:2:0:0:
276,128,72476,1,2,0:0:0:0:
200,380,72687,1,8,0:0:0:0:
80,196,72898,1,2,0:0:0:0:
104,180,73004,1,2,0:0:0:0:
132,180,73110,5,0,3:2:0:0:
312,320,73321,2,0,P|269:313|232:304,1,67.5000025749208,2|0,0:0|0:0,0:0:0:0:
132,260,73532,1,8,0:0:0:0:
156,272,73638,2,0,P|219:262|288:236,1,135.000005149842,2|2,0:0|0:0,0:0:0:0:
320,60,73955,21,0,3:2:0:0:
313,45,74060,2,0,B|285:21|285:21|273:149,1,144,10|0,0:0|0:0,0:0:0:0:
138,193,74377,2,0,P|150:225|154:289,1,80.9999975280763,8|10,0:0|0:0,0:0:0:0:
363,273,74588,2,0,P|347:321|343:361,1,80.9999975280763,8|2,0:0|0:0,0:0:0:0:
352,364,74800,22,0,P|288:324|180:372,1,175.499991966248,4|0,3:2|0:0,0:0:0:0:
116,344,75222,2,0,P|45:366|-4:364,1,116.999994644165,8|2,0:0|0:0,0:0:0:0:
56,196,75645,2,0,P|84:136|68:72,1,116.999994644165,0|2,3:2|0:0,0:0:0:0:
16,16,75962,1,2,0:0:0:0:
16,16,76067,1,8,0:0:0:0:
196,108,76279,1,2,0:0:0:0:
192,140,76384,1,2,0:0:0:0:
188,172,76490,5,2,3:2:0:0:
116,344,76701,2,0,P|107:313|104:268,1,58.4999973220826,2|0,0:0|0:0,0:0:0:0:
244,240,76912,1,8,0:0:0:0:
232,256,77018,2,0,P|172:276|112:272,1,116.999994644165,2|2,0:0|0:0,0:0:0:0:
60,125,77335,2,0,B|63:106|80:77|80:77|164:65|212:125,1,175.499991966248,0|0,3:2|0:0,0:0:0:0:
312,152,77757,2,0,P|302:106|296:28,1,116.999994644165,8|2,0:0|0:0,0:0:0:0:
380,12,78074,1,2,0:0:0:0:
380,12,78180,5,0,3:2:0:0:
200,132,78391,1,2,0:0:0:0:
320,284,78603,2,0,P|368:212|472:212,1,175.499991966248,8|2,0:0|0:0,0:0:0:0:
512,272,79025,1,0,3:2:0:0:
220,224,79236,2,0,P|212:204|212:156,1,58.4999973220826,2|0,0:0|0:0,0:0:0:0:
296,36,79448,1,8,0:0:0:0:
440,168,79659,1,2,0:0:0:0:
444,180,79764,1,2,0:0:0:0:
448,192,79870,37,0,3:2:0:0:
220,328,80081,2,0,P|156:356|120:352,1,58.4999973220826,2|0,0:0|0:0,0:0:0:0:
0,244,80293,1,8,0:0:0:0:
16,220,80398,2,0,P|84:224|140:244,1,116.999994644165,2|2,0:0|0:0,0:0:0:0:
209,167,80715,2,0,P|225:139|233:99,1,58.4999973220826,0|0,3:2|0:0,0:0:0:0:
200,16,80926,1,2,0:0:0:0:
152,264,81138,1,8,0:0:0:0:
384,152,81349,1,2,0:0:0:0:
360,140,81455,1,2,0:0:0:0:
332,140,81560,5,2,3:2:0:0:
320,352,81772,1,2,0:0:0:0:
152,264,81983,2,0,L|276:248,1,116.999994644165,8|2,0:0|0:0,0:0:0:0:
344,56,82405,1,0,3:2:0:0:
424,272,82617,1,2,0:0:0:0:
500,166,82828,2,0,L|383:151,1,116.999994644165,8|2,0:0|0:0,0:0:0:0:
228,136,83145,1,2,0:0:0:0:
256,152,83250,6,0,P|270:188|272:220,1,58.4999973220826,0|0,3:2|0:0,0:0:0:0:
88,384,83462,2,0,P|92:355|104:328,1,58.4999973220826,2|2,0:0|0:0,0:0:0:0:
176,224,83673,1,8,0:0:0:0:
168,240,83779,2,0,P|110:251|12:264,1,116.999994644165,2|0,0:0|0:0,0:0:0:0:
40,240,84095,38,0,B|40:188|20:148|20:148|47:134|64:100,1,135.000005149842,0|2,3:2|0:0,0:0:0:0:
144,16,84412,1,2,0:0:0:0:
164,32,84518,2,0,P|173:66|168:112,1,67.5000025749208,8|0,0:0|0:0,0:0:0:0:
168,240,84729,2,0,P|188:216|244:188,1,67.5000025749208,2|0,0:0|0:0,0:0:0:0:
380,136,84941,6,0,P|324:140|268:104,1,116.999994644165,0|2,3:2|0:0,0:0:0:0:
59,6,85363,2,0,P|59:64|47:134,1,116.999994644165,8|2,0:0|0:0,0:0:0:0:
112,352,85786,2,0,P|160:324|232:312,1,116.999994644165,2|2,3:2|0:0,0:0:0:0:
352,288,86103,1,2,0:0:0:0:
328,304,86208,22,0,P|292:296|240:284,1,76.5000014591217,8|8,0:0|0:0,0:0:0:0:
128,196,86419,2,0,P|159:193|193:177,1,67.5000025749208,2|0,3:2|0:0,0:0:0:0:
273,110,86631,5,2,3:2:0:0:
273,110,86842,1,2,3:2:0:0:
273,110,87053,2,0,L|280:72,1,22.5,6|0,3:2|0:0,0:0:0:0:
