osu file format v14

[General]
AudioFilename: misakiIsHot.mp3
AudioLeadIn: 0
PreviewTime: 61173
Countdown: 0
SampleSet: Soft
StackLeniency: 0.7
Mode: 0
LetterboxInBreaks: 0
WidescreenStoryboard: 0

[Editor]
DistanceSpacing: 1.4
BeatDivisor: 4
GridSize: 4
TimelineZoom: 1.2

[Metadata]
Title:Kanashii Ureshii
TitleUnicode:かなしいうれしい
Artist:FREDERIC
ArtistUnicode:フレデリック
Creator:Gaia
Version:Hard
Source:恋と嘘
Tags:Meyrink Koi to Uso Love and Lies & koiuso opening op tv size
BeatmapID:1349186
BeatmapSetID:635597

[Difficulty]
HPDrainRate:5
CircleSize:4
OverallDifficulty:6
ApproachRate:7
SliderMultiplier:1.3
SliderTickRate:1

[Events]
//Background and Video events
0,0,"koito.jpg",0,0
Video,0,"LilinaIsBae.flv"
//Break Periods
//Storyboard Layer 0 (Background)
//Storyboard Layer 1 (Fail)
//Storyboard Layer 2 (Pass)
//Storyboard Layer 3 (Foreground)
//Storyboard Sound Samples

[TimingPoints]
434,422.535211267606,4,2,1,50,1,0
434,-125,4,2,1,50,0,0
5504,-125,4,2,2,50,0,0
5715,-125,4,2,2,5,0,0
5926,-125,4,2,2,60,0,0
6138,-125,4,2,2,5,0,0
6349,-125,4,2,2,70,0,0
6560,-125,4,2,2,5,0,0
6772,-125,4,2,2,80,0,0
6983,-125,4,2,1,80,0,0
7194,-100,4,2,1,60,0,0
32546,-100,4,2,1,40,0,0
32969,-100,4,2,1,50,0,0
33391,-100,4,2,1,60,0,0
33814,-100,4,2,2,70,0,0
34236,-111.111111111111,4,2,2,60,0,0
46279,-111.111111111111,4,2,2,5,0,0
46490,-111.111111111111,4,2,2,60,0,0
46701,-111.111111111111,4,2,2,5,0,0
46912,-111.111111111111,4,2,2,60,0,0
47123,-111.111111111111,4,2,2,5,0,0
47335,-111.111111111111,4,2,2,60,0,0
47546,-111.111111111111,4,2,2,5,0,0
47757,-100,4,2,2,70,0,0
54518,-100,4,2,1,60,0,0
54941,-100,4,2,1,50,0,0
55574,-100,4,2,1,60,0,0
56631,-100,4,2,1,50,0,0
57053,-100,4,2,1,60,0,0
57476,-100,4,2,1,50,0,0
57898,-100,4,2,1,40,0,0
59166,-100,4,2,1,45,0,0
59588,-100,4,2,1,50,0,0
60011,-100,4,2,1,55,0,0
60434,-100,4,2,1,60,0,0
60645,-100,4,2,1,70,0,0
61279,-90.9090909090909,4,2,1,70,0,0
86631,-90.9090909090909,4,2,2,70,0,0
87053,-90.9090909090909,4,2,1,70,0,0

[Colours]
Combo1 : 230,230,230
Combo2 : 64,159,255
Combo3 : 255,158,62
Combo4 : 255,255,140
Combo5 : 255,0,0

[HitObjects]
196,156,434,6,0,P|190:220|188:276,1,104,2|2,3:2|3:2,0:0:0:0:
184,348,1067,1,2,0:0:0:0:
184,348,1279,2,0,P|224:334|292:324,1,104,2|2,3:2|3:2,0:0:0:0:
340,256,1912,1,2,0:0:0:0:
340,256,2124,2,0,P|288:247|239:232,1,104,2|2,3:2|3:2,0:0:0:0:
196,156,2757,1,2,0:0:0:0:
196,156,2969,2,0,P|207:187|208:228,1,52,2|2,3:2|0:0,0:0:0:0:
96,344,3391,2,0,P|99:318|109:294,1,52,2|2,3:2|0:0,0:0:0:0:
132,204,3814,6,0,P|74:216|8:224,1,104,2|2,3:2|3:2,0:0:0:0:
32,132,4448,1,2,0:0:0:0:
32,132,4659,2,0,P|40:75|44:24,1,104,2|4,3:2|3:1,0:0:0:0:
132,8,5293,1,2,0:0:0:0:
132,8,5504,22,0,P|160:32|164:64,1,52,0|0,3:2|0:2,0:0:0:0:
148,216,5926,2,0,P|154:179|180:160,1,52,0|0,3:2|0:2,0:0:0:0:
296,100,6349,2,0,P|260:113|231:100,1,52,0|0,3:2|0:2,0:0:0:0:
364,32,6772,1,4,3:2:0:0:
440,84,6983,1,8,0:0:0:0:
440,84,7088,1,8,0:0:0:0:
440,84,7194,54,0,P|426:138|412:216,1,130,4|8,3:2|0:0,0:0:0:0:
332,368,8039,2,0,P|285:352|237:344,1,97.5,0|0,3:2|3:2,0:0:0:0:
220,304,8462,2,0,P|204:272|220:220,1,65,8|2,0:0|3:2,0:0:0:0:
240,160,8884,2,0,B|172:136|164:188|92:152,1,130,0|8,3:2|0:0,0:0:0:0:
48,100,9518,1,2,0:0:0:0:
0,176,9729,2,0,P|1:216|8:252,1,65,0|2,3:2|0:0,0:0:0:0:
132,80,10152,2,0,P|130:39|124:4,1,65,8|2,0:0|3:2,0:0:0:0:
240,52,10574,38,0,P|320:72|380:76,1,130,0|8,3:2|0:0,0:0:0:0:
508,192,11419,2,0,P|466:194|432:256,1,97.5,0|2,3:2|3:2,0:0:0:0:
412,276,11842,2,0,L|424:360,1,65,8|2,0:0|3:2,0:0:0:0:
332,324,12264,2,0,P|282:311|192:312,1,130,0|8,3:2|0:0,0:0:0:0:
136,248,12898,1,2,0:0:0:0:
60,300,13110,2,0,P|27:317|-8:320,1,65,0|2,3:2|0:0,0:0:0:0:
131,163,13532,2,0,P|163:168|192:184,1,65,8|2,0:0|3:2,0:0:0:0:
272,136,13955,6,0,P|265:108|260:56,1,65,2|2,3:2|0:0,0:0:0:0:
336,24,14377,2,0,P|339:56|347:87,1,65,10|2,0:0|0:0,0:0:0:0:
352,180,14800,2,0,P|403:174|452:160,1,97.5,0|0,3:2|3:2,0:0:0:0:
488,184,15222,2,0,P|508:220|496:260,1,65,8|2,0:0|3:2,0:0:0:0:
432,296,15645,2,0,L|440:380,1,65,2|2,3:2|0:0,0:0:0:0:
348,344,16067,2,0,L|341:279,1,65,10|2,0:0|0:0,0:0:0:0:
260,320,16490,2,0,P|230:336|180:340,1,65,0|2,3:2|0:0,0:0:0:0:
64,240,16912,2,0,P|95:245|123:261,1,65,8|2,0:0|3:2,0:0:0:0:
200,212,17335,6,0,L|208:72,1,130,4|8,3:2|0:0,0:0:0:0:
376,16,18180,2,0,P|396:88|384:104,1,97.5,0|0,3:2|3:2,0:0:0:0:
368,144,18603,2,0,P|395:158|436:164,1,65,8|2,0:0|3:2,0:0:0:0:
504,216,19025,2,0,P|396:228|376:248,1,130,0|8,3:2|0:0,0:0:0:0:
328,312,19659,1,2,0:0:0:0:
284,232,19870,2,0,L|288:180,2,32.5,0|2|2,3:2|0:0|0:0,0:0:0:0:
248,260,20187,1,0,3:2:0:0:
248,260,20293,2,0,P|214:271|168:276,1,65,8|2,0:0|3:2,0:0:0:0:
80,204,20715,38,0,P|64:148|88:72,1,130,4|8,3:2|0:0,0:0:0:0:
252,16,21560,2,0,L|260:128,1,97.5,0|0,3:2|3:2,0:0:0:0:
296,140,21983,2,0,P|316:180|308:216,1,65,8|2,0:0|3:2,0:0:0:0:
248,260,22405,2,0,P|284:240|380:256,1,130,0|8,3:2|0:0,0:0:0:0:
444,304,23039,1,2,0:0:0:0:
392,380,23250,2,0,P|360:377|328:364,1,65,0|2,3:2|0:0,0:0:0:0:
216,268,23673,2,0,P|228:292|228:348,1,65,8|2,0:0|3:2,0:0:0:0:
152,372,24095,6,0,P|83:379|8:384,1,130,0|8,3:2|0:0,0:0:0:0:
96,216,24941,2,0,P|112:164|92:120,1,97.5,0|2,3:2|3:2,0:0:0:0:
84,80,25363,2,0,L|172:64,1,65,8|2,0:0|3:2,0:0:0:0:
220,12,25786,2,0,P|283:30|352:36,1,130,0|8,3:2|0:0,0:0:0:0:
432,8,26419,1,2,0:0:0:0:
404,96,26631,2,0,P|390:138|388:176,1,65,0|2,3:2|0:0,0:0:0:0:
480,268,27053,2,0,P|475:235|463:205,1,65,8|2,0:0|3:2,0:0:0:0:
380,172,27476,6,0,P|312:166|236:156,1,130,2|10,3:2|0:0,0:0:0:0:
84,84,28321,2,0,P|56:140|68:180,1,97.5,0|0,3:2|3:2,0:0:0:0:
76,216,28743,2,0,P|106:211|140:204,1,65,8|2,0:0|3:2,0:0:0:0:
224,240,29166,2,0,P|228:268|224:316,1,65,2|2,3:2|0:0,0:0:0:0:
312,356,29588,2,0,P|310:323|314:291,1,65,10|2,0:0|0:0,0:0:0:0:
400,260,30011,2,0,P|429:269|484:272,1,65,0|2,3:2|0:0,0:0:0:0:
512,196,30434,2,0,P|506:159|492:124,1,65,8|2,0:0|3:2,0:0:0:0:
468,48,30856,38,0,P|412:68|332:80,1,130,2|8,3:2|0:0,0:0:0:0:
260,116,31490,1,2,0:0:0:0:
260,116,31701,2,0,L|152:104,1,97.5,0|0,3:2|3:2,0:0:0:0:
120,120,32124,2,0,P|100:164|108:188,1,65,10|2,0:0|3:2,0:0:0:0:
84,268,32546,2,0,L|124:276,3,32.5,8|8|8|8,0:0|0:0|0:0|0:0,0:0:0:0:
148,308,32969,2,0,L|200:296,3,32.5,8|8|8|8,0:0|0:0|0:0|0:0,0:0:0:0:
220,288,33391,2,0,L|276:296,3,32.5,8|8|8|8,0:0|0:0|0:0|0:0,0:0:0:0:
296,304,33814,1,0,3:2:0:0:
428,192,34236,6,0,P|427:227|420:268,1,58.4999982147217,12|0,3:2|0:0,0:0:0:0:
344,212,34659,2,0,P|340:183|340:153,1,58.4999982147217,8|0,3:2|0:0,0:0:0:0:
384,76,35081,2,0,P|436:85|488:88,2,87.7499973220826,8|8|8,3:2|3:2|3:2,0:0:0:0:
308,28,35926,2,0,P|271:37|224:44,1,58.4999982147217,8|0,3:2|0:0,0:0:0:0:
180,92,36349,2,0,P|143:82|96:76,1,58.4999982147217,8|0,3:2|0:0,0:0:0:0:
48,128,36772,2,0,P|32:80|52:28,2,87.7499973220826,8|8|8,3:2|3:2|3:2,0:0:0:0:
104,192,37617,6,0,P|103:224|96:264,1,58.4999982147217,8|0,3:2|0:0,0:0:0:0:
84,336,38039,2,0,P|113:333|164:320,1,58.4999982147217,8|0,3:2|0:0,0:0:0:0:
192,256,38462,2,0,P|242:271|292:276,2,87.7499973220826,8|8|8,3:2|3:2|3:2,0:0:0:0:
256,192,39307,2,0,P|281:176|312:172,1,58.4999982147217,8|0,3:2|0:0,0:0:0:0:
364,104,39729,2,0,P|344:100|288:76,1,58.4999982147217,8|0,3:2|0:0,0:0:0:0:
224,112,40152,2,0,P|221:65|212:24,2,87.7499973220826,8|8|8,3:2|3:2|3:2,0:0:0:0:
256,192,40997,38,0,P|246:231|244:260,1,58.4999982147217,12|0,3:2|0:0,0:0:0:0:
236,336,41419,2,0,P|260:328|308:320,1,58.4999982147217,8|0,3:2|0:0,0:0:0:0:
348,252,41842,2,0,P|403:267|444:288,2,87.7499973220826,8|8|8,3:2|3:2|3:2,0:0:0:0:
309,171,42687,2,0,P|319:139|325:95,1,58.4999982147217,8|0,3:2|0:0,0:0:0:0:
312,28,43110,2,0,P|283:37|248:44,1,58.4999982147217,8|0,3:2|0:0,0:0:0:0:
180,84,43532,2,0,L|76:72,2,87.7499973220826,8|8|8,3:2|3:2|3:2,0:0:0:0:
148,168,44377,6,0,P|152:208|160:232,1,58.4999982147217,8|0,3:2|0:0,0:0:0:0:
184,308,44800,2,0,P|216:317|256:320,1,58.4999982147217,8|0,3:2|0:0,0:0:0:0:
304,256,45222,2,0,P|328:288|324:348,2,87.7499973220826,8|8|8,3:2|3:2|3:2,0:0:0:0:
236,180,46067,22,0,P|267:172|296:160,1,58.4999982147217,8|0,3:2|0:2,0:0:0:0:
352,32,46490,2,0,P|361:66|360:108,1,58.4999982147217,8|0,3:2|0:2,0:0:0:0:
396,244,46912,2,0,P|386:209|388:168,1,58.4999982147217,8|0,3:2|0:2,0:0:0:0:
508,132,47335,2,0,P|479:126|444:116,1,58.4999982147217,8|0,3:2|0:2,0:0:0:0:
276,80,47757,54,0,P|234:90|196:112,1,65,12|0,3:2|0:0,0:0:0:0:
176,124,48074,2,0,P|108:112|76:136,1,97.5,8|8,3:2|3:2,0:0:0:0:
28,196,48603,2,0,L|48:312,2,97.5,8|8|8,3:2|3:2|3:2,0:0:0:0:
116,224,49448,2,0,P|149:232|192:240,1,65,8|0,3:2|0:0,0:0:0:0:
224,244,49764,2,0,P|262:232|336:224,1,97.5,8|8,3:2|3:2,0:0:0:0:
368,144,50293,2,0,P|414:152|476:124,2,97.5,8|8|8,3:2|3:2|3:2,0:0:0:0:
276,144,51138,38,0,P|272:88|292:64,1,65,8|0,3:2|0:0,0:0:0:0:
308,52,51455,2,0,L|204:40,1,97.5,8|10,3:2|3:2,0:0:0:0:
132,104,51983,2,0,P|122:46|112:2,2,97.5,10|8|10,3:2|3:2|3:2,0:0:0:0:
68,172,52828,2,0,P|44:208|52:248,1,65,10|0,3:2|0:0,0:0:0:0:
60,272,53145,2,0,P|96:284|160:260,1,97.5,8|10,3:2|3:2,0:0:0:0:
240,252,53673,2,0,B|232:324|232:324|246:341|260:364,2,97.5,10|8|8,3:2|3:2|3:2,0:0:0:0:
212,128,54518,6,0,P|236:168|332:164,2,130,4|0|0,3:1|3:2|3:2,0:0:0:0:
268,56,55574,2,0,P|304:49|352:40,1,65,4|8,3:1|0:0,0:0:0:0:
372,20,55891,2,0,P|412:24|440:48,1,65,4|0,3:1|0:0,0:0:0:0:
468,64,56208,2,0,L|456:204,1,130,4|0,3:1|3:2,0:0:0:0:
340,336,57053,2,0,L|328:206,1,130,4|0,3:1|3:2,0:0:0:0:
220,60,57898,21,4,3:2:0:0:
132,40,58110,1,2,0:0:0:0:
60,96,58321,1,0,3:2:0:0:
64,188,58532,1,2,0:0:0:0:
64,188,58638,1,2,0:0:0:0:
64,188,58743,2,0,L|80:240,3,32.5,2|2|2|2,3:3|0:3|0:3|0:3,0:0:0:0:
112,248,59166,2,0,L|104:296,3,32.5,2|2|2|2,3:3|0:3|0:3|0:3,0:0:0:0:
120,324,59588,2,0,P|144:335|168:344,3,32.5,2|2|2|2,3:3|0:3|0:3|0:3,0:0:0:0:
196,328,60011,2,0,P|215:323|240:320,3,32.5,2|2|2|2,3:3|0:3|0:3|0:3,0:0:0:0:
272,304,60434,2,0,L|324:312,1,32.5,2|2,3:3|3:3,0:0:0:0:
348,316,60645,5,4,3:1:0:0:
472,64,61279,6,0,L|300:88,1,143.000004364014,4|8,3:2|0:0,0:0:0:0:
248,40,61912,1,2,0:0:0:0:
248,40,62018,1,2,0:0:0:0:
248,40,62124,2,0,P|192:24|160:40,1,71.5000021820069,0|2,3:2|0:0,0:0:0:0:
88,24,62546,2,0,L|100:120,1,71.5000021820069,8|2,0:0|0:0,0:0:0:0:
28,160,62969,2,0,P|4:200|12:252,1,71.5000021820069,2|2,3:2|0:0,0:0:0:0:
28,264,63286,1,0,0:0:0:0:
28,264,63391,2,0,L|112:272,1,71.5000021820069,8|2,0:0|0:0,0:0:0:0:
160,340,63814,2,0,B|240:360|239:302|312:320,1,143.000004364014,0|8,3:2|0:0,0:0:0:0:
380,276,64448,1,2,0:0:0:0:
320,172,64659,6,0,P|313:127|312:84,1,71.5000021820069,0|2,3:2|0:0,0:0:0:0:
236,48,65081,2,0,P|232:84|220:144,1,71.5000021820069,8|2,0:0|0:0,0:0:0:0:
148,68,65504,2,0,P|80:56|16:100,1,143.000004364014,0|8,3:2|0:0,0:0:0:0:
4,184,66138,1,2,0:0:0:0:
72,244,66349,2,0,P|88:284|88:340,1,71.5000021820069,0|2,3:2|0:0,0:0:0:0:
120,348,66666,1,0,0:0:0:0:
120,348,66772,2,0,B|186:347|224:360|224:360|248:320,1,143.000004364014,8|0,0:0|3:2,0:0:0:0:
304,256,67405,1,2,0:0:0:0:
236,192,67617,2,0,P|228:158|224:108,1,71.5000021820069,8|2,0:0|0:0,0:0:0:0:
304,40,68039,6,0,P|344:46|380:52,2,71.5000021820069,2|2|10,3:2|0:0|0:0,0:0:0:0:
122,177,68884,2,0,P|81:183|46:189,2,71.5000021820069,2|2|10,3:2|0:0|0:0,0:0:0:0:
206,222,69518,1,2,0:0:0:0:
206,222,69624,1,2,0:0:0:0:
206,222,69729,2,0,P|221:269|226:314,1,71.5000021820069,0|2,3:2|0:0,0:0:0:0:
322,366,70152,2,0,P|323:341|334:282,1,71.5000021820069,8|2,0:0|0:0,0:0:0:0:
452,230,70574,2,0,P|468:178|416:126,1,107.25000327301,0|0,3:2|0:0,0:0:0:0:
416,96,70997,2,0,P|376:92|332:80,1,71.5000021820069,8|2,0:0|0:0,0:0:0:0:
240,112,71419,38,0,P|172:126|88:136,2,143.000004364014,0|8|0,3:2|0:0|3:2,0:0:0:0:
312,52,72476,1,2,0:0:0:0:
384,112,72687,2,0,P|392:153|384:204,1,71.5000021820069,8|2,0:0|0:0,0:0:0:0:
352,268,73110,2,0,B|320:272|288:249|288:249|256:260|208:248,1,143.000004364014,0|8,3:2|0:0,0:0:0:0:
128,212,73743,1,0,0:0:0:0:
52,264,73955,1,0,3:2:0:0:
52,264,74060,1,10,0:0:0:0:
52,264,74166,1,2,0:0:0:0:
82,351,74377,2,0,L|134:367,2,35.7500010910034,8|10|8,0:0|0:0|0:0,0:0:0:0:
52,264,74800,6,0,P|45:197|28:116,1,143.000004364014,4|8,3:2|0:0,0:0:0:0:
36,28,75434,1,2,0:0:0:0:
36,28,75539,1,2,0:0:0:0:
36,28,75645,2,0,P|73:41|128:44,1,71.5000021820069,0|2,3:2|0:0,0:0:0:0:
188,84,76067,2,0,P|218:76|272:64,1,71.5000021820069,8|2,0:0|0:0,0:0:0:0:
376,20,76490,2,0,P|368:64|368:100,1,71.5000021820069,2|2,3:2|0:0,0:0:0:0:
400,124,76807,1,0,0:0:0:0:
400,124,76912,2,0,P|408:160|412:200,1,71.5000021820069,8|2,0:0|0:0,0:0:0:0:
384,292,77335,2,0,P|320:296|284:224,1,143.000004364014,2|8,3:2|0:0,0:0:0:0:
212,176,77969,1,2,0:0:0:0:
144,240,78180,6,0,P|106:250|52:260,1,71.5000021820069,0|2,3:2|0:0,0:0:0:0:
84,164,78603,2,0,P|100:100|100:12,1,143.000004364014,8|0,0:0|3:2,0:0:0:0:
192,4,79236,1,2,0:0:0:0:
192,4,79448,2,0,P|196:43|208:96,1,71.5000021820069,8|2,0:0|0:0,0:0:0:0:
288,112,79870,2,0,P|326:121|380:124,1,71.5000021820069,0|2,3:2|0:0,0:0:0:0:
424,212,80293,2,0,P|388:215|353:224,1,71.5000021820069,8|2,0:0|0:0,0:0:0:0:
276,272,80715,1,0,3:2:0:0:
196,236,80926,1,2,0:0:0:0:
172,144,81138,2,0,P|135:138|100:128,1,71.5000021820069,8|2,0:0|0:0,0:0:0:0:
0,140,81560,38,0,P|7:99|12:48,2,71.5000021820069,2|2|8,3:2|0:0|0:0,0:0:0:0:
143,314,82405,2,0,P|150:354|155:406,2,71.5000021820069,0|2|8,3:2|0:0|0:0,0:0:0:0:
196,236,83039,1,2,0:0:0:0:
196,236,83145,1,2,0:0:0:0:
196,236,83250,2,0,P|240:241|268:252,1,71.5000021820069,0|2,3:2|0:0,0:0:0:0:
354,226,83673,2,0,P|398:220|426:210,1,71.5000021820069,8|0,0:0|0:0,0:0:0:0:
484,140,84095,2,0,P|484:76|440:36,1,107.25000327301,0|2,3:2|0:0,0:0:0:0:
416,20,84518,2,0,P|376:44|364:84,1,71.5000021820069,8|2,0:0|0:0,0:0:0:0:
292,164,84941,6,0,B|192:151|192:151|187:129|164:88,1,143.000004364014,0|8,3:2|0:0,0:0:0:0:
104,56,85574,1,2,0:0:0:0:
28,112,85786,2,0,P|8:140|8:188,1,71.5000021820069,0|2,3:2|0:0,0:0:0:0:
76,236,86208,2,0,P|97:226|120:212,2,35.7500010910034,8|8|2,0:0|0:0|3:2,0:0:0:0:
0,336,86631,21,2,3:2:0:0:
92,348,86842,1,2,3:2:0:0:
184,360,87053,1,6,3:2:0:0:
