osu file format v14

[General]
AudioFilename: misakiIsHot.mp3
AudioLeadIn: 0
PreviewTime: 61173
Countdown: 0
SampleSet: Soft
StackLeniency: 0.7
Mode: 0
LetterboxInBreaks: 0
WidescreenStoryboard: 0

[Editor]
DistanceSpacing: 1
BeatDivisor: 4
GridSize: 4
TimelineZoom: 1.2

[Metadata]
Title:Kanashii Ureshii
TitleUnicode:かなしいうれしい
Artist:FREDERIC
ArtistUnicode:フレデリック
Creator:Gaia
Version:Normal
Source:恋と嘘
Tags:Meyrink Koi to Uso Love and Lies & koiuso opening op tv size
BeatmapID:1349195
BeatmapSetID:635597

[Difficulty]
HPDrainRate:3
CircleSize:3.3
OverallDifficulty:4
ApproachRate:4.5
SliderMultiplier:0.9
SliderTickRate:1

[Events]
//Background and Video events
0,0,"koito.jpg",0,0
Video,0,"LilinaIsBae.flv"
//Break Periods
//Storyboard Layer 0 (Background)
//Storyboard Layer 1 (Fail)
//Storyboard Layer 2 (Pass)
//Storyboard Layer 3 (Foreground)
//Storyboard Sound Samples

[TimingPoints]
434,422.535211267606,4,2,1,50,1,0
434,-100,4,2,1,50,0,0
5504,-100,4,2,2,50,0,0
5926,-100,4,2,2,60,0,0
6349,-100,4,2,2,70,0,0
6772,-100,4,2,2,80,0,0
6983,-100,4,2,1,80,0,0
7194,-90.9090909090909,4,2,1,60,0,0
32546,-90.9090909090909,4,2,1,40,0,0
32969,-90.9090909090909,4,2,1,50,0,0
33391,-90.9090909090909,4,2,1,60,0,0
33814,-90.9090909090909,4,2,2,70,0,0
34236,-90.9090909090909,4,2,2,60,0,0
47757,-90.9090909090909,4,2,2,70,0,0
54518,-90.9090909090909,4,2,1,60,0,0
54941,-90.9090909090909,4,2,1,50,0,0
55574,-90.9090909090909,4,2,1,60,0,0
56631,-90.9090909090909,4,2,1,50,0,0
57053,-90.9090909090909,4,2,1,60,0,0
57476,-90.9090909090909,4,2,1,50,0,0
57898,-90.9090909090909,4,2,1,40,0,0
59166,-90.9090909090909,4,2,1,45,0,0
59588,-90.9090909090909,4,2,1,50,0,0
60011,-90.9090909090909,4,2,1,55,0,0
60434,-90.9090909090909,4,2,1,60,0,0
60645,-90.9090909090909,4,2,1,70,0,0
61279,-90.9090909090909,4,2,1,70,0,0
86631,-90.9090909090909,4,2,2,70,0,0
87053,-90.9090909090909,4,2,1,70,0,0

[Colours]
Combo1 : 230,230,230
Combo2 : 64,159,255
Combo3 : 255,158,62
Combo4 : 255,255,140
Combo5 : 255,0,0

[HitObjects]
208,260,434,5,2,3:2:0:0:
144,184,856,2,0,L|84:196,2,45,2|2|2,3:2|0:0|3:2,0:0:0:0:
192,96,1701,2,0,P|170:82|136:68,2,45,2|2|2,3:2|0:0|3:2,0:0:0:0:
292,100,2546,2,0,P|301:128|304:160,1,45,2|2,3:2|0:0,0:0:0:0:
284,188,2969,1,2,3:2:0:0:
380,212,3391,1,2,3:2:0:0:
476,232,3814,5,2,3:2:0:0:
436,320,4236,2,0,P|441:347|452:372,2,45,2|2|2,3:2|0:0|3:2,0:0:0:0:
360,256,5081,2,0,P|348:283|340:312,1,45,4|2,3:1|0:0,0:0:0:0:
308,332,5504,21,0,3:2:0:0:
216,368,5926,1,0,3:2:0:0:
128,324,6349,1,0,3:2:0:0:
132,224,6772,2,0,P|129:198|120:164,1,45,4|2,3:2|0:0,0:0:0:0:
108,128,7194,54,0,P|164:148|228:116,1,99.0000030212403,4|8,3:2|0:0,0:0:0:0:
224,40,8039,2,0,L|344:52,1,99.0000030212403,0|8,3:2|0:0,0:0:0:0:
372,56,8673,1,2,3:2:0:0:
372,56,8884,2,0,P|400:104|384:160,1,99.0000030212403,0|8,3:2|0:0,0:0:0:0:
316,208,9729,2,0,L|328:272,1,49.5000015106202,0|2,3:2|0:0,0:0:0:0:
360,292,10152,2,0,L|348:356,1,49.5000015106202,8|2,0:0|3:2,0:0:0:0:
312,372,10574,38,0,P|260:352|184:376,1,99.0000030212403,0|8,3:2|0:0,0:0:0:0:
132,304,11419,2,0,P|79:318|16:320,1,99.0000030212403,0|8,3:2|0:0,0:0:0:0:
4,284,12053,1,2,3:2:0:0:
4,284,12264,2,0,L|8:180,1,99.0000030212403,0|8,3:2|0:0,0:0:0:0:
56,96,13110,2,0,L|120:80,1,49.5000015106202,0|2,3:2|0:0,0:0:0:0:
136,44,13532,2,0,L|196:52,1,49.5000015106202,8|2,0:0|3:2,0:0:0:0:
228,76,13955,6,0,P|276:72|356:52,1,99.0000030212403,2|10,3:2|0:0,0:0:0:0:
424,56,14800,2,0,P|412:108|420:180,1,99.0000030212403,0|8,3:2|0:0,0:0:0:0:
452,188,15434,1,2,3:2:0:0:
452,188,15645,2,0,P|464:240|456:312,1,99.0000030212403,2|10,3:2|0:0,0:0:0:0:
384,348,16490,2,0,L|312:356,1,49.5000015106202,0|2,3:2|0:0,0:0:0:0:
292,380,16912,2,0,L|228:372,1,49.5000015106202,8|2,0:0|3:2,0:0:0:0:
200,348,17335,6,0,P|148:368|64:372,1,99.0000030212403,4|8,3:2|0:0,0:0:0:0:
16,328,18180,2,0,L|24:208,1,99.0000030212403,0|8,3:2|0:0,0:0:0:0:
60,196,18814,1,0,3:2:0:0:
60,196,19025,2,0,L|53:97,1,99.0000030212403,0|8,3:2|0:0,0:0:0:0:
116,20,19870,2,0,P|147:30|176:52,1,49.5000015106202,0|2,3:2|0:0,0:0:0:0:
208,56,20293,2,0,L|264:44,1,49.5000015106202,8|2,0:0|3:2,0:0:0:0:
304,64,20715,38,0,P|361:75|428:80,1,99.0000030212403,4|8,3:2|0:0,0:0:0:0:
492,124,21560,2,0,P|486:185|496:244,1,99.0000030212403,0|8,3:2|0:0,0:0:0:0:
480,272,22194,1,2,3:2:0:0:
480,272,22405,2,0,P|440:252|360:248,1,99.0000030212403,0|8,3:2|0:0,0:0:0:0:
312,184,23250,2,0,P|279:192|240:212,1,49.5000015106202,0|2,3:2|0:0,0:0:0:0:
216,216,23673,2,0,L|166:208,1,49.5000015106202,8|2,0:0|3:2,0:0:0:0:
128,196,24095,6,0,P|84:220|0:216,1,99.0000030212403,0|8,3:2|0:0,0:0:0:0:
56,128,24941,2,0,L|64:20,1,99.0000030212403,0|8,3:2|0:0,0:0:0:0:
108,12,25574,1,0,3:2:0:0:
108,12,25786,2,0,P|156:17|199:40,1,99.0000030212403,0|8,3:2|0:0,0:0:0:0:
256,124,26631,2,0,P|286:132|328:136,1,49.5000015106202,0|2,3:2|0:0,0:0:0:0:
351,153,27053,2,0,P|372:141|403:133,1,49.5000015106202,8|2,0:0|3:2,0:0:0:0:
444,136,27476,6,0,P|488:184|484:244,1,99.0000030212403,2|10,3:2|0:0,0:0:0:0:
452,308,28321,2,0,P|402:316|340:324,1,99.0000030212403,0|8,3:2|0:0,0:0:0:0:
312,352,28955,1,2,3:2:0:0:
312,352,29166,2,0,P|266:353|176:340,1,99.0000030212403,2|10,3:2|0:0,0:0:0:0:
152,272,30011,2,0,P|153:222|160:188,1,49.5000015106202,0|2,3:2|0:0,0:0:0:0:
180,180,30434,2,0,P|178:130|172:96,1,49.5000015106202,8|2,0:0|3:2,0:0:0:0:
200,84,30856,38,0,P|246:77|328:60,1,99.0000030212403,2|8,3:2|0:0,0:0:0:0:
384,20,31701,2,0,P|438:24|492:52,1,99.0000030212403,0|10,3:2|0:0,0:0:0:0:
412,116,32546,2,0,P|401:182|396:232,1,99.0000030212403,8|8,0:0|0:0,0:0:0:0:
356,240,33180,1,8,0:0:0:0:
356,240,33391,2,0,L|368:304,1,49.5000015106202,8|8,0:0|0:0,0:0:0:0:
376,336,33814,1,0,3:2:0:0:
280,364,34236,6,0,P|235:373|156:380,1,99.0000030212403,12|8,3:2|3:2,0:0:0:0:
108,316,35081,2,0,P|64:312|24:292,2,74.2500022659302,8|8|8,3:2|3:2|3:2,0:0:0:0:
152,292,35926,2,0,P|169:244|152:184,1,99.0000030212403,8|8,3:2|3:2,0:0:0:0:
188,104,36772,2,0,P|178:75|164:16,2,74.2500022659302,8|8|8,3:2|3:2|3:2,0:0:0:0:
236,112,37617,6,0,P|284:105|348:88,1,99.0000030212403,8|8,3:2|3:2,0:0:0:0:
428,120,38462,2,0,P|429:87|440:28,2,74.2500022659302,8|8|8,3:2|3:2|3:2,0:0:0:0:
412,168,39307,2,0,P|423:214|428:284,1,99.0000030212403,8|8,3:2|3:2,0:0:0:0:
372,348,40152,2,0,P|410:356|460:364,2,74.2500022659302,8|8|8,3:2|3:2|3:2,0:0:0:0:
328,324,40997,38,0,P|267:336|212:340,1,99.0000030212403,12|8,3:2|3:2,0:0:0:0:
184,252,41842,2,0,P|193:216|200:172,2,74.2500022659302,8|8|8,3:2|3:2|3:2,0:0:0:0:
136,264,42687,2,0,P|76:252|60:208,1,99.0000030212403,8|8,3:2|3:2,0:0:0:0:
16,132,43532,2,0,P|9:98|4:40,2,74.2500022659302,8|8|8,3:2|3:2|3:2,0:0:0:0:
64,132,44377,6,0,P|108:122|176:104,1,99.0000030212403,8|8,3:2|3:2,0:0:0:0:
236,172,45222,2,0,P|279:173|320:180,2,74.2500022659302,8|8|8,3:2|3:2|3:2,0:0:0:0:
196,204,46067,21,8,3:2:0:0:
184,304,46490,1,8,3:2:0:0:
268,352,46912,1,8,3:2:0:0:
356,304,47335,1,8,3:2:0:0:
332,208,47757,54,0,P|319:149|316:44,1,148.50000453186,12|8,3:2|3:2,0:0:0:0:
360,40,48603,2,0,P|404:48|452:56,2,74.2500022659302,8|8|8,3:2|3:2|3:2,0:0:0:0:
314,61,49448,2,0,B|254:62|214:70|214:70|204:50|182:29,1,148.50000453186,8|8,3:2|3:2,0:0:0:0:
136,24,50293,2,0,P|99:36|52:44,2,74.2500022659302,8|8|8,3:2|3:2|3:2,0:0:0:0:
155,69,51138,38,0,P|134:154|143:229,1,148.50000453186,8|10,3:2|3:2,0:0:0:0:
123,261,51983,2,0,P|93:250|43:249,2,74.2500022659302,10|8|10,3:2|3:2|3:2,0:0:0:0:
164,287,52828,2,0,B|184:331|184:331|230:325|304:319,1,148.50000453186,10|10,3:2|3:2,0:0:0:0:
319,285,53673,2,0,P|353:305|403:313,2,74.2500022659302,10|8|8,3:2|3:2|3:2,0:0:0:0:
325,235,54518,5,4,3:1:0:0:
376,150,54941,1,0,3:2:0:0:
340,56,55363,1,0,3:2:0:0:
340,56,55574,2,0,P|376:52|424:44,2,74.2500022659302,4|4|4,3:1|3:1|3:1,0:0:0:0:
248,96,56631,1,0,3:2:0:0:
164,44,57053,6,0,B|124:0|44:24|44:24|59:54|68:92,1,198.000006042481,4|4,3:1|3:2,0:0:0:0:
12,172,58321,1,0,3:2:0:0:
20,272,58743,2,0,P|68:295|128:284,1,99.0000030212403,2|2,3:3|3:3,0:0:0:0:
196,240,59588,2,0,P|239:217|288:220,1,99.0000030212403,2|2,3:3|3:3,0:0:0:0:
332,244,60222,1,2,0:3:0:0:
376,268,60434,22,0,L|384:328,1,49.5000015106202,2|4,3:3|3:1,0:0:0:0:
444,184,61279,6,0,P|456:132|412:64,1,99.0000030212403,4|8,3:2|0:0,0:0:0:0:
364,28,62124,2,0,P|311:42|260:52,1,99.0000030212403,0|8,3:2|0:0,0:0:0:0:
172,80,62969,2,0,P|128:67|64:60,1,99.0000030212403,2|8,3:2|0:0,0:0:0:0:
12,136,63814,2,0,P|-4:178|0:240,1,99.0000030212403,0|8,3:2|0:0,0:0:0:0:
24,272,64448,6,0,L|156:252,1,99.0000030212403,2|2,0:0|0:0,0:0:0:0:
164,228,65081,1,8,0:0:0:0:
260,260,65504,2,0,P|292:304|292:360,1,99.0000030212403,0|8,3:2|0:0,0:0:0:0:
388,376,66349,2,0,P|390:325|400:264,1,99.0000030212403,0|8,3:2|0:0,0:0:0:0:
448,192,67194,2,0,L|508:180,2,49.5000015106202,0|2|8,3:2|0:0|0:0,0:0:0:0:
368,132,68039,6,0,P|352:104|352:28,1,99.0000030212403,2|8,3:2|0:0,0:0:0:0:
252,20,68884,2,0,P|198:16|120:4,1,99.0000030212403,0|8,3:2|0:0,0:0:0:0:
88,84,69729,2,0,P|68:132|80:196,1,99.0000030212403,0|8,3:2|0:0,0:0:0:0:
60,276,70574,2,0,P|100:262|164:256,1,99.0000030212403,0|8,3:2|0:0,0:0:0:0:
236,200,71419,38,0,P|252:248|236:316,2,99.0000030212403,0|8|0,3:2|0:0|3:2,0:0:0:0:
216,104,72687,1,8,0:0:0:0:
216,104,72898,2,0,P|265:117|336:124,1,99.0000030212403,2|2,0:0|0:0,0:0:0:0:
360,112,73532,1,8,0:0:0:0:
392,208,73955,2,0,P|380:268|376:332,1,99.0000030212403,0|8,3:2|0:0,0:0:0:0:
376,356,74588,1,2,0:0:0:0:
376,356,74800,6,0,P|332:324|264:332,1,99.0000030212403,4|8,3:2|0:0,0:0:0:0:
192,300,75645,2,0,P|149:317|76:328,1,99.0000030212403,0|8,3:2|0:0,0:0:0:0:
36,248,76490,2,0,P|44:198|48:124,1,99.0000030212403,2|8,3:2|0:0,0:0:0:0:
28,52,77335,2,0,P|71:65|136:76,1,99.0000030212403,0|8,3:2|0:0,0:0:0:0:
164,100,77969,6,0,L|272:80,1,99.0000030212403,2|2,0:0|0:0,0:0:0:0:
292,44,78603,1,8,0:0:0:0:
388,60,79025,2,0,P|408:124|400:156,1,99.0000030212403,0|8,3:2|0:0,0:0:0:0:
304,180,79870,2,0,P|284:224|290:273,1,99.0000030212403,0|8,3:2|0:0,0:0:0:0:
360,344,80715,2,0,L|432:332,2,49.5000015106202,0|2|8,3:2|0:0|0:0,0:0:0:0:
272,296,81560,38,0,P|232:284|156:280,1,99.0000030212403,2|8,3:2|0:0,0:0:0:0:
100,216,82405,2,0,P|52:229|3:233,1,99.0000030212403,0|8,3:2|0:0,0:0:0:0:
0,136,83250,2,0,P|13:89|24:24,1,99.0000030212403,0|8,3:2|0:0,0:0:0:0:
116,4,84095,2,0,P|124:56|140:120,1,99.0000030212403,0|8,3:2|0:0,0:0:0:0:
176,128,84729,6,0,P|220:152|312:140,1,99.0000030212403,2|2,0:0|0:0,0:0:0:0:
308,128,85363,1,8,0:0:0:0:
356,216,85786,2,0,P|346:272|344:332,1,99.0000030212403,0|8,3:2|0:0,0:0:0:0:
256,360,86631,22,0,L|244:296,1,49.5000015106202,2|2,3:2|3:2,0:0:0:0:
236,264,87053,1,6,3:2:0:0:
