osu file format v14

[General]
AudioFilename: audio.mp3
AudioLeadIn: 0
PreviewTime: 60299
Countdown: 0
SampleSet: Normal
StackLeniency: 0.7
Mode: 1
LetterboxInBreaks: 0
WidescreenStoryboard: 1

[Editor]
Bookmarks: 374,1574,11174,20774,21974,31574,41174,50774,60374,79574,89174,98774,99974,109574,119174,128774,138374,157574,167174,177974,187574,206774,216374,225974,235574,254774,273974
DistanceSpacing: 0.4
BeatDivisor: 4
GridSize: 32
TimelineZoom: 3.399999

[Metadata]
Title:Stop Saying We Sound Like Dragonforce
TitleUnicode:Stop Saying We Sound Like Dragonforce
Artist:FRASER EDWARDS
ArtistUnicode:FRASER EDWARDS
Creator:frukoyurdakul
Version:Inner Oni
Source:
Tags:power metal the architect ascension stamina stream pp english
BeatmapID:2480799
BeatmapSetID:1189876

[Difficulty]
HPDrainRate:5.5
CircleSize:2
OverallDifficulty:6.5
ApproachRate:10
SliderMultiplier:1.4
SliderTickRate:1

[Events]
//Background and Video events
0,0,"bg.png",0,0
//Break Periods
//Storyboard Layer 0 (Background)
//Storyboard Layer 1 (Fail)
//Storyboard Layer 2 (Pass)
//Storyboard Layer 3 (Foreground)
//Storyboard Layer 4 (Overlay)
//Storyboard Sound Samples

[TimingPoints]
374,300,4,1,0,80,1,0
41249,-100,4,1,0,90,0,0
60374,-95.2380952380952,4,1,0,90,0,1
78899,-95.6937799043062,4,1,0,90,0,1
78974,-96.1538461538461,4,1,0,90,0,1
79049,-96.6183574879227,4,1,0,90,0,1
79124,-97.0873786407767,4,1,0,90,0,1
79199,-97.5609756097561,4,1,0,90,0,1
79274,-98.0392156862745,4,1,0,90,0,1
79349,-98.5221674876847,4,1,0,90,0,1
79424,-99.009900990099,4,1,0,90,0,1
79574,-100,4,1,0,80,0,0
119249,-100,4,1,0,90,0,0
138074,-99.009900990099,4,1,0,90,0,0
138149,-98.0392156862745,4,1,0,90,0,0
138224,-97.0873786407767,4,1,0,90,0,0
138374,-95.2380952380952,4,1,0,90,0,1
156899,-95.2380952380952,4,1,0,90,0,1
156974,-94.3396226415094,4,1,0,90,0,1
157049,-93.8967136150235,4,1,0,90,0,1
157124,-93.4579439252336,4,1,0,90,0,1
157199,-93.0232558139535,4,1,0,90,0,1
157274,-92.5925925925926,4,1,0,90,0,1
157349,-92.1658986175115,4,1,0,90,0,1
157424,-91.743119266055,4,1,0,90,0,1
157574,-90.9090909090909,4,1,0,80,0,0
166274,-93.7497070321655,4,1,0,80,0,0
166574,-96.774224765879,4,1,0,80,0,0
166874,-100,4,1,0,80,0,0
177674,-80,4,1,0,80,0,0
177974,-100,4,1,0,80,0,0
234374,-100,4,1,0,80,0,0
234524,-99.3820424599838,4,1,0,80,0,0
234599,-99.0760170648532,4,1,0,80,0,0
234674,-98.7717730027113,4,1,0,80,0,0
234749,-98.4693917742609,4,1,0,80,0,0
234824,-98.1688563230069,4,1,0,80,0,0
234899,-97.8701498000513,4,1,0,80,0,0
234974,-97.5733507664387,4,1,0,80,0,0
235124,-96.9849324208991,4,1,0,80,0,0
235199,-96.6933766003962,4,1,0,80,0,0
235274,-96.4035684744906,4,1,0,80,0,0
235349,-96.1154923756386,4,1,0,80,0,0
235424,-95.8292246553262,4,1,0,80,0,0
235574,-95.261593097726,4,1,0,90,0,1
254774,-90.9090909090909,4,1,0,90,0,1
273974,-80,4,1,0,90,0,1
277574,-66.6666666666667,4,1,0,90,0,0

[HitObjects]
352,96,374,5,8,0:0:0:0:
352,96,449,1,8,0:0:0:0:
160,96,524,1,0,0:0:0:0:
160,96,599,1,0,0:0:0:0:
352,96,674,1,8,0:0:0:0:
160,96,824,1,0,0:0:0:0:
160,96,899,1,0,0:0:0:0:
352,96,974,1,8,0:0:0:0:
352,96,1049,1,8,0:0:0:0:
160,96,1124,1,0,0:0:0:0:
160,288,1274,1,4,0:0:0:0:
352,96,1574,1,8,0:0:0:0:
352,96,1649,1,8,0:0:0:0:
352,96,1724,1,8,0:0:0:0:
160,96,1799,1,0,0:0:0:0:
352,96,1874,1,8,0:0:0:0:
160,96,2024,1,0,0:0:0:0:
352,96,2174,1,8,0:0:0:0:
160,96,2249,1,0,0:0:0:0:
160,96,2324,1,0,0:0:0:0:
160,96,2399,1,0,0:0:0:0:
352,96,2474,1,8,0:0:0:0:
160,96,2624,1,0,0:0:0:0:
160,96,2774,1,0,0:0:0:0:
160,96,2849,1,0,0:0:0:0:
160,96,2924,1,0,0:0:0:0:
352,96,3074,1,8,0:0:0:0:
352,96,3149,1,8,0:0:0:0:
160,96,3224,1,0,0:0:0:0:
352,96,3299,1,8,0:0:0:0:
160,96,3374,1,0,0:0:0:0:
352,96,3524,1,8,0:0:0:0:
160,96,3599,1,0,0:0:0:0:
160,96,3674,1,0,0:0:0:0:
160,96,3749,1,0,0:0:0:0:
352,96,3824,1,8,0:0:0:0:
352,96,3899,1,8,0:0:0:0:
352,96,3974,1,8,0:0:0:0:
160,96,4124,1,0,0:0:0:0:
160,96,4199,1,0,0:0:0:0:
352,96,4274,1,8,0:0:0:0:
160,96,4424,1,0,0:0:0:0:
160,96,4499,1,0,0:0:0:0:
352,96,4574,1,8,0:0:0:0:
352,96,4649,1,8,0:0:0:0:
160,96,4724,1,0,0:0:0:0:
160,96,4874,1,0,0:0:0:0:
352,96,4949,1,8,0:0:0:0:
352,96,5024,1,8,0:0:0:0:
160,96,5099,1,0,0:0:0:0:
352,96,5174,1,8,0:0:0:0:
160,96,5249,1,0,0:0:0:0:
352,96,5324,1,8,0:0:0:0:
352,96,5399,1,8,0:0:0:0:
160,96,5474,1,0,0:0:0:0:
352,96,5624,1,8,0:0:0:0:
352,96,5774,1,8,0:0:0:0:
352,96,5849,1,8,0:0:0:0:
352,96,5924,1,8,0:0:0:0:
160,96,5999,1,0,0:0:0:0:
352,96,6074,1,8,0:0:0:0:
160,96,6149,1,0,0:0:0:0:
352,96,6224,1,8,0:0:0:0:
160,96,6299,1,0,0:0:0:0:
352,96,6374,1,8,0:0:0:0:
160,96,6524,1,0,0:0:0:0:
352,96,6599,1,8,0:0:0:0:
352,96,6674,1,8,0:0:0:0:
160,96,6824,1,0,0:0:0:0:
352,96,6899,1,8,0:0:0:0:
352,96,6974,1,8,0:0:0:0:
160,96,7049,1,0,0:0:0:0:
352,96,7124,1,8,0:0:0:0:
352,96,7199,1,8,0:0:0:0:
160,96,7274,1,0,0:0:0:0:
160,96,7424,1,0,0:0:0:0:
352,96,7574,1,8,0:0:0:0:
160,96,7649,1,0,0:0:0:0:
160,96,7724,1,0,0:0:0:0:
352,96,7799,1,8,0:0:0:0:
160,96,7874,1,0,0:0:0:0:
160,96,8024,1,0,0:0:0:0:
352,96,8099,1,8,0:0:0:0:
160,96,8174,1,0,0:0:0:0:
160,96,8324,1,0,0:0:0:0:
352,96,8399,1,8,0:0:0:0:
160,96,8474,1,0,0:0:0:0:
160,96,8624,1,0,0:0:0:0:
352,96,8699,1,8,0:0:0:0:
352,96,8774,1,8,0:0:0:0:
160,96,8849,1,0,0:0:0:0:
160,96,8924,1,0,0:0:0:0:
160,96,8999,1,0,0:0:0:0:
352,96,9074,1,8,0:0:0:0:
160,96,9149,1,0,0:0:0:0:
160,96,9224,1,0,0:0:0:0:
352,96,9299,1,8,0:0:0:0:
352,96,9374,1,8,0:0:0:0:
160,96,9449,1,0,0:0:0:0:
352,96,9524,1,8,0:0:0:0:
352,96,9599,1,8,0:0:0:0:
352,96,9674,1,8,0:0:0:0:
160,96,9749,1,0,0:0:0:0:
352,96,9824,1,8,0:0:0:0:
352,96,9899,1,8,0:0:0:0:
352,96,9974,1,8,0:0:0:0:
352,96,10124,1,8,0:0:0:0:
160,96,10274,1,0,0:0:0:0:
352,96,10424,1,8,0:0:0:0:
160,96,10499,1,0,0:0:0:0:
352,96,10574,1,8,0:0:0:0:
352,96,10649,1,8,0:0:0:0:
160,96,10724,1,0,0:0:0:0:
352,96,10874,1,8,0:0:0:0:
160,96,10949,1,0,0:0:0:0:
160,96,11024,1,0,0:0:0:0:
160,96,11099,1,0,0:0:0:0:
352,96,11174,1,8,0:0:0:0:
352,96,11249,1,8,0:0:0:0:
352,96,11324,1,8,0:0:0:0:
352,96,11474,1,8,0:0:0:0:
352,96,11549,1,8,0:0:0:0:
160,96,11624,1,0,0:0:0:0:
352,96,11774,1,8,0:0:0:0:
160,96,11849,1,0,0:0:0:0:
160,96,11924,1,0,0:0:0:0:
352,96,12074,1,8,0:0:0:0:
160,96,12149,1,0,0:0:0:0:
352,96,12224,1,8,0:0:0:0:
160,96,12299,1,0,0:0:0:0:
352,96,12374,1,8,0:0:0:0:
352,96,12524,1,8,0:0:0:0:
160,96,12599,1,0,0:0:0:0:
352,96,12674,1,8,0:0:0:0:
160,96,12749,1,0,0:0:0:0:
352,96,12824,1,8,0:0:0:0:
160,96,12899,1,0,0:0:0:0:
352,96,12974,1,8,0:0:0:0:
160,96,13049,1,0,0:0:0:0:
352,96,13124,1,8,0:0:0:0:
160,96,13199,1,0,0:0:0:0:
352,96,13274,1,8,0:0:0:0:
160,96,13349,1,0,0:0:0:0:
352,96,13424,1,8,0:0:0:0:
352,96,13574,1,8,0:0:0:0:
352,96,13649,1,8,0:0:0:0:
160,96,13724,1,0,0:0:0:0:
160,96,13874,1,0,0:0:0:0:
352,96,13949,1,8,0:0:0:0:
352,96,14024,1,8,0:0:0:0:
160,96,14099,1,0,0:0:0:0:
352,96,14174,1,8,0:0:0:0:
352,96,14249,1,8,0:0:0:0:
352,96,14324,1,8,0:0:0:0:
160,96,14474,1,0,0:0:0:0:
352,96,14549,1,8,0:0:0:0:
352,96,14624,1,8,0:0:0:0:
352,96,14774,1,8,0:0:0:0:
352,96,14849,1,8,0:0:0:0:
352,96,14924,1,8,0:0:0:0:
160,96,14999,1,0,0:0:0:0:
160,96,15074,1,0,0:0:0:0:
160,96,15224,1,0,0:0:0:0:
352,96,15299,1,8,0:0:0:0:
160,96,15374,1,0,0:0:0:0:
352,96,15449,1,8,0:0:0:0:
352,96,15524,1,8,0:0:0:0:
160,96,15599,1,0,0:0:0:0:
352,96,15674,1,8,0:0:0:0:
352,96,15749,1,8,0:0:0:0:
352,96,15824,1,8,0:0:0:0:
160,288,15974,1,4,0:0:0:0:
160,96,16124,1,0,0:0:0:0:
352,96,16274,1,8,0:0:0:0:
160,96,16349,1,0,0:0:0:0:
352,96,16424,1,8,0:0:0:0:
160,96,16499,1,0,0:0:0:0:
352,96,16574,1,8,0:0:0:0:
160,96,16724,1,0,0:0:0:0:
352,96,16874,1,8,0:0:0:0:
160,96,17024,1,0,0:0:0:0:
160,96,17099,1,0,0:0:0:0:
352,96,17174,1,8,0:0:0:0:
352,96,17249,1,8,0:0:0:0:
160,96,17324,1,0,0:0:0:0:
352,96,17474,1,8,0:0:0:0:
352,96,17624,1,8,0:0:0:0:
160,96,17699,1,0,0:0:0:0:
160,96,17774,1,0,0:0:0:0:
160,96,17849,1,0,0:0:0:0:
352,96,17924,1,8,0:0:0:0:
160,96,18074,1,0,0:0:0:0:
160,96,18149,1,0,0:0:0:0:
352,96,18224,1,8,0:0:0:0:
160,96,18299,1,0,0:0:0:0:
352,96,18374,1,8,0:0:0:0:
352,96,18524,1,8,0:0:0:0:
160,96,18599,1,0,0:0:0:0:
352,96,18674,1,8,0:0:0:0:
352,96,18824,1,8,0:0:0:0:
352,96,18974,1,8,0:0:0:0:
352,96,19124,1,8,0:0:0:0:
160,96,19199,1,0,0:0:0:0:
352,96,19274,1,8,0:0:0:0:
352,96,19424,1,8,0:0:0:0:
160,96,19499,1,0,0:0:0:0:
352,96,19574,1,8,0:0:0:0:
352,96,19649,1,8,0:0:0:0:
352,96,19724,1,8,0:0:0:0:
160,96,19799,1,0,0:0:0:0:
160,96,19874,1,0,0:0:0:0:
160,96,19949,1,0,0:0:0:0:
352,96,20024,1,8,0:0:0:0:
352,96,20174,1,8,0:0:0:0:
160,96,20249,1,0,0:0:0:0:
160,96,20324,1,0,0:0:0:0:
160,96,20399,1,0,0:0:0:0:
352,96,20474,1,8,0:0:0:0:
352,96,20549,1,8,0:0:0:0:
160,96,20624,1,0,0:0:0:0:
352,288,20774,1,12,0:0:0:0:
160,96,21074,1,0,0:0:0:0:
160,96,21374,1,0,0:0:0:0:
352,288,21674,1,12,0:0:0:0:
160,288,21974,1,4,0:0:0:0:
160,96,22124,1,0,0:0:0:0:
160,96,22199,1,0,0:0:0:0:
352,96,22274,1,8,0:0:0:0:
352,96,22424,1,8,0:0:0:0:
160,96,22499,1,0,0:0:0:0:
352,96,22574,1,8,0:0:0:0:
160,96,22724,1,0,0:0:0:0:
352,96,22874,1,8,0:0:0:0:
160,96,22949,1,0,0:0:0:0:
352,96,23024,1,8,0:0:0:0:
160,96,23174,1,0,0:0:0:0:
160,96,23249,1,0,0:0:0:0:
160,96,23324,1,0,0:0:0:0:
160,96,23399,1,0,0:0:0:0:
352,96,23474,1,8,0:0:0:0:
352,96,23624,1,8,0:0:0:0:
160,96,23699,1,0,0:0:0:0:
352,96,23774,1,8,0:0:0:0:
352,96,23924,1,8,0:0:0:0:
160,96,23999,1,0,0:0:0:0:
160,96,24074,1,0,0:0:0:0:
352,96,24224,1,8,0:0:0:0:
160,96,24374,1,0,0:0:0:0:
352,96,24524,1,8,0:0:0:0:
160,96,24599,1,0,0:0:0:0:
160,96,24674,1,0,0:0:0:0:
160,96,24824,1,0,0:0:0:0:
160,96,24899,1,0,0:0:0:0:
160,96,24974,1,0,0:0:0:0:
352,96,25124,1,8,0:0:0:0:
160,96,25199,1,0,0:0:0:0:
160,96,25274,1,0,0:0:0:0:
352,96,25424,1,8,0:0:0:0:
160,96,25574,1,0,0:0:0:0:
160,96,25649,1,0,0:0:0:0:
352,96,25724,1,8,0:0:0:0:
160,96,25874,1,0,0:0:0:0:
352,96,25949,1,8,0:0:0:0:
352,96,26024,1,8,0:0:0:0:
352,96,26174,1,8,0:0:0:0:
352,96,26249,1,8,0:0:0:0:
352,96,26324,1,8,0:0:0:0:
160,96,26399,1,0,0:0:0:0:
352,96,26474,1,8,0:0:0:0:
160,96,26624,1,0,0:0:0:0:
352,288,26774,1,12,0:0:0:0:
160,96,26924,1,0,0:0:0:0:
160,96,26999,1,0,0:0:0:0:
160,96,27074,1,0,0:0:0:0:
352,96,27224,1,8,0:0:0:0:
352,96,27374,1,8,0:0:0:0:
352,96,27449,1,8,0:0:0:0:
352,96,27524,1,8,0:0:0:0:
352,96,27599,1,8,0:0:0:0:
160,96,27674,1,0,0:0:0:0:
352,96,27824,1,8,0:0:0:0:
160,96,27974,1,0,0:0:0:0:
160,96,28049,1,0,0:0:0:0:
160,96,28124,1,0,0:0:0:0:
160,96,28199,1,0,0:0:0:0:
352,96,28274,1,8,0:0:0:0:
352,96,28424,1,8,0:0:0:0:
160,96,28499,1,0,0:0:0:0:
352,96,28574,1,8,0:0:0:0:
352,96,28649,1,8,0:0:0:0:
160,96,28724,1,0,0:0:0:0:
160,96,28799,1,0,0:0:0:0:
352,96,28874,1,8,0:0:0:0:
352,96,29024,1,8,0:0:0:0:
160,96,29174,1,0,0:0:0:0:
352,96,29324,1,8,0:0:0:0:
352,96,29399,1,8,0:0:0:0:
352,96,29474,1,8,0:0:0:0:
352,96,29624,1,8,0:0:0:0:
352,96,29699,1,8,0:0:0:0:
160,96,29774,1,0,0:0:0:0:
160,96,29924,1,0,0:0:0:0:
160,96,29999,1,0,0:0:0:0:
160,96,30074,1,0,0:0:0:0:
352,96,30224,1,8,0:0:0:0:
352,96,30374,1,8,0:0:0:0:
160,96,30449,1,0,0:0:0:0:
352,96,30524,1,8,0:0:0:0:
352,96,30599,1,8,0:0:0:0:
352,96,30674,1,8,0:0:0:0:
352,96,30749,1,8,0:0:0:0:
160,96,30824,1,0,0:0:0:0:
352,96,30974,1,8,0:0:0:0:
352,96,31049,1,8,0:0:0:0:
352,96,31124,1,8,0:0:0:0:
352,96,31199,1,8,0:0:0:0:
160,96,31274,1,0,0:0:0:0:
352,96,31424,1,8,0:0:0:0:
160,288,31574,1,4,0:0:0:0:
160,96,31724,1,0,0:0:0:0:
352,288,31874,1,12,0:0:0:0:
160,96,32024,1,0,0:0:0:0:
160,96,32099,1,0,0:0:0:0:
352,96,32174,1,8,0:0:0:0:
352,96,32324,1,8,0:0:0:0:
160,96,32399,1,0,0:0:0:0:
352,96,32474,1,8,0:0:0:0:
352,96,32624,1,8,0:0:0:0:
160,96,32774,1,0,0:0:0:0:
352,96,32924,1,8,0:0:0:0:
160,96,32999,1,0,0:0:0:0:
160,96,33074,1,0,0:0:0:0:
352,96,33224,1,8,0:0:0:0:
352,96,33299,1,8,0:0:0:0:
160,96,33374,1,0,0:0:0:0:
352,96,33524,1,8,0:0:0:0:
352,96,33599,1,8,0:0:0:0:
160,96,33674,1,0,0:0:0:0:
352,96,33824,1,8,0:0:0:0:
160,96,33974,1,0,0:0:0:0:
160,96,34049,1,0,0:0:0:0:
160,96,34124,1,0,0:0:0:0:
160,96,34199,1,0,0:0:0:0:
352,96,34274,1,8,0:0:0:0:
352,96,34424,1,8,0:0:0:0:
352,96,34499,1,8,0:0:0:0:
160,96,34574,1,0,0:0:0:0:
352,96,34724,1,8,0:0:0:0:
160,96,34874,1,0,0:0:0:0:
160,96,34949,1,0,0:0:0:0:
352,96,35024,1,8,0:0:0:0:
160,96,35174,1,0,0:0:0:0:
160,96,35249,1,0,0:0:0:0:
352,96,35324,1,8,0:0:0:0:
160,96,35399,1,0,0:0:0:0:
352,96,35474,1,8,0:0:0:0:
352,96,35549,1,8,0:0:0:0:
160,96,35624,1,0,0:0:0:0:
352,96,35774,1,8,0:0:0:0:
352,96,35849,1,8,0:0:0:0:
160,96,35924,1,0,0:0:0:0:
160,96,35999,1,0,0:0:0:0:
352,96,36074,1,8,0:0:0:0:
352,96,36149,1,8,0:0:0:0:
160,96,36224,1,0,0:0:0:0:
160,288,36374,1,4,0:0:0:0:
160,96,36524,1,0,0:0:0:0:
160,96,36599,1,0,0:0:0:0:
352,96,36674,1,8,0:0:0:0:
352,96,36824,1,8,0:0:0:0:
160,96,36899,1,0,0:0:0:0:
352,96,36974,1,8,0:0:0:0:
352,96,37124,1,8,0:0:0:0:
352,96,37274,1,8,0:0:0:0:
160,96,37424,1,0,0:0:0:0:
352,96,37499,1,8,0:0:0:0:
160,96,37574,1,0,0:0:0:0:
160,96,37649,1,0,0:0:0:0:
352,96,37724,1,8,0:0:0:0:
160,96,37874,1,0,0:0:0:0:
352,96,38024,1,8,0:0:0:0:
352,96,38099,1,8,0:0:0:0:
160,96,38174,1,0,0:0:0:0:
352,96,38324,1,8,0:0:0:0:
160,96,38474,1,0,0:0:0:0:
352,96,38624,1,8,0:0:0:0:
352,96,38774,1,8,0:0:0:0:
352,96,38849,1,8,0:0:0:0:
160,96,38924,1,0,0:0:0:0:
160,96,38999,1,0,0:0:0:0:
352,96,39074,1,8,0:0:0:0:
352,96,39224,1,8,0:0:0:0:
352,96,39299,1,8,0:0:0:0:
160,96,39374,1,0,0:0:0:0:
352,96,39449,1,8,0:0:0:0:
160,96,39524,1,0,0:0:0:0:
352,96,39599,1,8,0:0:0:0:
352,96,39674,1,8,0:0:0:0:
160,96,39824,1,0,0:0:0:0:
352,96,39974,1,8,0:0:0:0:
160,96,40049,1,0,0:0:0:0:
160,96,40124,1,0,0:0:0:0:
352,96,40199,1,8,0:0:0:0:
352,96,40274,1,8,0:0:0:0:
160,96,40424,1,0,0:0:0:0:
352,96,40499,1,8,0:0:0:0:
160,96,40574,1,0,0:0:0:0:
352,96,40649,1,8,0:0:0:0:
352,96,40724,1,8,0:0:0:0:
160,96,40874,1,0,0:0:0:0:
160,96,40949,1,0,0:0:0:0:
352,96,41024,1,8,0:0:0:0:
160,288,41174,1,4,0:0:0:0:
352,96,41474,1,8,0:0:0:0:
160,96,41624,1,0,0:0:0:0:
352,96,41774,1,8,0:0:0:0:
160,96,41924,1,0,0:0:0:0:
352,96,42074,1,8,0:0:0:0:
160,96,42149,1,0,0:0:0:0:
352,96,42224,1,8,0:0:0:0:
160,96,42374,1,0,0:0:0:0:
160,96,42524,1,0,0:0:0:0:
352,96,42674,1,8,0:0:0:0:
352,96,42824,1,8,0:0:0:0:
352,96,42974,1,8,0:0:0:0:
160,96,43124,1,0,0:0:0:0:
352,96,43274,1,8,0:0:0:0:
160,96,43424,1,0,0:0:0:0:
352,96,43574,1,8,0:0:0:0:
160,96,43724,1,0,0:0:0:0:
160,96,43799,1,0,0:0:0:0:
352,96,43874,1,8,0:0:0:0:
352,96,44024,1,8,0:0:0:0:
160,96,44174,1,0,0:0:0:0:
352,96,44324,1,8,0:0:0:0:
352,96,44399,1,8,0:0:0:0:
352,96,44474,1,8,0:0:0:0:
160,96,44624,1,0,0:0:0:0:
352,96,44774,1,8,0:0:0:0:
160,96,44924,1,0,0:0:0:0:
352,96,45074,1,8,0:0:0:0:
352,96,45224,1,8,0:0:0:0:
160,96,45374,1,0,0:0:0:0:
160,96,45524,1,0,0:0:0:0:
352,96,45674,1,8,0:0:0:0:
160,96,45824,1,0,0:0:0:0:
352,96,45974,1,8,0:0:0:0:
160,96,46124,1,0,0:0:0:0:
352,96,46274,1,8,0:0:0:0:
160,96,46424,1,0,0:0:0:0:
352,96,46574,1,8,0:0:0:0:
160,96,46724,1,0,0:0:0:0:
352,96,46874,1,8,0:0:0:0:
352,96,47024,1,8,0:0:0:0:
352,96,47174,1,8,0:0:0:0:
352,96,47249,1,8,0:0:0:0:
160,96,47324,1,0,0:0:0:0:
160,96,47399,1,0,0:0:0:0:
352,96,47474,1,8,0:0:0:0:
160,96,47624,1,0,0:0:0:0:
352,96,47774,1,8,0:0:0:0:
160,96,47849,1,0,0:0:0:0:
352,96,47924,1,8,0:0:0:0:
160,96,48074,1,0,0:0:0:0:
160,96,48224,1,0,0:0:0:0:
352,96,48374,1,8,0:0:0:0:
352,96,48524,1,8,0:0:0:0:
160,96,48674,1,0,0:0:0:0:
352,96,48824,1,8,0:0:0:0:
160,96,48974,1,0,0:0:0:0:
160,96,49124,1,0,0:0:0:0:
352,96,49274,1,8,0:0:0:0:
352,96,49424,1,8,0:0:0:0:
352,96,49499,1,8,0:0:0:0:
160,96,49574,1,0,0:0:0:0:
352,96,49724,1,8,0:0:0:0:
352,96,49799,1,8,0:0:0:0:
352,96,49874,1,8,0:0:0:0:
160,96,49949,1,0,0:0:0:0:
352,96,50024,1,8,0:0:0:0:
160,96,50099,1,0,0:0:0:0:
352,96,50174,1,8,0:0:0:0:
160,96,50324,1,0,0:0:0:0:
352,96,50474,1,8,0:0:0:0:
352,96,50549,1,8,0:0:0:0:
160,96,50624,1,0,0:0:0:0:
352,288,50774,1,12,0:0:0:0:
160,96,50924,1,0,0:0:0:0:
352,96,51074,1,8,0:0:0:0:
160,96,51224,1,0,0:0:0:0:
352,96,51374,1,8,0:0:0:0:
352,96,51449,1,8,0:0:0:0:
160,96,51524,1,0,0:0:0:0:
352,96,51674,1,8,0:0:0:0:
352,96,51824,1,8,0:0:0:0:
352,96,51899,1,8,0:0:0:0:
160,96,51974,1,0,0:0:0:0:
160,96,52124,1,0,0:0:0:0:
352,96,52274,1,8,0:0:0:0:
160,96,52424,1,0,0:0:0:0:
352,96,52574,1,8,0:0:0:0:
160,96,52724,1,0,0:0:0:0:
352,96,52874,1,8,0:0:0:0:
160,96,53024,1,0,0:0:0:0:
352,96,53174,1,8,0:0:0:0:
160,96,53324,1,0,0:0:0:0:
352,96,53399,1,8,0:0:0:0:
160,96,53549,1,0,0:0:0:0:
352,96,53624,1,8,0:0:0:0:
160,96,53774,1,0,0:0:0:0:
352,96,53924,1,8,0:0:0:0:
352,96,53999,1,8,0:0:0:0:
160,96,54074,1,0,0:0:0:0:
352,96,54224,1,8,0:0:0:0:
160,96,54299,1,0,0:0:0:0:
160,96,54374,1,0,0:0:0:0:
160,96,54524,1,0,0:0:0:0:
352,96,54674,1,8,0:0:0:0:
352,96,54824,1,8,0:0:0:0:
160,96,54974,1,0,0:0:0:0:
352,96,55124,1,8,0:0:0:0:
352,96,55274,1,8,0:0:0:0:
352,96,55424,1,8,0:0:0:0:
352,96,55574,1,8,0:0:0:0:
160,96,55649,1,0,0:0:0:0:
160,96,55724,1,0,0:0:0:0:
160,96,55799,1,0,0:0:0:0:
352,96,55874,1,8,0:0:0:0:
160,96,56024,1,0,0:0:0:0:
352,96,56174,1,8,0:0:0:0:
160,96,56249,1,0,0:0:0:0:
352,96,56324,1,8,0:0:0:0:
352,96,56399,1,8,0:0:0:0:
160,96,56474,1,0,0:0:0:0:
160,96,56549,1,0,0:0:0:0:
352,96,56624,1,8,0:0:0:0:
160,96,56774,1,0,0:0:0:0:
160,96,56849,1,0,0:0:0:0:
160,96,56924,1,0,0:0:0:0:
160,96,56999,1,0,0:0:0:0:
352,96,57074,1,8,0:0:0:0:
160,96,57224,1,0,0:0:0:0:
352,96,57374,1,8,0:0:0:0:
352,96,57449,1,8,0:0:0:0:
160,96,57524,1,0,0:0:0:0:
160,96,57599,1,0,0:0:0:0:
352,96,57674,1,8,0:0:0:0:
160,96,57749,1,0,0:0:0:0:
352,96,57824,1,8,0:0:0:0:
352,96,57899,1,8,0:0:0:0:
160,96,57974,1,0,0:0:0:0:
160,96,58124,1,0,0:0:0:0:
352,96,58199,1,8,0:0:0:0:
160,96,58274,1,0,0:0:0:0:
352,96,58349,1,8,0:0:0:0:
160,96,58424,1,0,0:0:0:0:
352,96,58574,1,8,0:0:0:0:
160,96,58649,1,0,0:0:0:0:
352,96,58724,1,8,0:0:0:0:
160,96,58799,1,0,0:0:0:0:
352,96,58874,1,8,0:0:0:0:
352,96,59024,1,8,0:0:0:0:
352,96,59099,1,8,0:0:0:0:
160,96,59174,1,0,0:0:0:0:
160,96,59224,1,0,0:0:0:0:
160,96,59274,1,0,0:0:0:0:
160,96,59324,1,0,0:0:0:0:
352,96,59474,1,8,0:0:0:0:
352,96,59524,1,8,0:0:0:0:
352,96,59574,1,8,0:0:0:0:
352,96,59624,1,8,0:0:0:0:
352,96,59674,1,8,0:0:0:0:
352,96,59724,1,8,0:0:0:0:
160,96,59774,1,0,0:0:0:0:
352,288,60074,1,12,0:0:0:0:
160,288,60374,1,4,0:0:0:0:
160,96,60524,1,0,0:0:0:0:
160,96,60599,1,0,0:0:0:0:
352,96,60674,1,8,0:0:0:0:
160,96,60824,1,0,0:0:0:0:
352,96,60974,1,8,0:0:0:0:
352,96,61049,1,8,0:0:0:0:
160,96,61124,1,0,0:0:0:0:
160,96,61199,1,0,0:0:0:0:
352,96,61274,1,8,0:0:0:0:
160,96,61349,1,0,0:0:0:0:
352,96,61424,1,8,0:0:0:0:
160,96,61574,1,0,0:0:0:0:
160,96,61649,1,0,0:0:0:0:
160,96,61724,1,0,0:0:0:0:
160,96,61799,1,0,0:0:0:0:
352,96,61874,1,8,0:0:0:0:
160,96,62024,1,0,0:0:0:0:
160,96,62099,1,0,0:0:0:0:
352,96,62174,1,8,0:0:0:0:
160,96,62324,1,0,0:0:0:0:
160,96,62399,1,0,0:0:0:0:
352,96,62474,1,8,0:0:0:0:
160,96,62549,1,0,0:0:0:0:
352,96,62624,1,8,0:0:0:0:
160,96,62774,1,0,0:0:0:0:
160,96,62924,1,0,0:0:0:0:
160,96,62999,1,0,0:0:0:0:
352,96,63074,1,8,0:0:0:0:
352,96,63149,1,8,0:0:0:0:
160,96,63224,1,0,0:0:0:0:
352,96,63374,1,8,0:0:0:0:
160,96,63524,1,0,0:0:0:0:
160,96,63599,1,0,0:0:0:0:
352,96,63674,1,8,0:0:0:0:
160,96,63749,1,0,0:0:0:0:
352,96,63824,1,8,0:0:0:0:
352,96,63899,1,8,0:0:0:0:
160,96,63974,1,0,0:0:0:0:
160,96,64124,1,0,0:0:0:0:
352,96,64274,1,8,0:0:0:0:
352,96,64349,1,8,0:0:0:0:
160,96,64424,1,0,0:0:0:0:
160,96,64499,1,0,0:0:0:0:
352,96,64574,1,8,0:0:0:0:
160,96,64649,1,0,0:0:0:0:
160,96,64724,1,0,0:0:0:0:
352,96,64874,1,8,0:0:0:0:
160,96,64949,1,0,0:0:0:0:
352,96,65024,1,8,0:0:0:0:
160,96,65099,1,0,0:0:0:0:
352,96,65174,1,8,0:0:0:0:
160,96,65324,1,0,0:0:0:0:
352,96,65474,1,8,0:0:0:0:
352,96,65549,1,8,0:0:0:0:
160,96,65624,1,0,0:0:0:0:
160,96,65699,1,0,0:0:0:0:
352,96,65774,1,8,0:0:0:0:
160,96,65924,1,0,0:0:0:0:
352,96,66074,1,8,0:0:0:0:
160,96,66149,1,0,0:0:0:0:
352,96,66224,1,8,0:0:0:0:
352,96,66299,1,8,0:0:0:0:
160,96,66374,1,0,0:0:0:0:
160,96,66524,1,0,0:0:0:0:
352,96,66674,1,8,0:0:0:0:
160,96,66749,1,0,0:0:0:0:
160,96,66824,1,0,0:0:0:0:
160,96,66899,1,0,0:0:0:0:
352,96,66974,1,8,0:0:0:0:
160,96,67124,1,0,0:0:0:0:
160,96,67199,1,0,0:0:0:0:
352,96,67274,1,8,0:0:0:0:
352,96,67349,1,8,0:0:0:0:
160,96,67424,1,0,0:0:0:0:
352,96,67574,1,8,0:0:0:0:
352,96,67724,1,8,0:0:0:0:
160,96,67799,1,0,0:0:0:0:
352,96,67874,1,8,0:0:0:0:
352,96,68024,1,8,0:0:0:0:
160,96,68099,1,0,0:0:0:0:
352,96,68174,1,8,0:0:0:0:
352,96,68324,1,8,0:0:0:0:
352,96,68399,1,8,0:0:0:0:
352,96,68474,1,8,0:0:0:0:
352,96,68549,1,8,0:0:0:0:
352,96,68624,1,8,0:0:0:0:
352,96,68699,1,8,0:0:0:0:
160,96,68774,1,0,0:0:0:0:
352,96,68924,1,8,0:0:0:0:
352,96,68999,1,8,0:0:0:0:
352,96,69074,1,8,0:0:0:0:
352,96,69149,1,8,0:0:0:0:
160,96,69224,1,0,0:0:0:0:
352,96,69374,1,8,0:0:0:0:
352,96,69449,1,8,0:0:0:0:
160,96,69524,1,0,0:0:0:0:
160,96,69599,1,0,0:0:0:0:
352,96,69674,1,8,0:0:0:0:
160,96,69749,1,0,0:0:0:0:
352,96,69824,1,8,0:0:0:0:
160,96,69899,1,0,0:0:0:0:
352,96,69974,1,8,0:0:0:0:
160,96,70124,1,0,0:0:0:0:
352,96,70274,1,8,0:0:0:0:
160,96,70349,1,0,0:0:0:0:
160,96,70424,1,0,0:0:0:0:
160,96,70499,1,0,0:0:0:0:
352,96,70574,1,8,0:0:0:0:
160,96,70724,1,0,0:0:0:0:
352,96,70874,1,8,0:0:0:0:
160,96,70949,1,0,0:0:0:0:
352,96,71024,1,8,0:0:0:0:
352,96,71099,1,8,0:0:0:0:
160,96,71174,1,0,0:0:0:0:
160,96,71324,1,0,0:0:0:0:
352,96,71474,1,8,0:0:0:0:
352,96,71549,1,8,0:0:0:0:
160,96,71624,1,0,0:0:0:0:
352,96,71774,1,8,0:0:0:0:
160,96,71849,1,0,0:0:0:0:
160,96,71924,1,0,0:0:0:0:
160,96,71999,1,0,0:0:0:0:
352,96,72074,1,8,0:0:0:0:
352,96,72224,1,8,0:0:0:0:
160,96,72374,1,0,0:0:0:0:
160,96,72449,1,0,0:0:0:0:
160,96,72524,1,0,0:0:0:0:
160,96,72599,1,0,0:0:0:0:
352,96,72674,1,8,0:0:0:0:
160,96,72824,1,0,0:0:0:0:
352,96,72974,1,8,0:0:0:0:
160,96,73124,1,0,0:0:0:0:
160,96,73199,1,0,0:0:0:0:
352,96,73274,1,8,0:0:0:0:
160,96,73349,1,0,0:0:0:0:
352,96,73424,1,8,0:0:0:0:
352,96,73499,1,8,0:0:0:0:
160,96,73574,1,0,0:0:0:0:
160,96,73724,1,0,0:0:0:0:
352,96,73874,1,8,0:0:0:0:
352,96,74024,1,8,0:0:0:0:
160,96,74099,1,0,0:0:0:0:
160,96,74174,1,0,0:0:0:0:
160,96,74249,1,0,0:0:0:0:
352,96,74324,1,8,0:0:0:0:
160,96,74474,1,0,0:0:0:0:
160,96,74549,1,0,0:0:0:0:
352,96,74624,1,8,0:0:0:0:
160,96,74774,1,0,0:0:0:0:
160,96,74849,1,0,0:0:0:0:
160,96,74924,1,0,0:0:0:0:
352,96,75074,1,8,0:0:0:0:
352,96,75149,1,8,0:0:0:0:
160,96,75224,1,0,0:0:0:0:
160,96,75299,1,0,0:0:0:0:
352,96,75374,1,8,0:0:0:0:
160,96,75524,1,0,0:0:0:0:
352,96,75674,1,8,0:0:0:0:
160,96,75749,1,0,0:0:0:0:
352,96,75824,1,8,0:0:0:0:
352,96,75899,1,8,0:0:0:0:
352,96,75974,1,8,0:0:0:0:
352,96,76049,1,8,0:0:0:0:
160,96,76124,1,0,0:0:0:0:
352,96,76274,1,8,0:0:0:0:
160,96,76424,1,0,0:0:0:0:
160,96,76499,1,0,0:0:0:0:
352,96,76574,1,8,0:0:0:0:
160,96,76724,1,0,0:0:0:0:
160,96,76799,1,0,0:0:0:0:
352,96,76874,1,8,0:0:0:0:
352,96,76949,1,8,0:0:0:0:
160,96,77024,1,0,0:0:0:0:
160,96,77099,1,0,0:0:0:0:
352,96,77174,1,8,0:0:0:0:
352,96,77324,1,8,0:0:0:0:
352,96,77399,1,8,0:0:0:0:
160,96,77474,1,0,0:0:0:0:
352,96,77549,1,8,0:0:0:0:
160,96,77624,1,0,0:0:0:0:
352,96,77774,1,8,0:0:0:0:
352,96,77849,1,8,0:0:0:0:
160,96,77924,1,0,0:0:0:0:
352,96,77999,1,8,0:0:0:0:
352,96,78074,1,8,0:0:0:0:
352,96,78224,1,8,0:0:0:0:
160,96,78299,1,0,0:0:0:0:
352,96,78374,1,8,0:0:0:0:
160,96,78524,1,0,0:0:0:0:
352,96,78599,1,8,0:0:0:0:
352,96,78674,1,8,0:0:0:0:
160,96,78824,1,0,0:0:0:0:
352,96,78899,1,8,0:0:0:0:
352,96,78974,1,8,0:0:0:0:
160,96,79049,1,0,0:0:0:0:
352,96,79124,1,8,0:0:0:0:
160,96,79199,1,0,0:0:0:0:
352,96,79274,1,8,0:0:0:0:
352,96,79349,1,8,0:0:0:0:
160,96,79424,1,0,0:0:0:0:
352,96,79574,1,8,0:0:0:0:
160,96,79724,1,0,0:0:0:0:
352,96,79874,1,8,0:0:0:0:
160,96,79949,1,0,0:0:0:0:
352,96,80024,1,8,0:0:0:0:
352,96,80099,1,8,0:0:0:0:
160,96,80174,1,0,0:0:0:0:
352,96,80324,1,8,0:0:0:0:
352,96,80399,1,8,0:0:0:0:
352,96,80474,1,8,0:0:0:0:
160,96,80624,1,0,0:0:0:0:
352,96,80774,1,8,0:0:0:0:
352,96,80811,1,8,0:0:0:0:
160,96,80924,1,0,0:0:0:0:
352,96,81074,1,8,0:0:0:0:
352,96,81111,1,8,0:0:0:0:
352,96,81224,1,8,0:0:0:0:
352,96,81261,1,8,0:0:0:0:
160,96,81374,1,0,0:0:0:0:
352,96,81524,1,8,0:0:0:0:
352,96,81674,1,8,0:0:0:0:
352,96,81749,1,8,0:0:0:0:
160,96,81824,1,0,0:0:0:0:
352,96,81974,1,8,0:0:0:0:
160,96,82049,1,0,0:0:0:0:
352,96,82124,1,8,0:0:0:0:
160,96,82199,1,0,0:0:0:0:
352,96,82274,1,8,0:0:0:0:
352,96,82424,1,8,0:0:0:0:
352,96,82574,1,8,0:0:0:0:
160,96,82649,1,0,0:0:0:0:
352,96,82724,1,8,0:0:0:0:
160,96,82799,1,0,0:0:0:0:
352,96,82874,1,8,0:0:0:0:
352,96,83024,1,8,0:0:0:0:
352,96,83174,1,8,0:0:0:0:
352,96,83211,1,8,0:0:0:0:
160,96,83324,1,0,0:0:0:0:
352,96,83474,1,8,0:0:0:0:
160,96,83549,1,0,0:0:0:0:
352,96,83624,1,8,0:0:0:0:
160,96,83774,1,0,0:0:0:0:
352,96,83824,1,8,0:0:0:0:
352,96,83874,1,8,0:0:0:0:
160,96,83924,1,0,0:0:0:0:
352,288,84074,1,12,0:0:0:0:
352,288,84374,1,12,0:0:0:0:
160,96,84524,1,0,0:0:0:0:
160,96,84599,1,0,0:0:0:0:
352,96,84674,1,8,0:0:0:0:
160,96,84749,1,0,0:0:0:0:
352,96,84824,1,8,0:0:0:0:
160,96,84974,1,0,0:0:0:0:
160,96,85049,1,0,0:0:0:0:
352,96,85124,1,8,0:0:0:0:
352,96,85199,1,8,0:0:0:0:
160,96,85274,1,0,0:0:0:0:
352,96,85424,1,8,0:0:0:0:
160,96,85574,1,0,0:0:0:0:
160,96,85649,1,0,0:0:0:0:
160,96,85724,1,0,0:0:0:0:
160,96,85799,1,0,0:0:0:0:
352,96,85874,1,8,0:0:0:0:
160,96,86024,1,0,0:0:0:0:
352,96,86174,1,8,0:0:0:0:
160,96,86249,1,0,0:0:0:0:
160,96,86324,1,0,0:0:0:0:
352,96,86474,1,8,0:0:0:0:
352,96,86624,1,8,0:0:0:0:
352,96,86774,1,8,0:0:0:0:
160,96,86849,1,0,0:0:0:0:
352,96,86924,1,8,0:0:0:0:
352,96,86999,1,8,0:0:0:0:
352,96,87074,1,8,0:0:0:0:
352,96,87149,1,8,0:0:0:0:
160,96,87224,1,0,0:0:0:0:
160,96,87374,1,0,0:0:0:0:
352,96,87524,1,8,0:0:0:0:
160,96,87599,1,0,0:0:0:0:
160,96,87674,1,0,0:0:0:0:
160,96,87749,1,0,0:0:0:0:
352,96,87824,1,8,0:0:0:0:
352,96,87974,1,8,0:0:0:0:
160,96,88049,1,0,0:0:0:0:
160,96,88124,1,0,0:0:0:0:
352,96,88199,1,8,0:0:0:0:
352,96,88274,1,8,0:0:0:0:
160,96,88424,1,0,0:0:0:0:
352,96,88499,1,8,0:0:0:0:
352,96,88574,1,8,0:0:0:0:
160,96,88724,1,0,0:0:0:0:
352,96,88799,1,8,0:0:0:0:
352,96,88874,1,8,0:0:0:0:
160,96,88949,1,0,0:0:0:0:
352,96,89024,1,8,0:0:0:0:
352,96,89174,1,8,0:0:0:0:
352,96,89249,1,8,0:0:0:0:
160,96,89324,1,0,0:0:0:0:
160,96,89399,1,0,0:0:0:0:
352,96,89474,1,8,0:0:0:0:
160,96,89624,1,0,0:0:0:0:
352,96,89774,1,8,0:0:0:0:
352,96,89849,1,8,0:0:0:0:
160,96,89924,1,0,0:0:0:0:
160,96,89999,1,0,0:0:0:0:
352,96,90074,1,8,0:0:0:0:
160,96,90224,1,0,0:0:0:0:
352,96,90374,1,8,0:0:0:0:
160,96,90449,1,0,0:0:0:0:
352,96,90524,1,8,0:0:0:0:
160,96,90599,1,0,0:0:0:0:
352,96,90674,1,8,0:0:0:0:
160,96,90749,1,0,0:0:0:0:
352,96,90824,1,8,0:0:0:0:
352,96,90899,1,8,0:0:0:0:
352,96,90974,1,8,0:0:0:0:
160,96,91049,1,0,0:0:0:0:
352,96,91124,1,8,0:0:0:0:
160,96,91199,1,0,0:0:0:0:
352,96,91274,1,8,0:0:0:0:
352,96,91349,1,8,0:0:0:0:
160,96,91424,1,0,0:0:0:0:
160,96,91499,1,0,0:0:0:0:
352,96,91574,1,8,0:0:0:0:
352,96,91724,1,8,0:0:0:0:
352,96,91799,1,8,0:0:0:0:
352,96,91874,1,8,0:0:0:0:
352,96,92024,1,8,0:0:0:0:
352,96,92099,1,8,0:0:0:0:
160,96,92174,1,0,0:0:0:0:
352,96,92324,1,8,0:0:0:0:
160,96,92399,1,0,0:0:0:0:
160,96,92474,1,0,0:0:0:0:
352,96,92624,1,8,0:0:0:0:
352,96,92774,1,8,0:0:0:0:
352,96,92811,1,8,0:0:0:0:
352,96,93074,1,8,0:0:0:0:
352,96,93111,1,8,0:0:0:0:
352,96,93224,1,8,0:0:0:0:
352,96,93261,1,8,0:0:0:0:
352,96,93374,1,8,0:0:0:0:
352,96,93411,1,8,0:0:0:0:
352,96,93524,1,8,0:0:0:0:
352,96,93561,1,8,0:0:0:0:
352,96,93674,1,8,0:0:0:0:
352,96,93749,1,8,0:0:0:0:
160,96,93824,1,0,0:0:0:0:
352,96,93974,1,8,0:0:0:0:
160,96,94124,1,0,0:0:0:0:
352,96,94199,1,8,0:0:0:0:
352,96,94274,1,8,0:0:0:0:
160,96,94349,1,0,0:0:0:0:
352,96,94424,1,8,0:0:0:0:
352,96,94574,1,8,0:0:0:0:
352,96,94649,1,8,0:0:0:0:
160,96,94724,1,0,0:0:0:0:
352,96,94874,1,8,0:0:0:0:
352,96,94949,1,8,0:0:0:0:
160,96,95024,1,0,0:0:0:0:
160,96,95099,1,0,0:0:0:0:
352,96,95174,1,8,0:0:0:0:
160,96,95324,1,0,0:0:0:0:
352,96,95474,1,8,0:0:0:0:
160,96,95549,1,0,0:0:0:0:
352,96,95624,1,8,0:0:0:0:
160,96,95774,1,0,0:0:0:0:
352,96,95849,1,8,0:0:0:0:
352,96,95924,1,8,0:0:0:0:
160,96,95999,1,0,0:0:0:0:
352,96,96074,1,8,0:0:0:0:
352,96,96149,1,8,0:0:0:0:
160,96,96224,1,0,0:0:0:0:
352,96,96374,1,8,0:0:0:0:
160,96,96449,1,0,0:0:0:0:
160,96,96524,1,0,0:0:0:0:
352,96,96674,1,8,0:0:0:0:
352,96,96749,1,8,0:0:0:0:
160,96,96824,1,0,0:0:0:0:
352,96,96974,1,8,0:0:0:0:
352,96,97049,1,8,0:0:0:0:
352,96,97124,1,8,0:0:0:0:
352,96,97274,1,8,0:0:0:0:
352,96,97349,1,8,0:0:0:0:
160,96,97424,1,0,0:0:0:0:
160,96,97499,1,0,0:0:0:0:
352,96,97574,1,8,0:0:0:0:
160,96,97724,1,0,0:0:0:0:
352,96,97799,1,8,0:0:0:0:
352,96,97874,1,8,0:0:0:0:
160,96,97949,1,0,0:0:0:0:
352,96,98024,1,8,0:0:0:0:
160,96,98099,1,0,0:0:0:0:
352,96,98174,1,8,0:0:0:0:
160,96,98324,1,0,0:0:0:0:
352,96,98399,1,8,0:0:0:0:
160,96,98474,1,0,0:0:0:0:
352,96,98549,1,8,0:0:0:0:
352,96,98624,1,8,0:0:0:0:
352,288,98774,1,12,0:0:0:0:
160,96,99074,1,0,0:0:0:0:
160,96,99374,1,0,0:0:0:0:
352,288,99674,1,12,0:0:0:0:
160,288,99974,1,4,0:0:0:0:
160,96,100124,1,0,0:0:0:0:
160,96,100199,1,0,0:0:0:0:
352,96,100274,1,8,0:0:0:0:
352,96,100424,1,8,0:0:0:0:
160,96,100499,1,0,0:0:0:0:
352,96,100574,1,8,0:0:0:0:
160,96,100724,1,0,0:0:0:0:
352,96,100874,1,8,0:0:0:0:
160,96,100949,1,0,0:0:0:0:
352,96,101024,1,8,0:0:0:0:
160,96,101174,1,0,0:0:0:0:
160,96,101249,1,0,0:0:0:0:
160,96,101324,1,0,0:0:0:0:
160,96,101399,1,0,0:0:0:0:
352,96,101474,1,8,0:0:0:0:
352,96,101624,1,8,0:0:0:0:
160,96,101699,1,0,0:0:0:0:
352,96,101774,1,8,0:0:0:0:
352,96,101924,1,8,0:0:0:0:
160,96,101999,1,0,0:0:0:0:
160,96,102074,1,0,0:0:0:0:
352,96,102224,1,8,0:0:0:0:
160,96,102374,1,0,0:0:0:0:
352,96,102524,1,8,0:0:0:0:
160,96,102599,1,0,0:0:0:0:
160,96,102674,1,0,0:0:0:0:
160,96,102824,1,0,0:0:0:0:
160,96,102899,1,0,0:0:0:0:
160,96,102974,1,0,0:0:0:0:
352,96,103124,1,8,0:0:0:0:
160,96,103199,1,0,0:0:0:0:
160,96,103274,1,0,0:0:0:0:
352,96,103424,1,8,0:0:0:0:
160,96,103574,1,0,0:0:0:0:
160,96,103649,1,0,0:0:0:0:
352,96,103724,1,8,0:0:0:0:
160,96,103874,1,0,0:0:0:0:
352,96,103949,1,8,0:0:0:0:
352,96,104024,1,8,0:0:0:0:
160,96,104099,1,0,0:0:0:0:
352,96,104174,1,8,0:0:0:0:
352,96,104324,1,8,0:0:0:0:
160,96,104399,1,0,0:0:0:0:
352,96,104474,1,8,0:0:0:0:
160,96,104624,1,0,0:0:0:0:
352,288,104774,1,12,0:0:0:0:
160,96,104924,1,0,0:0:0:0:
160,96,104999,1,0,0:0:0:0:
160,96,105074,1,0,0:0:0:0:
352,96,105224,1,8,0:0:0:0:
352,96,105374,1,8,0:0:0:0:
352,96,105449,1,8,0:0:0:0:
352,96,105524,1,8,0:0:0:0:
352,96,105599,1,8,0:0:0:0:
160,96,105674,1,0,0:0:0:0:
352,96,105824,1,8,0:0:0:0:
160,96,105974,1,0,0:0:0:0:
160,96,106049,1,0,0:0:0:0:
160,96,106124,1,0,0:0:0:0:
160,96,106199,1,0,0:0:0:0:
352,96,106274,1,8,0:0:0:0:
352,96,106424,1,8,0:0:0:0:
160,96,106499,1,0,0:0:0:0:
352,96,106574,1,8,0:0:0:0:
352,96,106649,1,8,0:0:0:0:
160,96,106724,1,0,0:0:0:0:
160,96,106799,1,0,0:0:0:0:
352,96,106874,1,8,0:0:0:0:
352,96,107024,1,8,0:0:0:0:
160,96,107174,1,0,0:0:0:0:
352,96,107324,1,8,0:0:0:0:
352,96,107399,1,8,0:0:0:0:
352,96,107474,1,8,0:0:0:0:
352,96,107624,1,8,0:0:0:0:
352,96,107774,1,8,0:0:0:0:
352,96,107849,1,8,0:0:0:0:
160,96,107924,1,0,0:0:0:0:
160,96,107999,1,0,0:0:0:0:
160,96,108074,1,0,0:0:0:0:
160,96,108224,1,0,0:0:0:0:
160,96,108299,1,0,0:0:0:0:
352,96,108374,1,8,0:0:0:0:
352,96,108449,1,8,0:0:0:0:
352,96,108524,1,8,0:0:0:0:
160,96,108674,1,0,0:0:0:0:
352,96,108824,1,8,0:0:0:0:
160,96,108974,1,0,0:0:0:0:
352,96,109049,1,8,0:0:0:0:
352,96,109124,1,8,0:0:0:0:
352,96,109199,1,8,0:0:0:0:
160,96,109274,1,0,0:0:0:0:
352,96,109424,1,8,0:0:0:0:
160,288,109574,1,4,0:0:0:0:
160,96,109724,1,0,0:0:0:0:
352,288,109874,1,12,0:0:0:0:
160,96,110024,1,0,0:0:0:0:
160,96,110099,1,0,0:0:0:0:
352,96,110174,1,8,0:0:0:0:
352,96,110324,1,8,0:0:0:0:
160,96,110399,1,0,0:0:0:0:
352,96,110474,1,8,0:0:0:0:
352,96,110624,1,8,0:0:0:0:
160,96,110774,1,0,0:0:0:0:
352,96,110924,1,8,0:0:0:0:
160,96,110999,1,0,0:0:0:0:
160,96,111074,1,0,0:0:0:0:
352,96,111224,1,8,0:0:0:0:
352,96,111299,1,8,0:0:0:0:
160,96,111374,1,0,0:0:0:0:
352,96,111524,1,8,0:0:0:0:
352,96,111599,1,8,0:0:0:0:
160,96,111674,1,0,0:0:0:0:
352,96,111824,1,8,0:0:0:0:
160,96,111974,1,0,0:0:0:0:
160,96,112049,1,0,0:0:0:0:
160,96,112124,1,0,0:0:0:0:
160,96,112199,1,0,0:0:0:0:
352,96,112274,1,8,0:0:0:0:
352,96,112424,1,8,0:0:0:0:
352,96,112499,1,8,0:0:0:0:
160,96,112574,1,0,0:0:0:0:
352,96,112724,1,8,0:0:0:0:
160,96,112874,1,0,0:0:0:0:
160,96,112949,1,0,0:0:0:0:
352,96,113024,1,8,0:0:0:0:
160,96,113174,1,0,0:0:0:0:
160,96,113249,1,0,0:0:0:0:
352,96,113324,1,8,0:0:0:0:
160,96,113399,1,0,0:0:0:0:
352,96,113474,1,8,0:0:0:0:
160,96,113624,1,0,0:0:0:0:
352,96,113774,1,8,0:0:0:0:
352,96,113849,1,8,0:0:0:0:
352,96,113924,1,8,0:0:0:0:
160,96,113999,1,0,0:0:0:0:
352,96,114074,1,8,0:0:0:0:
352,96,114149,1,8,0:0:0:0:
160,96,114224,1,0,0:0:0:0:
160,288,114374,1,4,0:0:0:0:
160,96,114524,1,0,0:0:0:0:
160,96,114599,1,0,0:0:0:0:
352,96,114674,1,8,0:0:0:0:
352,96,114824,1,8,0:0:0:0:
160,96,114899,1,0,0:0:0:0:
352,96,114974,1,8,0:0:0:0:
352,96,115124,1,8,0:0:0:0:
352,96,115274,1,8,0:0:0:0:
352,96,115424,1,8,0:0:0:0:
352,96,115499,1,8,0:0:0:0:
160,96,115574,1,0,0:0:0:0:
160,96,115649,1,0,0:0:0:0:
352,96,115724,1,8,0:0:0:0:
160,96,115874,1,0,0:0:0:0:
352,96,116024,1,8,0:0:0:0:
352,96,116099,1,8,0:0:0:0:
160,96,116174,1,0,0:0:0:0:
352,96,116324,1,8,0:0:0:0:
160,96,116474,1,0,0:0:0:0:
352,96,116624,1,8,0:0:0:0:
352,96,116774,1,8,0:0:0:0:
160,96,116849,1,0,0:0:0:0:
352,96,116924,1,8,0:0:0:0:
352,96,116999,1,8,0:0:0:0:
160,96,117074,1,0,0:0:0:0:
352,96,117224,1,8,0:0:0:0:
160,96,117299,1,0,0:0:0:0:
160,96,117374,1,0,0:0:0:0:
352,96,117449,1,8,0:0:0:0:
352,96,117524,1,8,0:0:0:0:
352,96,117674,1,8,0:0:0:0:
352,96,117749,1,8,0:0:0:0:
160,96,117824,1,0,0:0:0:0:
352,96,117974,1,8,0:0:0:0:
352,96,118049,1,8,0:0:0:0:
352,96,118124,1,8,0:0:0:0:
160,96,118199,1,0,0:0:0:0:
160,96,118274,1,0,0:0:0:0:
352,96,118424,1,8,0:0:0:0:
160,96,118499,1,0,0:0:0:0:
352,96,118574,1,8,0:0:0:0:
160,96,118724,1,0,0:0:0:0:
160,96,118799,1,0,0:0:0:0:
352,96,118874,1,8,0:0:0:0:
352,96,118949,1,8,0:0:0:0:
352,96,119024,1,8,0:0:0:0:
160,288,119174,1,4,0:0:0:0:
352,96,119474,1,8,0:0:0:0:
160,96,119624,1,0,0:0:0:0:
352,96,119774,1,8,0:0:0:0:
160,96,119924,1,0,0:0:0:0:
352,96,120074,1,8,0:0:0:0:
160,96,120149,1,0,0:0:0:0:
352,96,120224,1,8,0:0:0:0:
160,96,120374,1,0,0:0:0:0:
160,96,120524,1,0,0:0:0:0:
352,96,120674,1,8,0:0:0:0:
352,96,120824,1,8,0:0:0:0:
352,96,120974,1,8,0:0:0:0:
160,96,121124,1,0,0:0:0:0:
352,96,121274,1,8,0:0:0:0:
160,96,121424,1,0,0:0:0:0:
352,96,121574,1,8,0:0:0:0:
160,96,121724,1,0,0:0:0:0:
160,96,121799,1,0,0:0:0:0:
352,96,121874,1,8,0:0:0:0:
352,96,122024,1,8,0:0:0:0:
160,96,122174,1,0,0:0:0:0:
352,96,122324,1,8,0:0:0:0:
352,96,122399,1,8,0:0:0:0:
352,96,122474,1,8,0:0:0:0:
160,96,122624,1,0,0:0:0:0:
352,96,122774,1,8,0:0:0:0:
160,96,122924,1,0,0:0:0:0:
352,96,123074,1,8,0:0:0:0:
352,96,123224,1,8,0:0:0:0:
160,96,123374,1,0,0:0:0:0:
160,96,123524,1,0,0:0:0:0:
352,96,123674,1,8,0:0:0:0:
160,96,123824,1,0,0:0:0:0:
352,96,123974,1,8,0:0:0:0:
160,96,124124,1,0,0:0:0:0:
352,96,124274,1,8,0:0:0:0:
160,96,124424,1,0,0:0:0:0:
352,96,124574,1,8,0:0:0:0:
160,96,124724,1,0,0:0:0:0:
352,96,124874,1,8,0:0:0:0:
352,96,125024,1,8,0:0:0:0:
352,96,125174,1,8,0:0:0:0:
352,96,125249,1,8,0:0:0:0:
160,96,125324,1,0,0:0:0:0:
160,96,125399,1,0,0:0:0:0:
352,96,125474,1,8,0:0:0:0:
160,96,125624,1,0,0:0:0:0:
352,96,125774,1,8,0:0:0:0:
160,96,125849,1,0,0:0:0:0:
352,96,125924,1,8,0:0:0:0:
160,96,126074,1,0,0:0:0:0:
160,96,126224,1,0,0:0:0:0:
352,96,126374,1,8,0:0:0:0:
352,96,126449,1,8,0:0:0:0:
352,96,126524,1,8,0:0:0:0:
160,96,126674,1,0,0:0:0:0:
352,96,126824,1,8,0:0:0:0:
352,96,126899,1,8,0:0:0:0:
160,96,126974,1,0,0:0:0:0:
160,96,127124,1,0,0:0:0:0:
352,96,127274,1,8,0:0:0:0:
352,96,127349,1,8,0:0:0:0:
352,96,127424,1,8,0:0:0:0:
352,96,127499,1,8,0:0:0:0:
160,96,127574,1,0,0:0:0:0:
352,96,127724,1,8,0:0:0:0:
352,96,127799,1,8,0:0:0:0:
352,96,127874,1,8,0:0:0:0:
160,96,127949,1,0,0:0:0:0:
352,96,128024,1,8,0:0:0:0:
160,96,128099,1,0,0:0:0:0:
352,96,128174,1,8,0:0:0:0:
160,96,128324,1,0,0:0:0:0:
352,96,128474,1,8,0:0:0:0:
352,96,128549,1,8,0:0:0:0:
160,96,128624,1,0,0:0:0:0:
352,288,128774,1,12,0:0:0:0:
160,96,128924,1,0,0:0:0:0:
352,96,129074,1,8,0:0:0:0:
160,96,129224,1,0,0:0:0:0:
352,96,129374,1,8,0:0:0:0:
352,96,129449,1,8,0:0:0:0:
160,96,129524,1,0,0:0:0:0:
352,96,129674,1,8,0:0:0:0:
352,96,129824,1,8,0:0:0:0:
352,96,129899,1,8,0:0:0:0:
160,96,129974,1,0,0:0:0:0:
160,96,130124,1,0,0:0:0:0:
352,96,130274,1,8,0:0:0:0:
160,96,130424,1,0,0:0:0:0:
352,96,130574,1,8,0:0:0:0:
160,96,130724,1,0,0:0:0:0:
352,96,130874,1,8,0:0:0:0:
160,96,131024,1,0,0:0:0:0:
352,96,131174,1,8,0:0:0:0:
160,96,131324,1,0,0:0:0:0:
352,96,131474,1,8,0:0:0:0:
160,96,131549,1,0,0:0:0:0:
352,96,131624,1,8,0:0:0:0:
160,96,131774,1,0,0:0:0:0:
352,96,131924,1,8,0:0:0:0:
352,96,131999,1,8,0:0:0:0:
160,96,132074,1,0,0:0:0:0:
352,96,132224,1,8,0:0:0:0:
160,96,132299,1,0,0:0:0:0:
160,96,132374,1,0,0:0:0:0:
160,96,132524,1,0,0:0:0:0:
352,96,132674,1,8,0:0:0:0:
352,96,132824,1,8,0:0:0:0:
160,96,132974,1,0,0:0:0:0:
352,96,133124,1,8,0:0:0:0:
352,96,133274,1,8,0:0:0:0:
352,96,133424,1,8,0:0:0:0:
352,96,133574,1,8,0:0:0:0:
160,96,133649,1,0,0:0:0:0:
160,96,133724,1,0,0:0:0:0:
160,96,133799,1,0,0:0:0:0:
352,96,133874,1,8,0:0:0:0:
160,96,134024,1,0,0:0:0:0:
352,96,134174,1,8,0:0:0:0:
160,96,134249,1,0,0:0:0:0:
352,96,134324,1,8,0:0:0:0:
352,96,134399,1,8,0:0:0:0:
160,96,134474,1,0,0:0:0:0:
160,96,134549,1,0,0:0:0:0:
352,96,134624,1,8,0:0:0:0:
160,96,134774,1,0,0:0:0:0:
160,96,134849,1,0,0:0:0:0:
160,96,134924,1,0,0:0:0:0:
160,96,134999,1,0,0:0:0:0:
352,96,135074,1,8,0:0:0:0:
160,96,135224,1,0,0:0:0:0:
352,96,135374,1,8,0:0:0:0:
352,96,135449,1,8,0:0:0:0:
160,96,135524,1,0,0:0:0:0:
160,96,135599,1,0,0:0:0:0:
352,96,135674,1,8,0:0:0:0:
160,96,135749,1,0,0:0:0:0:
352,96,135824,1,8,0:0:0:0:
352,96,135899,1,8,0:0:0:0:
160,96,135974,1,0,0:0:0:0:
160,96,136124,1,0,0:0:0:0:
352,96,136199,1,8,0:0:0:0:
160,96,136274,1,0,0:0:0:0:
352,96,136349,1,8,0:0:0:0:
160,96,136424,1,0,0:0:0:0:
352,96,136574,1,8,0:0:0:0:
160,96,136649,1,0,0:0:0:0:
352,96,136724,1,8,0:0:0:0:
160,96,136799,1,0,0:0:0:0:
352,96,136874,1,8,0:0:0:0:
352,96,137024,1,8,0:0:0:0:
160,96,137174,1,0,0:0:0:0:
160,96,137224,1,0,0:0:0:0:
160,96,137274,1,0,0:0:0:0:
160,96,137324,1,0,0:0:0:0:
160,96,137374,1,0,0:0:0:0:
160,96,137424,1,0,0:0:0:0:
352,96,137474,1,8,0:0:0:0:
352,96,137624,1,8,0:0:0:0:
352,96,137674,1,8,0:0:0:0:
352,96,137724,1,8,0:0:0:0:
160,96,137774,1,0,0:0:0:0:
352,96,138074,5,8,0:0:0:0:
352,96,138149,1,8,0:0:0:0:
352,96,138224,1,8,0:0:0:0:
160,288,138374,1,4,0:0:0:0:
160,96,138524,1,0,0:0:0:0:
160,96,138599,1,0,0:0:0:0:
352,96,138674,1,8,0:0:0:0:
160,96,138824,1,0,0:0:0:0:
352,96,138974,1,8,0:0:0:0:
352,96,139049,1,8,0:0:0:0:
160,96,139124,1,0,0:0:0:0:
160,96,139199,1,0,0:0:0:0:
352,96,139274,1,8,0:0:0:0:
160,96,139349,1,0,0:0:0:0:
352,96,139424,1,8,0:0:0:0:
160,96,139574,1,0,0:0:0:0:
160,96,139649,1,0,0:0:0:0:
160,96,139724,1,0,0:0:0:0:
160,96,139799,1,0,0:0:0:0:
352,96,139874,1,8,0:0:0:0:
160,96,140024,1,0,0:0:0:0:
160,96,140099,1,0,0:0:0:0:
352,96,140174,1,8,0:0:0:0:
160,96,140324,1,0,0:0:0:0:
160,96,140399,1,0,0:0:0:0:
352,96,140474,1,8,0:0:0:0:
160,96,140549,1,0,0:0:0:0:
352,96,140624,1,8,0:0:0:0:
160,96,140774,1,0,0:0:0:0:
160,96,140924,1,0,0:0:0:0:
160,96,140999,1,0,0:0:0:0:
352,96,141074,1,8,0:0:0:0:
352,96,141149,1,8,0:0:0:0:
160,96,141224,1,0,0:0:0:0:
352,96,141374,1,8,0:0:0:0:
160,96,141524,1,0,0:0:0:0:
160,96,141599,1,0,0:0:0:0:
352,96,141674,1,8,0:0:0:0:
160,96,141749,1,0,0:0:0:0:
352,96,141824,1,8,0:0:0:0:
352,96,141899,1,8,0:0:0:0:
160,96,141974,1,0,0:0:0:0:
160,96,142124,1,0,0:0:0:0:
352,96,142274,1,8,0:0:0:0:
352,96,142349,1,8,0:0:0:0:
160,96,142424,1,0,0:0:0:0:
160,96,142499,1,0,0:0:0:0:
352,96,142574,1,8,0:0:0:0:
160,96,142649,1,0,0:0:0:0:
160,96,142724,1,0,0:0:0:0:
352,96,142874,1,8,0:0:0:0:
160,96,142949,1,0,0:0:0:0:
352,96,143024,1,8,0:0:0:0:
160,96,143099,1,0,0:0:0:0:
352,96,143174,1,8,0:0:0:0:
160,96,143324,1,0,0:0:0:0:
352,96,143474,1,8,0:0:0:0:
352,96,143549,1,8,0:0:0:0:
160,96,143624,1,0,0:0:0:0:
160,96,143699,1,0,0:0:0:0:
352,96,143774,1,8,0:0:0:0:
160,96,143924,1,0,0:0:0:0:
352,96,144074,1,8,0:0:0:0:
160,96,144149,1,0,0:0:0:0:
352,96,144224,1,8,0:0:0:0:
352,96,144299,1,8,0:0:0:0:
160,96,144374,1,0,0:0:0:0:
160,96,144524,1,0,0:0:0:0:
352,96,144674,1,8,0:0:0:0:
160,96,144749,1,0,0:0:0:0:
160,96,144824,1,0,0:0:0:0:
160,96,144899,1,0,0:0:0:0:
352,96,144974,1,8,0:0:0:0:
160,96,145124,1,0,0:0:0:0:
160,96,145199,1,0,0:0:0:0:
352,96,145274,1,8,0:0:0:0:
352,96,145349,1,8,0:0:0:0:
160,96,145424,1,0,0:0:0:0:
352,96,145574,1,8,0:0:0:0:
352,96,145724,1,8,0:0:0:0:
160,96,145799,1,0,0:0:0:0:
352,96,145874,1,8,0:0:0:0:
352,96,146024,1,8,0:0:0:0:
160,96,146099,1,0,0:0:0:0:
352,96,146174,1,8,0:0:0:0:
352,96,146324,1,8,0:0:0:0:
160,96,146399,1,0,0:0:0:0:
352,96,146474,1,8,0:0:0:0:
160,96,146549,1,0,0:0:0:0:
352,96,146624,1,8,0:0:0:0:
160,96,146699,1,0,0:0:0:0:
352,96,146774,1,8,0:0:0:0:
352,96,146924,1,8,0:0:0:0:
352,96,146999,1,8,0:0:0:0:
160,96,147074,1,0,0:0:0:0:
352,96,147149,1,8,0:0:0:0:
160,96,147224,1,0,0:0:0:0:
352,96,147374,1,8,0:0:0:0:
352,96,147449,1,8,0:0:0:0:
160,96,147524,1,0,0:0:0:0:
160,96,147599,1,0,0:0:0:0:
352,96,147674,1,8,0:0:0:0:
160,96,147749,1,0,0:0:0:0:
352,96,147824,1,8,0:0:0:0:
160,96,147899,1,0,0:0:0:0:
352,96,147974,1,8,0:0:0:0:
160,96,148124,1,0,0:0:0:0:
352,96,148274,1,8,0:0:0:0:
160,96,148349,1,0,0:0:0:0:
160,96,148424,1,0,0:0:0:0:
160,96,148499,1,0,0:0:0:0:
352,96,148574,1,8,0:0:0:0:
160,96,148724,1,0,0:0:0:0:
352,96,148874,1,8,0:0:0:0:
160,96,148949,1,0,0:0:0:0:
352,96,149024,1,8,0:0:0:0:
352,96,149099,1,8,0:0:0:0:
160,96,149174,1,0,0:0:0:0:
160,96,149324,1,0,0:0:0:0:
352,96,149474,1,8,0:0:0:0:
352,96,149549,1,8,0:0:0:0:
160,96,149624,1,0,0:0:0:0:
352,96,149774,1,8,0:0:0:0:
160,96,149849,1,0,0:0:0:0:
160,96,149924,1,0,0:0:0:0:
160,96,149999,1,0,0:0:0:0:
352,96,150074,1,8,0:0:0:0:
352,96,150224,1,8,0:0:0:0:
160,96,150374,1,0,0:0:0:0:
160,96,150449,1,0,0:0:0:0:
160,96,150524,1,0,0:0:0:0:
160,96,150599,1,0,0:0:0:0:
352,96,150674,1,8,0:0:0:0:
160,96,150824,1,0,0:0:0:0:
352,96,150974,1,8,0:0:0:0:
160,96,151124,1,0,0:0:0:0:
160,96,151199,1,0,0:0:0:0:
352,96,151274,1,8,0:0:0:0:
160,96,151349,1,0,0:0:0:0:
352,96,151424,1,8,0:0:0:0:
352,96,151499,1,8,0:0:0:0:
160,96,151574,1,0,0:0:0:0:
160,96,151724,1,0,0:0:0:0:
352,96,151874,1,8,0:0:0:0:
352,96,152024,1,8,0:0:0:0:
160,96,152099,1,0,0:0:0:0:
160,96,152174,1,0,0:0:0:0:
160,96,152249,1,0,0:0:0:0:
352,96,152324,1,8,0:0:0:0:
160,96,152474,1,0,0:0:0:0:
160,96,152549,1,0,0:0:0:0:
352,96,152624,1,8,0:0:0:0:
160,96,152774,1,0,0:0:0:0:
160,96,152849,1,0,0:0:0:0:
160,96,152924,1,0,0:0:0:0:
352,96,153074,1,8,0:0:0:0:
352,96,153149,1,8,0:0:0:0:
160,96,153224,1,0,0:0:0:0:
160,96,153299,1,0,0:0:0:0:
352,96,153374,1,8,0:0:0:0:
160,96,153524,1,0,0:0:0:0:
352,96,153674,1,8,0:0:0:0:
160,96,153749,1,0,0:0:0:0:
352,96,153824,1,8,0:0:0:0:
352,96,153899,1,8,0:0:0:0:
352,96,153974,1,8,0:0:0:0:
352,96,154049,1,8,0:0:0:0:
160,96,154124,1,0,0:0:0:0:
352,96,154274,1,8,0:0:0:0:
160,96,154424,1,0,0:0:0:0:
160,96,154499,1,0,0:0:0:0:
352,96,154574,1,8,0:0:0:0:
160,96,154724,1,0,0:0:0:0:
160,96,154799,1,0,0:0:0:0:
352,96,154874,1,8,0:0:0:0:
352,96,154949,1,8,0:0:0:0:
160,96,155024,1,0,0:0:0:0:
160,96,155099,1,0,0:0:0:0:
352,96,155174,1,8,0:0:0:0:
352,96,155324,1,8,0:0:0:0:
352,96,155399,1,8,0:0:0:0:
160,96,155474,1,0,0:0:0:0:
352,96,155549,1,8,0:0:0:0:
160,96,155624,1,0,0:0:0:0:
352,96,155774,1,8,0:0:0:0:
352,96,155849,1,8,0:0:0:0:
160,96,155924,1,0,0:0:0:0:
352,96,155999,1,8,0:0:0:0:
352,96,156074,1,8,0:0:0:0:
352,96,156224,1,8,0:0:0:0:
160,96,156299,1,0,0:0:0:0:
352,96,156374,1,8,0:0:0:0:
160,96,156524,1,0,0:0:0:0:
352,96,156599,1,8,0:0:0:0:
352,96,156674,1,8,0:0:0:0:
160,96,156824,1,0,0:0:0:0:
352,96,156899,1,8,0:0:0:0:
352,96,156974,1,8,0:0:0:0:
160,96,157049,1,0,0:0:0:0:
352,96,157124,1,8,0:0:0:0:
160,96,157199,5,0,0:0:0:0:
352,96,157274,1,8,0:0:0:0:
352,96,157349,1,8,0:0:0:0:
160,96,157424,1,0,0:0:0:0:
352,96,157574,5,8,0:0:0:0:
352,96,157649,1,8,0:0:0:0:
160,96,157724,1,0,0:0:0:0:
160,96,157799,1,0,0:0:0:0:
352,96,157874,1,8,0:0:0:0:
160,96,158024,1,0,0:0:0:0:
352,96,158174,1,8,0:0:0:0:
160,96,158249,1,0,0:0:0:0:
352,96,158324,1,8,0:0:0:0:
352,96,158399,1,8,0:0:0:0:
352,96,158474,1,8,0:0:0:0:
352,96,158624,1,8,0:0:0:0:
352,96,158774,1,8,0:0:0:0:
352,96,158849,1,8,0:0:0:0:
160,96,158924,1,0,0:0:0:0:
160,96,158999,1,0,0:0:0:0:
352,96,159074,1,8,0:0:0:0:
160,96,159224,1,0,0:0:0:0:
352,96,159374,1,8,0:0:0:0:
160,96,159449,1,0,0:0:0:0:
352,96,159524,1,8,0:0:0:0:
352,96,159599,1,8,0:0:0:0:
352,96,159674,1,8,0:0:0:0:
352,96,159824,1,8,0:0:0:0:
352,96,159974,1,8,0:0:0:0:
160,96,160049,1,0,0:0:0:0:
160,96,160124,1,0,0:0:0:0:
160,96,160199,1,0,0:0:0:0:
352,96,160274,1,8,0:0:0:0:
160,96,160424,1,0,0:0:0:0:
352,96,160574,1,8,0:0:0:0:
352,96,160649,1,8,0:0:0:0:
160,96,160724,1,0,0:0:0:0:
160,96,160799,1,0,0:0:0:0:
352,96,160874,1,8,0:0:0:0:
160,96,161024,1,0,0:0:0:0:
352,96,161174,1,8,0:0:0:0:
160,96,161249,1,0,0:0:0:0:
352,96,161324,1,8,0:0:0:0:
352,96,161399,1,8,0:0:0:0:
160,96,161474,1,0,0:0:0:0:
352,96,161624,1,8,0:0:0:0:
352,96,161699,1,8,0:0:0:0:
160,96,161774,1,0,0:0:0:0:
352,96,161849,1,8,0:0:0:0:
160,96,161924,1,0,0:0:0:0:
352,288,162074,1,12,0:0:0:0:
160,96,162224,1,0,0:0:0:0:
352,96,162374,1,8,0:0:0:0:
352,96,162449,1,8,0:0:0:0:
352,96,162524,1,8,0:0:0:0:
160,96,162599,1,0,0:0:0:0:
352,96,162674,1,8,0:0:0:0:
160,96,162749,1,0,0:0:0:0:
352,96,162824,1,8,0:0:0:0:
160,96,162899,1,0,0:0:0:0:
352,96,162974,1,8,0:0:0:0:
160,96,163049,1,0,0:0:0:0:
352,96,163124,1,8,0:0:0:0:
160,96,163199,1,0,0:0:0:0:
352,96,163274,1,8,0:0:0:0:
160,96,163424,1,0,0:0:0:0:
352,96,163574,1,8,0:0:0:0:
160,96,163649,1,0,0:0:0:0:
352,96,163724,1,8,0:0:0:0:
160,96,163799,1,0,0:0:0:0:
352,96,163874,1,8,0:0:0:0:
160,96,163949,1,0,0:0:0:0:
352,96,164024,1,8,0:0:0:0:
160,96,164099,1,0,0:0:0:0:
352,96,164174,1,8,0:0:0:0:
352,96,164249,1,8,0:0:0:0:
352,96,164324,1,8,0:0:0:0:
160,96,164399,1,0,0:0:0:0:
352,96,164474,1,8,0:0:0:0:
160,96,164549,1,0,0:0:0:0:
352,96,164624,1,8,0:0:0:0:
160,96,164699,1,0,0:0:0:0:
352,96,164774,1,8,0:0:0:0:
352,96,164849,1,8,0:0:0:0:
352,96,164924,1,8,0:0:0:0:
160,96,164999,1,0,0:0:0:0:
352,96,165074,1,8,0:0:0:0:
160,96,165149,1,0,0:0:0:0:
352,96,165224,1,8,0:0:0:0:
160,96,165299,1,0,0:0:0:0:
352,96,165374,1,8,0:0:0:0:
160,96,165449,1,0,0:0:0:0:
352,96,165524,1,8,0:0:0:0:
160,96,165599,1,0,0:0:0:0:
352,96,165674,1,8,0:0:0:0:
352,96,165749,1,8,0:0:0:0:
160,96,165824,1,0,0:0:0:0:
160,288,165974,1,4,0:0:0:0:
160,288,166274,1,4,0:0:0:0:
160,288,166574,1,4,0:0:0:0:
352,96,166874,1,8,0:0:0:0:
352,96,166949,1,8,0:0:0:0:
352,96,167024,1,8,0:0:0:0:
160,288,167174,1,4,0:0:0:0:
160,96,167324,1,0,0:0:0:0:
160,96,167399,1,0,0:0:0:0:
352,96,167474,1,8,0:0:0:0:
160,96,167624,1,0,0:0:0:0:
352,96,167774,1,8,0:0:0:0:
160,96,167849,1,0,0:0:0:0:
352,96,167924,1,8,0:0:0:0:
352,96,167999,1,8,0:0:0:0:
160,96,168074,1,0,0:0:0:0:
352,96,168149,1,8,0:0:0:0:
160,96,168224,1,0,0:0:0:0:
352,96,168374,1,8,0:0:0:0:
160,96,168524,1,0,0:0:0:0:
160,96,168599,1,0,0:0:0:0:
352,96,168674,1,8,0:0:0:0:
160,96,168749,1,0,0:0:0:0:
352,96,168824,1,8,0:0:0:0:
352,96,168899,1,8,0:0:0:0:
160,96,168974,1,0,0:0:0:0:
352,96,169124,1,8,0:0:0:0:
160,96,169274,1,0,0:0:0:0:
160,96,169349,1,0,0:0:0:0:
352,96,169424,1,8,0:0:0:0:
160,96,169499,1,0,0:0:0:0:
352,96,169574,1,8,0:0:0:0:
160,96,169724,1,0,0:0:0:0:
352,96,169799,1,8,0:0:0:0:
352,96,169874,1,8,0:0:0:0:
160,96,170024,1,0,0:0:0:0:
352,96,170099,1,8,0:0:0:0:
352,96,170174,1,8,0:0:0:0:
160,96,170324,1,0,0:0:0:0:
352,96,170399,1,8,0:0:0:0:
352,96,170474,1,8,0:0:0:0:
160,96,170549,1,0,0:0:0:0:
352,96,170624,1,8,0:0:0:0:
352,96,170699,1,8,0:0:0:0:
160,96,170774,1,0,0:0:0:0:
352,96,170924,1,8,0:0:0:0:
352,96,170999,1,8,0:0:0:0:
352,96,171074,1,8,0:0:0:0:
160,96,171149,1,0,0:0:0:0:
352,96,171224,1,8,0:0:0:0:
160,96,171299,1,0,0:0:0:0:
352,96,171374,1,8,0:0:0:0:
160,96,171524,1,0,0:0:0:0:
352,96,171674,1,8,0:0:0:0:
352,96,171749,1,8,0:0:0:0:
160,96,171824,1,0,0:0:0:0:
352,96,171974,1,8,0:0:0:0:
352,96,172049,1,8,0:0:0:0:
352,96,172124,1,8,0:0:0:0:
160,96,172199,1,0,0:0:0:0:
352,96,172274,1,8,0:0:0:0:
160,96,172424,1,0,0:0:0:0:
352,96,172574,1,8,0:0:0:0:
352,96,172649,1,8,0:0:0:0:
352,96,172724,1,8,0:0:0:0:
160,96,172799,1,0,0:0:0:0:
352,96,172874,1,8,0:0:0:0:
160,96,173024,1,0,0:0:0:0:
352,96,173174,1,8,0:0:0:0:
352,96,173249,1,8,0:0:0:0:
160,96,173324,1,0,0:0:0:0:
352,96,173474,1,8,0:0:0:0:
160,96,173549,1,0,0:0:0:0:
352,96,173624,1,8,0:0:0:0:
352,96,173699,1,8,0:0:0:0:
352,96,173774,1,8,0:0:0:0:
160,96,173924,1,0,0:0:0:0:
352,96,174074,1,8,0:0:0:0:
352,96,174149,1,8,0:0:0:0:
160,96,174224,1,0,0:0:0:0:
160,96,174299,1,0,0:0:0:0:
352,96,174374,1,8,0:0:0:0:
160,96,174524,1,0,0:0:0:0:
352,96,174674,1,8,0:0:0:0:
352,96,174749,1,8,0:0:0:0:
352,96,174824,1,8,0:0:0:0:
160,96,174899,1,0,0:0:0:0:
352,96,174974,1,8,0:0:0:0:
160,96,175124,1,0,0:0:0:0:
160,96,175199,1,0,0:0:0:0:
352,96,175274,1,8,0:0:0:0:
160,96,175424,1,0,0:0:0:0:
352,96,175574,1,8,0:0:0:0:
352,96,175611,1,8,0:0:0:0:
352,96,175724,1,8,0:0:0:0:
352,96,175799,1,8,0:0:0:0:
352,96,175874,1,8,0:0:0:0:
160,96,176024,1,0,0:0:0:0:
160,96,176099,1,0,0:0:0:0:
352,96,176174,1,8,0:0:0:0:
160,96,176249,1,0,0:0:0:0:
352,96,176324,1,8,0:0:0:0:
352,96,176399,1,8,0:0:0:0:
160,96,176474,1,0,0:0:0:0:
352,96,176549,1,8,0:0:0:0:
352,96,176624,1,8,0:0:0:0:
160,288,176774,1,4,0:0:0:0:
160,96,177074,1,0,0:0:0:0:
160,96,177374,1,0,0:0:0:0:
352,288,177674,1,12,0:0:0:0:
160,288,177974,1,4,0:0:0:0:
160,96,178124,1,0,0:0:0:0:
160,96,178199,1,0,0:0:0:0:
352,96,178274,1,8,0:0:0:0:
352,96,178424,1,8,0:0:0:0:
160,96,178499,1,0,0:0:0:0:
352,96,178574,1,8,0:0:0:0:
352,96,178724,1,8,0:0:0:0:
352,96,178874,1,8,0:0:0:0:
352,96,178949,1,8,0:0:0:0:
160,96,179024,1,0,0:0:0:0:
160,96,179174,1,0,0:0:0:0:
160,96,179249,1,0,0:0:0:0:
160,96,179324,1,0,0:0:0:0:
160,96,179399,1,0,0:0:0:0:
352,96,179474,1,8,0:0:0:0:
352,96,179624,1,8,0:0:0:0:
160,96,179699,1,0,0:0:0:0:
352,96,179774,1,8,0:0:0:0:
160,96,179924,1,0,0:0:0:0:
352,96,180074,1,8,0:0:0:0:
352,96,180224,1,8,0:0:0:0:
352,96,180299,1,8,0:0:0:0:
160,96,180374,1,0,0:0:0:0:
352,96,180449,1,8,0:0:0:0:
160,96,180524,1,0,0:0:0:0:
352,96,180674,1,8,0:0:0:0:
352,96,180824,1,8,0:0:0:0:
160,96,180974,1,0,0:0:0:0:
160,96,181049,1,0,0:0:0:0:
160,96,181124,1,0,0:0:0:0:
160,96,181199,1,0,0:0:0:0:
352,96,181274,1,8,0:0:0:0:
352,96,181424,1,8,0:0:0:0:
160,96,181574,1,0,0:0:0:0:
352,96,181649,1,8,0:0:0:0:
352,96,181724,1,8,0:0:0:0:
160,96,181799,1,0,0:0:0:0:
352,96,181874,1,8,0:0:0:0:
160,96,182024,1,0,0:0:0:0:
352,96,182099,1,8,0:0:0:0:
160,96,182174,1,0,0:0:0:0:
352,96,182249,1,8,0:0:0:0:
352,96,182324,1,8,0:0:0:0:
160,96,182399,1,0,0:0:0:0:
352,96,182474,1,8,0:0:0:0:
160,96,182549,1,0,0:0:0:0:
352,96,182624,1,8,0:0:0:0:
160,288,182774,1,4,0:0:0:0:
160,96,182924,1,0,0:0:0:0:
352,288,183074,1,12,0:0:0:0:
160,96,183224,1,0,0:0:0:0:
352,96,183374,1,8,0:0:0:0:
160,96,183449,1,0,0:0:0:0:
352,96,183524,1,8,0:0:0:0:
160,96,183674,1,0,0:0:0:0:
352,96,183824,1,8,0:0:0:0:
352,96,183861,1,8,0:0:0:0:
160,96,183974,1,0,0:0:0:0:
160,96,184049,1,0,0:0:0:0:
160,96,184124,1,0,0:0:0:0:
160,96,184199,1,0,0:0:0:0:
352,96,184274,1,8,0:0:0:0:
160,96,184424,1,0,0:0:0:0:
352,96,184499,1,8,0:0:0:0:
160,96,184574,1,0,0:0:0:0:
352,96,184724,1,8,0:0:0:0:
352,96,184799,1,8,0:0:0:0:
160,96,184874,1,0,0:0:0:0:
352,96,185024,1,8,0:0:0:0:
160,96,185099,1,0,0:0:0:0:
352,96,185174,1,8,0:0:0:0:
352,96,185249,1,8,0:0:0:0:
160,96,185324,1,0,0:0:0:0:
352,96,185474,1,8,0:0:0:0:
160,96,185549,1,0,0:0:0:0:
352,96,185624,1,8,0:0:0:0:
160,96,185699,1,0,0:0:0:0:
352,96,185774,1,8,0:0:0:0:
160,96,185924,1,0,0:0:0:0:
352,96,186074,1,8,0:0:0:0:
160,96,186149,1,0,0:0:0:0:
352,96,186224,1,8,0:0:0:0:
352,96,186299,1,8,0:0:0:0:
160,96,186374,1,0,0:0:0:0:
160,96,186524,1,0,0:0:0:0:
352,96,186674,1,8,0:0:0:0:
352,96,186724,1,8,0:0:0:0:
352,96,186774,1,8,0:0:0:0:
160,96,186824,1,0,0:0:0:0:
352,96,186974,1,8,0:0:0:0:
352,96,187024,1,8,0:0:0:0:
352,96,187074,1,8,0:0:0:0:
160,96,187124,1,0,0:0:0:0:
352,96,187274,1,8,0:0:0:0:
352,96,187324,1,8,0:0:0:0:
352,96,187374,1,8,0:0:0:0:
352,96,187424,1,8,0:0:0:0:
352,288,187574,1,12,0:0:0:0:
160,96,187874,1,0,0:0:0:0:
352,96,187949,1,8,0:0:0:0:
160,96,188024,1,0,0:0:0:0:
352,96,188099,1,8,0:0:0:0:
352,96,188174,1,8,0:0:0:0:
160,96,188249,1,0,0:0:0:0:
352,96,188324,1,8,0:0:0:0:
352,96,188474,1,8,0:0:0:0:
352,96,188549,1,8,0:0:0:0:
160,96,188624,1,0,0:0:0:0:
352,96,188699,1,8,0:0:0:0:
352,96,188774,1,8,0:0:0:0:
352,96,188849,1,8,0:0:0:0:
160,96,188924,1,0,0:0:0:0:
352,96,189074,1,8,0:0:0:0:
160,96,189224,1,0,0:0:0:0:
352,96,189299,1,8,0:0:0:0:
352,96,189374,1,8,0:0:0:0:
160,96,189524,1,0,0:0:0:0:
160,96,189599,1,0,0:0:0:0:
352,96,189674,1,8,0:0:0:0:
352,96,189824,1,8,0:0:0:0:
160,96,189974,1,0,0:0:0:0:
352,96,190049,1,8,0:0:0:0:
160,96,190124,1,0,0:0:0:0:
352,96,190199,1,8,0:0:0:0:
352,96,190274,1,8,0:0:0:0:
160,96,190424,1,0,0:0:0:0:
160,96,190499,1,0,0:0:0:0:
160,96,190574,1,0,0:0:0:0:
352,96,190649,1,8,0:0:0:0:
352,96,190724,1,8,0:0:0:0:
352,96,190874,1,8,0:0:0:0:
352,96,191024,1,8,0:0:0:0:
160,96,191174,1,0,0:0:0:0:
160,96,191249,1,0,0:0:0:0:
160,96,191324,1,0,0:0:0:0:
160,96,191399,1,0,0:0:0:0:
352,96,191474,1,8,0:0:0:0:
352,96,191549,1,8,0:0:0:0:
160,96,191624,1,0,0:0:0:0:
352,96,191774,1,8,0:0:0:0:
160,96,191849,1,0,0:0:0:0:
160,96,191924,1,0,0:0:0:0:
352,96,192074,1,8,0:0:0:0:
160,96,192124,1,0,0:0:0:0:
160,96,192174,1,0,0:0:0:0:
352,96,192224,1,8,0:0:0:0:
160,96,192374,1,0,0:0:0:0:
160,96,192524,1,0,0:0:0:0:
352,96,192674,1,8,0:0:0:0:
160,96,192749,1,0,0:0:0:0:
160,96,192824,1,0,0:0:0:0:
352,96,192899,1,8,0:0:0:0:
352,96,192974,1,8,0:0:0:0:
160,96,193124,1,0,0:0:0:0:
352,96,193274,1,8,0:0:0:0:
352,96,193349,1,8,0:0:0:0:
160,96,193424,1,0,0:0:0:0:
352,96,193574,1,8,0:0:0:0:
352,96,193649,1,8,0:0:0:0:
160,96,193724,1,0,0:0:0:0:
160,96,193799,1,0,0:0:0:0:
352,96,193874,1,8,0:0:0:0:
352,96,193949,1,8,0:0:0:0:
160,96,194024,1,0,0:0:0:0:
352,96,194174,1,8,0:0:0:0:
352,96,194249,1,8,0:0:0:0:
352,96,194324,1,8,0:0:0:0:
160,96,194399,1,0,0:0:0:0:
352,96,194474,1,8,0:0:0:0:
352,96,194549,1,8,0:0:0:0:
160,96,194624,1,0,0:0:0:0:
352,96,194774,1,8,0:0:0:0:
160,96,194849,1,0,0:0:0:0:
352,96,194924,1,8,0:0:0:0:
352,96,194999,1,8,0:0:0:0:
352,96,195074,1,8,0:0:0:0:
352,96,195149,1,8,0:0:0:0:
160,96,195224,1,0,0:0:0:0:
352,96,195374,1,8,0:0:0:0:
352,96,195449,1,8,0:0:0:0:
160,96,195524,1,0,0:0:0:0:
160,96,195599,1,0,0:0:0:0:
352,96,195674,1,8,0:0:0:0:
352,96,195824,1,8,0:0:0:0:
352,96,195899,1,8,0:0:0:0:
352,96,195974,1,8,0:0:0:0:
352,96,196124,1,8,0:0:0:0:
160,96,196274,1,0,0:0:0:0:
352,96,196324,1,8,0:0:0:0:
352,96,196374,1,8,0:0:0:0:
160,96,196424,1,0,0:0:0:0:
352,96,196574,1,8,0:0:0:0:
352,96,196624,1,8,0:0:0:0:
352,96,196674,1,8,0:0:0:0:
160,96,196724,1,0,0:0:0:0:
160,96,196874,1,0,0:0:0:0:
352,96,196924,1,8,0:0:0:0:
352,96,196974,1,8,0:0:0:0:
160,96,197024,1,0,0:0:0:0:
160,288,197174,1,4,0:0:0:0:
352,288,197474,1,12,0:0:0:0:
160,96,197624,1,0,0:0:0:0:
352,96,197774,1,8,0:0:0:0:
352,96,197849,1,8,0:0:0:0:
160,96,197924,1,0,0:0:0:0:
352,96,198074,1,8,0:0:0:0:
352,96,198224,1,8,0:0:0:0:
160,96,198374,1,0,0:0:0:0:
160,96,198524,1,0,0:0:0:0:
352,96,198674,1,8,0:0:0:0:
160,96,198749,1,0,0:0:0:0:
160,96,198824,1,0,0:0:0:0:
160,96,198899,1,0,0:0:0:0:
352,96,198974,1,8,0:0:0:0:
160,96,199124,1,0,0:0:0:0:
352,96,199274,1,8,0:0:0:0:
352,96,199349,1,8,0:0:0:0:
352,96,199424,1,8,0:0:0:0:
352,96,199499,1,8,0:0:0:0:
352,96,199574,1,8,0:0:0:0:
160,96,199724,1,0,0:0:0:0:
352,96,199874,1,8,0:0:0:0:
160,96,200024,1,0,0:0:0:0:
352,96,200174,1,8,0:0:0:0:
352,96,200249,1,8,0:0:0:0:
160,96,200324,1,0,0:0:0:0:
352,96,200474,1,8,0:0:0:0:
160,96,200624,1,0,0:0:0:0:
160,96,200924,1,0,0:0:0:0:
160,96,201074,1,0,0:0:0:0:
352,96,201149,1,8,0:0:0:0:
160,96,201224,1,0,0:0:0:0:
160,96,201299,1,0,0:0:0:0:
352,96,201374,1,8,0:0:0:0:
352,96,201524,1,8,0:0:0:0:
352,96,201674,1,8,0:0:0:0:
160,96,201749,1,0,0:0:0:0:
160,96,201824,1,0,0:0:0:0:
352,96,201899,1,8,0:0:0:0:
352,96,201974,1,8,0:0:0:0:
160,96,202124,1,0,0:0:0:0:
352,96,202199,1,8,0:0:0:0:
352,96,202274,1,8,0:0:0:0:
160,96,202349,1,0,0:0:0:0:
352,96,202424,1,8,0:0:0:0:
352,96,202574,1,8,0:0:0:0:
352,96,202649,1,8,0:0:0:0:
160,96,202724,1,0,0:0:0:0:
352,96,202799,1,8,0:0:0:0:
160,96,202874,1,0,0:0:0:0:
352,96,203024,1,8,0:0:0:0:
352,96,203099,1,8,0:0:0:0:
160,96,203174,1,0,0:0:0:0:
160,96,203324,1,0,0:0:0:0:
352,96,203399,1,8,0:0:0:0:
352,96,203474,1,8,0:0:0:0:
160,96,203549,1,0,0:0:0:0:
352,96,203624,1,8,0:0:0:0:
352,96,203699,1,8,0:0:0:0:
160,96,203774,1,0,0:0:0:0:
160,96,203924,1,0,0:0:0:0:
160,96,204074,1,0,0:0:0:0:
352,96,204149,1,8,0:0:0:0:
352,96,204224,1,8,0:0:0:0:
352,96,204299,1,8,0:0:0:0:
352,96,204374,1,8,0:0:0:0:
160,96,204449,1,0,0:0:0:0:
352,96,204524,1,8,0:0:0:0:
352,96,204674,1,8,0:0:0:0:
160,96,204749,1,0,0:0:0:0:
352,96,204824,1,8,0:0:0:0:
352,96,204974,1,8,0:0:0:0:
160,96,205049,1,0,0:0:0:0:
352,96,205124,1,8,0:0:0:0:
352,96,205274,1,8,0:0:0:0:
160,96,205349,1,0,0:0:0:0:
352,96,205424,1,8,0:0:0:0:
352,96,205499,1,8,0:0:0:0:
160,96,205574,1,0,0:0:0:0:
352,96,205649,1,8,0:0:0:0:
160,96,205724,1,0,0:0:0:0:
160,96,205874,1,0,0:0:0:0:
352,96,205949,1,8,0:0:0:0:
160,96,206024,1,0,0:0:0:0:
160,96,206174,1,0,0:0:0:0:
352,96,206249,1,8,0:0:0:0:
160,96,206324,1,0,0:0:0:0:
352,96,206399,1,8,0:0:0:0:
160,96,206474,1,0,0:0:0:0:
352,96,206549,1,8,0:0:0:0:
352,96,206624,1,8,0:0:0:0:
160,288,206774,1,4,0:0:0:0:
160,96,206924,1,0,0:0:0:0:
352,288,207074,1,12,0:0:0:0:
160,96,207224,1,0,0:0:0:0:
352,96,207299,1,8,0:0:0:0:
352,96,207374,1,8,0:0:0:0:
160,96,207524,1,0,0:0:0:0:
352,96,207674,1,8,0:0:0:0:
352,96,207824,1,8,0:0:0:0:
352,96,207899,1,8,0:0:0:0:
160,96,207974,1,0,0:0:0:0:
160,96,208124,1,0,0:0:0:0:
352,96,208274,1,8,0:0:0:0:
352,96,208424,1,8,0:0:0:0:
160,96,208499,1,0,0:0:0:0:
352,96,208574,1,8,0:0:0:0:
352,96,208724,1,8,0:0:0:0:
352,96,208874,1,8,0:0:0:0:
352,96,208949,1,8,0:0:0:0:
160,96,209024,1,0,0:0:0:0:
352,96,209174,1,8,0:0:0:0:
160,96,209324,1,0,0:0:0:0:
160,96,209399,1,0,0:0:0:0:
352,96,209474,1,8,0:0:0:0:
352,96,209624,1,8,0:0:0:0:
160,96,209774,1,0,0:0:0:0:
352,96,209924,1,8,0:0:0:0:
160,96,209999,1,0,0:0:0:0:
352,96,210074,1,8,0:0:0:0:
352,96,210224,1,8,0:0:0:0:
352,96,210299,1,8,0:0:0:0:
352,96,210374,1,8,0:0:0:0:
160,96,210524,1,0,0:0:0:0:
352,96,210674,1,8,0:0:0:0:
352,96,210711,1,8,0:0:0:0:
160,96,210824,1,0,0:0:0:0:
352,96,210974,1,8,0:0:0:0:
352,96,211011,1,8,0:0:0:0:
160,96,211124,1,0,0:0:0:0:
352,96,211274,1,8,0:0:0:0:
352,96,211311,1,8,0:0:0:0:
352,96,211574,1,8,0:0:0:0:
160,96,211649,1,0,0:0:0:0:
352,96,211724,1,8,0:0:0:0:
160,96,211799,1,0,0:0:0:0:
352,96,211874,1,8,0:0:0:0:
160,96,211949,1,0,0:0:0:0:
352,96,212024,1,8,0:0:0:0:
352,96,212174,1,8,0:0:0:0:
352,96,212249,1,8,0:0:0:0:
352,96,212324,1,8,0:0:0:0:
160,96,212399,1,0,0:0:0:0:
352,96,212474,1,8,0:0:0:0:
160,96,212549,1,0,0:0:0:0:
352,96,212624,1,8,0:0:0:0:
352,96,212774,1,8,0:0:0:0:
160,96,212849,1,0,0:0:0:0:
352,96,212924,1,8,0:0:0:0:
160,96,212999,1,0,0:0:0:0:
352,96,213074,1,8,0:0:0:0:
160,96,213149,1,0,0:0:0:0:
352,96,213224,1,8,0:0:0:0:
160,96,213299,1,0,0:0:0:0:
352,96,213374,1,8,0:0:0:0:
352,96,213449,1,8,0:0:0:0:
352,96,213524,1,8,0:0:0:0:
160,96,213599,1,0,0:0:0:0:
352,96,213674,1,8,0:0:0:0:
160,96,213749,1,0,0:0:0:0:
352,96,213824,1,8,0:0:0:0:
352,96,213974,1,8,0:0:0:0:
160,96,214049,1,0,0:0:0:0:
352,96,214124,1,8,0:0:0:0:
352,96,214199,1,8,0:0:0:0:
352,96,214274,1,8,0:0:0:0:
160,96,214349,1,0,0:0:0:0:
352,96,214424,1,8,0:0:0:0:
160,96,214499,1,0,0:0:0:0:
352,96,214574,1,8,0:0:0:0:
352,96,214649,1,8,0:0:0:0:
352,96,214724,1,8,0:0:0:0:
160,96,214799,1,0,0:0:0:0:
352,96,214874,1,8,0:0:0:0:
352,96,214949,1,8,0:0:0:0:
352,96,215024,1,8,0:0:0:0:
160,96,215099,1,0,0:0:0:0:
352,96,215174,1,8,0:0:0:0:
160,96,215249,1,0,0:0:0:0:
352,96,215324,1,8,0:0:0:0:
352,96,215399,1,8,0:0:0:0:
160,96,215474,1,0,0:0:0:0:
352,96,215549,1,8,0:0:0:0:
352,96,215624,1,8,0:0:0:0:
160,96,215699,1,0,0:0:0:0:
352,96,215774,1,8,0:0:0:0:
352,96,215849,1,8,0:0:0:0:
160,96,215924,1,0,0:0:0:0:
160,96,215999,1,0,0:0:0:0:
352,96,216074,1,8,0:0:0:0:
352,96,216149,1,8,0:0:0:0:
160,96,216224,1,0,0:0:0:0:
160,288,216374,1,4,0:0:0:0:
160,96,216524,1,0,0:0:0:0:
352,96,216674,1,8,0:0:0:0:
160,96,216749,1,0,0:0:0:0:
352,96,216824,1,8,0:0:0:0:
160,96,216899,1,0,0:0:0:0:
160,96,216974,1,0,0:0:0:0:
352,96,217124,1,8,0:0:0:0:
352,96,217199,1,8,0:0:0:0:
352,96,217274,1,8,0:0:0:0:
352,96,217349,1,8,0:0:0:0:
352,96,217424,1,8,0:0:0:0:
352,96,217499,1,8,0:0:0:0:
160,96,217574,1,0,0:0:0:0:
160,96,217724,1,0,0:0:0:0:
352,96,217874,1,8,0:0:0:0:
160,96,217949,1,0,0:0:0:0:
352,96,218024,1,8,0:0:0:0:
352,96,218099,1,8,0:0:0:0:
160,96,218174,1,0,0:0:0:0:
352,96,218324,1,8,0:0:0:0:
352,96,218399,1,8,0:0:0:0:
352,96,218474,1,8,0:0:0:0:
352,96,218549,1,8,0:0:0:0:
160,96,218624,1,0,0:0:0:0:
352,96,218774,1,8,0:0:0:0:
160,96,218924,1,0,0:0:0:0:
160,96,218999,1,0,0:0:0:0:
352,96,219074,1,8,0:0:0:0:
160,96,219224,1,0,0:0:0:0:
160,96,219299,1,0,0:0:0:0:
352,96,219374,1,8,0:0:0:0:
160,96,219524,1,0,0:0:0:0:
352,96,219674,1,8,0:0:0:0:
160,96,219749,1,0,0:0:0:0:
352,96,219824,1,8,0:0:0:0:
160,96,219899,1,0,0:0:0:0:
352,96,219974,1,8,0:0:0:0:
352,96,220049,1,8,0:0:0:0:
160,96,220124,1,0,0:0:0:0:
352,96,220274,1,8,0:0:0:0:
160,96,220349,1,0,0:0:0:0:
352,96,220424,1,8,0:0:0:0:
160,96,220499,1,0,0:0:0:0:
352,96,220574,1,8,0:0:0:0:
160,96,220724,1,0,0:0:0:0:
352,96,220874,1,8,0:0:0:0:
352,96,220949,1,8,0:0:0:0:
352,96,221024,1,8,0:0:0:0:
352,96,221099,1,8,0:0:0:0:
160,96,221174,1,0,0:0:0:0:
160,96,221324,1,0,0:0:0:0:
352,96,221474,1,8,0:0:0:0:
160,96,221549,1,0,0:0:0:0:
352,96,221624,1,8,0:0:0:0:
160,96,221774,1,0,0:0:0:0:
160,96,221849,1,0,0:0:0:0:
352,96,221924,1,8,0:0:0:0:
352,96,222074,1,8,0:0:0:0:
160,96,222149,1,0,0:0:0:0:
352,96,222224,1,8,0:0:0:0:
160,96,222299,1,0,0:0:0:0:
352,96,222374,1,8,0:0:0:0:
352,96,222449,1,8,0:0:0:0:
160,96,222524,1,0,0:0:0:0:
352,96,222674,1,8,0:0:0:0:
160,96,222824,1,0,0:0:0:0:
160,96,222899,1,0,0:0:0:0:
352,96,222974,1,8,0:0:0:0:
352,96,223049,1,8,0:0:0:0:
160,96,223124,1,0,0:0:0:0:
352,96,223274,1,8,0:0:0:0:
352,96,223349,1,8,0:0:0:0:
160,96,223424,1,0,0:0:0:0:
160,96,223499,1,0,0:0:0:0:
352,96,223574,1,8,0:0:0:0:
160,96,223724,1,0,0:0:0:0:
160,96,223799,1,0,0:0:0:0:
352,96,223874,1,8,0:0:0:0:
160,96,223949,1,0,0:0:0:0:
160,96,224024,1,0,0:0:0:0:
352,96,224174,1,8,0:0:0:0:
352,96,224249,1,8,0:0:0:0:
160,96,224324,1,0,0:0:0:0:
160,96,224399,1,0,0:0:0:0:
352,96,224474,1,8,0:0:0:0:
160,96,224624,1,0,0:0:0:0:
352,96,224774,1,8,0:0:0:0:
352,96,224811,1,8,0:0:0:0:
352,96,224924,1,8,0:0:0:0:
160,96,225074,1,0,0:0:0:0:
352,96,225149,1,8,0:0:0:0:
352,96,225224,1,8,0:0:0:0:
352,96,225299,1,8,0:0:0:0:
160,96,225374,1,0,0:0:0:0:
352,96,225524,1,8,0:0:0:0:
352,96,225599,1,8,0:0:0:0:
160,96,225674,1,0,0:0:0:0:
352,96,225749,1,8,0:0:0:0:
352,96,225824,1,8,0:0:0:0:
352,288,225974,1,12,0:0:0:0:
160,96,226124,1,0,0:0:0:0:
352,96,226274,1,8,0:0:0:0:
160,96,226349,1,0,0:0:0:0:
352,96,226424,1,8,0:0:0:0:
160,96,226499,1,0,0:0:0:0:
352,96,226574,1,8,0:0:0:0:
160,96,226649,1,0,0:0:0:0:
160,96,226724,1,0,0:0:0:0:
352,96,226874,1,8,0:0:0:0:
160,96,227024,1,0,0:0:0:0:
352,96,227174,1,8,0:0:0:0:
160,96,227249,1,0,0:0:0:0:
160,96,227324,1,0,0:0:0:0:
160,96,227399,1,0,0:0:0:0:
352,96,227474,1,8,0:0:0:0:
352,96,227624,1,8,0:0:0:0:
160,96,227699,1,0,0:0:0:0:
160,96,227774,1,0,0:0:0:0:
160,96,227849,1,0,0:0:0:0:
352,96,227924,1,8,0:0:0:0:
352,96,228074,1,8,0:0:0:0:
160,96,228224,1,0,0:0:0:0:
352,96,228374,1,8,0:0:0:0:
352,96,228449,1,8,0:0:0:0:
352,96,228524,1,8,0:0:0:0:
352,96,228599,1,8,0:0:0:0:
160,96,228674,1,0,0:0:0:0:
352,96,228824,1,8,0:0:0:0:
352,96,228899,1,8,0:0:0:0:
352,96,228974,1,8,0:0:0:0:
160,96,229049,1,0,0:0:0:0:
160,96,229124,1,0,0:0:0:0:
352,96,229274,1,8,0:0:0:0:
160,96,229424,1,0,0:0:0:0:
352,96,229574,1,8,0:0:0:0:
352,96,229649,1,8,0:0:0:0:
160,96,229724,1,0,0:0:0:0:
352,96,229874,1,8,0:0:0:0:
160,96,229949,1,0,0:0:0:0:
352,96,230024,1,8,0:0:0:0:
352,96,230099,1,8,0:0:0:0:
160,96,230174,1,0,0:0:0:0:
352,96,230324,1,8,0:0:0:0:
160,96,230399,1,0,0:0:0:0:
352,96,230474,1,8,0:0:0:0:
352,96,230549,1,8,0:0:0:0:
352,96,230624,1,8,0:0:0:0:
352,96,230699,1,8,0:0:0:0:
160,96,230774,1,0,0:0:0:0:
160,96,230924,1,0,0:0:0:0:
352,96,231074,1,8,0:0:0:0:
160,96,231149,1,0,0:0:0:0:
352,96,231224,1,8,0:0:0:0:
352,96,231299,1,8,0:0:0:0:
160,96,231374,1,0,0:0:0:0:
160,96,231449,1,0,0:0:0:0:
352,96,231524,1,8,0:0:0:0:
352,96,231674,1,8,0:0:0:0:
160,96,231749,1,0,0:0:0:0:
352,96,231824,1,8,0:0:0:0:
160,96,231899,1,0,0:0:0:0:
352,96,231974,1,8,0:0:0:0:
352,96,232124,1,8,0:0:0:0:
160,96,232199,1,0,0:0:0:0:
352,96,232274,1,8,0:0:0:0:
160,96,232349,1,0,0:0:0:0:
352,96,232424,1,8,0:0:0:0:
352,96,232499,1,8,0:0:0:0:
160,96,232574,1,0,0:0:0:0:
352,96,232724,1,8,0:0:0:0:
160,96,232799,1,0,0:0:0:0:
352,96,232874,1,8,0:0:0:0:
160,96,232949,1,0,0:0:0:0:
352,96,233024,1,8,0:0:0:0:
352,96,233174,1,8,0:0:0:0:
352,96,233249,1,8,0:0:0:0:
352,96,233324,1,8,0:0:0:0:
352,96,233399,1,8,0:0:0:0:
352,96,233474,1,8,0:0:0:0:
352,96,233624,1,8,0:0:0:0:
352,96,233699,1,8,0:0:0:0:
352,96,233774,1,8,0:0:0:0:
352,96,233849,1,8,0:0:0:0:
352,96,233924,1,8,0:0:0:0:
352,96,234074,1,8,0:0:0:0:
352,96,234149,1,8,0:0:0:0:
352,96,234224,1,8,0:0:0:0:
352,96,234299,1,8,0:0:0:0:
352,96,234374,1,8,0:0:0:0:
352,96,234524,1,8,0:0:0:0:
160,96,234599,1,0,0:0:0:0:
352,96,234674,1,8,0:0:0:0:
352,96,234749,1,8,0:0:0:0:
160,96,234824,1,0,0:0:0:0:
160,96,234899,1,0,0:0:0:0:
352,96,234974,1,8,0:0:0:0:
160,96,235124,1,0,0:0:0:0:
160,96,235199,1,0,0:0:0:0:
352,96,235274,1,8,0:0:0:0:
352,96,235349,1,8,0:0:0:0:
160,96,235424,1,0,0:0:0:0:
160,288,235574,1,4,0:0:0:0:
160,96,235724,1,0,0:0:0:0:
160,96,235799,1,0,0:0:0:0:
352,96,235874,1,8,0:0:0:0:
160,96,236024,1,0,0:0:0:0:
352,96,236174,1,8,0:0:0:0:
352,96,236249,1,8,0:0:0:0:
160,96,236324,1,0,0:0:0:0:
160,96,236399,1,0,0:0:0:0:
352,96,236474,1,8,0:0:0:0:
160,96,236549,1,0,0:0:0:0:
352,96,236624,1,8,0:0:0:0:
160,96,236774,1,0,0:0:0:0:
160,96,236849,1,0,0:0:0:0:
160,96,236924,1,0,0:0:0:0:
160,96,236999,1,0,0:0:0:0:
352,96,237074,1,8,0:0:0:0:
160,96,237224,1,0,0:0:0:0:
160,96,237299,1,0,0:0:0:0:
352,96,237374,1,8,0:0:0:0:
160,96,237524,1,0,0:0:0:0:
160,96,237599,1,0,0:0:0:0:
352,96,237674,1,8,0:0:0:0:
160,96,237749,1,0,0:0:0:0:
352,96,237824,1,8,0:0:0:0:
160,96,237974,1,0,0:0:0:0:
160,96,238124,1,0,0:0:0:0:
160,96,238199,1,0,0:0:0:0:
352,96,238274,1,8,0:0:0:0:
352,96,238349,1,8,0:0:0:0:
160,96,238424,1,0,0:0:0:0:
352,96,238574,1,8,0:0:0:0:
160,96,238724,1,0,0:0:0:0:
160,96,238799,1,0,0:0:0:0:
352,96,238874,1,8,0:0:0:0:
160,96,238949,1,0,0:0:0:0:
352,96,239024,1,8,0:0:0:0:
352,96,239099,1,8,0:0:0:0:
160,96,239174,1,0,0:0:0:0:
160,96,239324,1,0,0:0:0:0:
352,96,239474,1,8,0:0:0:0:
352,96,239549,1,8,0:0:0:0:
160,96,239624,1,0,0:0:0:0:
160,96,239699,1,0,0:0:0:0:
352,96,239774,1,8,0:0:0:0:
160,96,239849,1,0,0:0:0:0:
160,96,239924,1,0,0:0:0:0:
352,96,240074,1,8,0:0:0:0:
160,96,240149,1,0,0:0:0:0:
352,96,240224,1,8,0:0:0:0:
160,96,240299,1,0,0:0:0:0:
352,96,240374,1,8,0:0:0:0:
160,96,240524,1,0,0:0:0:0:
352,96,240674,1,8,0:0:0:0:
352,96,240749,1,8,0:0:0:0:
160,96,240824,1,0,0:0:0:0:
160,96,240899,1,0,0:0:0:0:
352,96,240974,1,8,0:0:0:0:
160,96,241124,1,0,0:0:0:0:
352,96,241274,1,8,0:0:0:0:
160,96,241349,1,0,0:0:0:0:
352,96,241424,1,8,0:0:0:0:
352,96,241499,1,8,0:0:0:0:
160,96,241574,1,0,0:0:0:0:
160,96,241724,1,0,0:0:0:0:
352,96,241874,1,8,0:0:0:0:
160,96,241949,1,0,0:0:0:0:
160,96,242024,1,0,0:0:0:0:
160,96,242099,1,0,0:0:0:0:
352,96,242174,1,8,0:0:0:0:
160,96,242324,1,0,0:0:0:0:
160,96,242399,1,0,0:0:0:0:
352,96,242474,1,8,0:0:0:0:
352,96,242549,1,8,0:0:0:0:
160,96,242624,1,0,0:0:0:0:
352,96,242774,1,8,0:0:0:0:
352,96,242924,1,8,0:0:0:0:
160,96,242999,1,0,0:0:0:0:
352,96,243074,1,8,0:0:0:0:
352,96,243224,1,8,0:0:0:0:
160,96,243299,1,0,0:0:0:0:
352,96,243374,1,8,0:0:0:0:
352,96,243524,1,8,0:0:0:0:
160,96,243599,1,0,0:0:0:0:
352,96,243674,1,8,0:0:0:0:
160,96,243749,1,0,0:0:0:0:
352,96,243824,1,8,0:0:0:0:
160,96,243899,1,0,0:0:0:0:
352,96,243974,1,8,0:0:0:0:
352,96,244124,1,8,0:0:0:0:
352,96,244199,1,8,0:0:0:0:
160,96,244274,1,0,0:0:0:0:
352,96,244349,1,8,0:0:0:0:
160,96,244424,1,0,0:0:0:0:
352,96,244574,1,8,0:0:0:0:
352,96,244649,1,8,0:0:0:0:
160,96,244724,1,0,0:0:0:0:
160,96,244799,1,0,0:0:0:0:
352,96,244874,1,8,0:0:0:0:
160,96,244949,1,0,0:0:0:0:
352,96,245024,1,8,0:0:0:0:
160,96,245099,1,0,0:0:0:0:
352,96,245174,1,8,0:0:0:0:
160,96,245324,1,0,0:0:0:0:
352,96,245474,1,8,0:0:0:0:
160,96,245549,1,0,0:0:0:0:
160,96,245624,1,0,0:0:0:0:
160,96,245699,1,0,0:0:0:0:
352,96,245774,1,8,0:0:0:0:
160,96,245924,1,0,0:0:0:0:
352,96,246074,1,8,0:0:0:0:
160,96,246149,1,0,0:0:0:0:
352,96,246224,1,8,0:0:0:0:
352,96,246299,1,8,0:0:0:0:
160,96,246374,1,0,0:0:0:0:
160,96,246524,1,0,0:0:0:0:
352,96,246674,1,8,0:0:0:0:
352,96,246749,1,8,0:0:0:0:
160,96,246824,1,0,0:0:0:0:
352,96,246974,1,8,0:0:0:0:
160,96,247049,1,0,0:0:0:0:
160,96,247124,1,0,0:0:0:0:
160,96,247199,1,0,0:0:0:0:
352,96,247274,1,8,0:0:0:0:
352,96,247424,1,8,0:0:0:0:
160,96,247574,1,0,0:0:0:0:
160,96,247649,1,0,0:0:0:0:
160,96,247724,1,0,0:0:0:0:
160,96,247799,1,0,0:0:0:0:
352,96,247874,1,8,0:0:0:0:
160,96,248024,1,0,0:0:0:0:
352,96,248174,1,8,0:0:0:0:
160,96,248324,1,0,0:0:0:0:
160,96,248399,1,0,0:0:0:0:
352,96,248474,1,8,0:0:0:0:
160,96,248549,1,0,0:0:0:0:
352,96,248624,1,8,0:0:0:0:
352,96,248699,1,8,0:0:0:0:
160,96,248774,1,0,0:0:0:0:
160,96,248924,1,0,0:0:0:0:
352,96,249074,1,8,0:0:0:0:
352,96,249224,1,8,0:0:0:0:
160,96,249299,1,0,0:0:0:0:
160,96,249374,1,0,0:0:0:0:
160,96,249449,1,0,0:0:0:0:
352,96,249524,1,8,0:0:0:0:
160,96,249674,1,0,0:0:0:0:
160,96,249749,1,0,0:0:0:0:
352,96,249824,1,8,0:0:0:0:
160,96,249974,1,0,0:0:0:0:
160,96,250049,1,0,0:0:0:0:
160,96,250124,1,0,0:0:0:0:
352,96,250274,1,8,0:0:0:0:
352,96,250349,1,8,0:0:0:0:
160,96,250424,1,0,0:0:0:0:
160,96,250499,1,0,0:0:0:0:
352,96,250574,1,8,0:0:0:0:
160,96,250724,1,0,0:0:0:0:
352,96,250874,1,8,0:0:0:0:
160,96,250949,1,0,0:0:0:0:
352,96,251024,1,8,0:0:0:0:
352,96,251099,1,8,0:0:0:0:
352,96,251174,1,8,0:0:0:0:
352,96,251249,1,8,0:0:0:0:
160,96,251324,1,0,0:0:0:0:
352,96,251474,1,8,0:0:0:0:
160,96,251624,1,0,0:0:0:0:
160,96,251699,1,0,0:0:0:0:
352,96,251774,1,8,0:0:0:0:
160,96,251924,1,0,0:0:0:0:
160,96,251999,1,0,0:0:0:0:
352,96,252074,1,8,0:0:0:0:
352,96,252149,1,8,0:0:0:0:
160,96,252224,1,0,0:0:0:0:
160,96,252299,1,0,0:0:0:0:
352,96,252374,1,8,0:0:0:0:
352,96,252524,1,8,0:0:0:0:
352,96,252599,1,8,0:0:0:0:
160,96,252674,1,0,0:0:0:0:
352,96,252749,1,8,0:0:0:0:
160,96,252824,1,0,0:0:0:0:
352,96,252974,1,8,0:0:0:0:
352,96,253049,1,8,0:0:0:0:
160,96,253124,1,0,0:0:0:0:
352,96,253199,1,8,0:0:0:0:
352,96,253274,1,8,0:0:0:0:
352,96,253424,1,8,0:0:0:0:
160,96,253499,1,0,0:0:0:0:
352,96,253574,1,8,0:0:0:0:
160,96,253724,1,0,0:0:0:0:
352,96,253799,1,8,0:0:0:0:
352,96,253874,1,8,0:0:0:0:
160,96,254024,1,0,0:0:0:0:
352,96,254099,1,8,0:0:0:0:
352,96,254174,1,8,0:0:0:0:
160,96,254249,1,0,0:0:0:0:
352,96,254324,1,8,0:0:0:0:
352,96,254474,1,8,0:0:0:0:
352,96,254524,5,8,0:0:0:0:
352,96,254574,1,8,0:0:0:0:
160,96,254624,1,0,0:0:0:0:
160,288,254774,1,4,0:0:0:0:
160,96,254924,1,0,0:0:0:0:
160,96,254999,1,0,0:0:0:0:
352,96,255074,1,8,0:0:0:0:
352,96,255149,1,8,0:0:0:0:
160,96,255224,1,0,0:0:0:0:
352,96,255374,1,8,0:0:0:0:
352,96,255449,1,8,0:0:0:0:
160,96,255524,1,0,0:0:0:0:
160,96,255599,1,0,0:0:0:0:
352,96,255674,1,8,0:0:0:0:
160,96,255749,1,0,0:0:0:0:
352,96,255824,1,8,0:0:0:0:
160,96,255974,1,0,0:0:0:0:
160,96,256049,1,0,0:0:0:0:
160,96,256124,1,0,0:0:0:0:
160,96,256199,1,0,0:0:0:0:
352,96,256274,1,8,0:0:0:0:
160,96,256424,1,0,0:0:0:0:
160,96,256499,1,0,0:0:0:0:
352,96,256574,1,8,0:0:0:0:
160,96,256724,1,0,0:0:0:0:
160,96,256799,1,0,0:0:0:0:
352,96,256874,1,8,0:0:0:0:
160,96,256949,1,0,0:0:0:0:
352,96,257024,1,8,0:0:0:0:
160,96,257174,1,0,0:0:0:0:
160,96,257249,1,0,0:0:0:0:
160,96,257324,1,0,0:0:0:0:
160,96,257399,1,0,0:0:0:0:
352,96,257474,1,8,0:0:0:0:
352,96,257549,1,8,0:0:0:0:
160,96,257624,1,0,0:0:0:0:
352,96,257774,1,8,0:0:0:0:
352,96,257849,1,8,0:0:0:0:
160,96,257924,1,0,0:0:0:0:
160,96,257999,1,0,0:0:0:0:
352,96,258074,1,8,0:0:0:0:
160,96,258149,1,0,0:0:0:0:
352,96,258224,1,8,0:0:0:0:
352,96,258299,1,8,0:0:0:0:
160,96,258374,1,0,0:0:0:0:
160,96,258524,1,0,0:0:0:0:
160,96,258599,1,0,0:0:0:0:
352,96,258674,1,8,0:0:0:0:
352,96,258749,1,8,0:0:0:0:
160,96,258824,1,0,0:0:0:0:
160,96,258899,1,0,0:0:0:0:
352,96,258974,1,8,0:0:0:0:
160,96,259124,1,0,0:0:0:0:
160,96,259199,1,0,0:0:0:0:
352,96,259274,1,8,0:0:0:0:
160,96,259349,1,0,0:0:0:0:
352,96,259424,1,8,0:0:0:0:
160,96,259499,1,0,0:0:0:0:
352,96,259574,1,8,0:0:0:0:
160,96,259724,1,0,0:0:0:0:
160,96,259799,1,0,0:0:0:0:
352,96,259874,1,8,0:0:0:0:
352,96,259949,1,8,0:0:0:0:
160,96,260024,1,0,0:0:0:0:
160,96,260099,1,0,0:0:0:0:
352,96,260174,1,8,0:0:0:0:
160,96,260324,1,0,0:0:0:0:
160,96,260399,1,0,0:0:0:0:
352,96,260474,1,8,0:0:0:0:
160,96,260549,1,0,0:0:0:0:
352,96,260624,1,8,0:0:0:0:
352,96,260699,1,8,0:0:0:0:
160,96,260774,1,0,0:0:0:0:
160,96,260849,1,0,0:0:0:0:
160,96,260924,1,0,0:0:0:0:
352,96,261074,1,8,0:0:0:0:
160,96,261149,1,0,0:0:0:0:
160,96,261224,1,0,0:0:0:0:
160,96,261299,1,0,0:0:0:0:
352,96,261374,1,8,0:0:0:0:
160,96,261524,1,0,0:0:0:0:
160,96,261599,1,0,0:0:0:0:
352,96,261674,1,8,0:0:0:0:
352,96,261749,1,8,0:0:0:0:
160,96,261824,1,0,0:0:0:0:
352,96,261974,1,8,0:0:0:0:
160,96,262049,1,0,0:0:0:0:
352,96,262124,1,8,0:0:0:0:
160,96,262199,1,0,0:0:0:0:
352,96,262274,1,8,0:0:0:0:
352,96,262349,1,8,0:0:0:0:
352,96,262424,1,8,0:0:0:0:
160,96,262499,1,0,0:0:0:0:
352,96,262574,1,8,0:0:0:0:
352,96,262724,1,8,0:0:0:0:
160,96,262799,1,0,0:0:0:0:
352,96,262874,1,8,0:0:0:0:
160,96,262949,1,0,0:0:0:0:
352,96,263024,1,8,0:0:0:0:
352,96,263174,1,8,0:0:0:0:
352,96,263249,1,8,0:0:0:0:
352,96,263324,1,8,0:0:0:0:
160,96,263399,1,0,0:0:0:0:
352,96,263474,1,8,0:0:0:0:
352,96,263549,1,8,0:0:0:0:
160,96,263624,1,0,0:0:0:0:
352,96,263774,1,8,0:0:0:0:
352,96,263849,1,8,0:0:0:0:
160,96,263924,1,0,0:0:0:0:
160,96,263999,1,0,0:0:0:0:
352,96,264074,1,8,0:0:0:0:
160,96,264149,1,0,0:0:0:0:
352,96,264224,1,8,0:0:0:0:
160,96,264299,1,0,0:0:0:0:
352,96,264374,1,8,0:0:0:0:
160,96,264524,1,0,0:0:0:0:
160,96,264599,1,0,0:0:0:0:
352,96,264674,1,8,0:0:0:0:
160,96,264749,1,0,0:0:0:0:
160,96,264824,1,0,0:0:0:0:
160,96,264899,1,0,0:0:0:0:
352,96,264974,1,8,0:0:0:0:
160,96,265124,1,0,0:0:0:0:
160,96,265199,1,0,0:0:0:0:
352,96,265274,1,8,0:0:0:0:
160,96,265349,1,0,0:0:0:0:
352,96,265424,1,8,0:0:0:0:
352,96,265499,1,8,0:0:0:0:
160,96,265574,1,0,0:0:0:0:
160,96,265724,1,0,0:0:0:0:
160,96,265799,1,0,0:0:0:0:
352,96,265874,1,8,0:0:0:0:
352,96,265949,1,8,0:0:0:0:
160,96,266024,1,0,0:0:0:0:
352,96,266174,1,8,0:0:0:0:
160,96,266249,1,0,0:0:0:0:
160,96,266324,1,0,0:0:0:0:
160,96,266399,1,0,0:0:0:0:
352,96,266474,1,8,0:0:0:0:
160,96,266549,1,0,0:0:0:0:
352,96,266624,1,8,0:0:0:0:
160,96,266774,1,0,0:0:0:0:
160,96,266849,1,0,0:0:0:0:
160,96,266924,1,0,0:0:0:0:
160,96,266999,1,0,0:0:0:0:
352,96,267074,1,8,0:0:0:0:
160,96,267224,1,0,0:0:0:0:
160,96,267299,1,0,0:0:0:0:
352,96,267374,1,8,0:0:0:0:
352,96,267449,1,8,0:0:0:0:
160,96,267524,1,0,0:0:0:0:
160,96,267599,1,0,0:0:0:0:
352,96,267674,1,8,0:0:0:0:
160,96,267749,1,0,0:0:0:0:
352,96,267824,1,8,0:0:0:0:
352,96,267899,1,8,0:0:0:0:
160,96,267974,1,0,0:0:0:0:
160,96,268124,1,0,0:0:0:0:
160,96,268199,1,0,0:0:0:0:
352,96,268274,1,8,0:0:0:0:
352,96,268424,1,8,0:0:0:0:
160,96,268499,1,0,0:0:0:0:
160,96,268574,1,0,0:0:0:0:
160,96,268649,1,0,0:0:0:0:
352,96,268724,1,8,0:0:0:0:
160,96,268874,1,0,0:0:0:0:
160,96,268949,1,0,0:0:0:0:
352,96,269024,1,8,0:0:0:0:
160,96,269174,1,0,0:0:0:0:
160,96,269249,1,0,0:0:0:0:
160,96,269324,1,0,0:0:0:0:
352,96,269474,1,8,0:0:0:0:
352,96,269549,1,8,0:0:0:0:
160,96,269624,1,0,0:0:0:0:
160,96,269699,1,0,0:0:0:0:
352,96,269774,1,8,0:0:0:0:
160,96,269924,1,0,0:0:0:0:
160,96,269999,1,0,0:0:0:0:
352,96,270074,1,8,0:0:0:0:
160,96,270149,1,0,0:0:0:0:
352,96,270224,1,8,0:0:0:0:
352,96,270299,1,8,0:0:0:0:
352,96,270374,1,8,0:0:0:0:
352,96,270449,1,8,0:0:0:0:
160,96,270524,1,0,0:0:0:0:
352,96,270674,1,8,0:0:0:0:
352,96,270749,1,8,0:0:0:0:
160,96,270824,1,0,0:0:0:0:
160,96,270899,1,0,0:0:0:0:
352,96,270974,1,8,0:0:0:0:
160,96,271124,1,0,0:0:0:0:
160,96,271199,1,0,0:0:0:0:
352,96,271274,1,8,0:0:0:0:
352,96,271349,1,8,0:0:0:0:
160,96,271424,1,0,0:0:0:0:
160,96,271499,1,0,0:0:0:0:
352,96,271574,1,8,0:0:0:0:
352,96,271724,1,8,0:0:0:0:
352,96,271799,1,8,0:0:0:0:
160,96,271874,1,0,0:0:0:0:
352,96,271949,1,8,0:0:0:0:
160,96,272024,1,0,0:0:0:0:
352,96,272174,1,8,0:0:0:0:
352,96,272249,1,8,0:0:0:0:
160,96,272324,1,0,0:0:0:0:
352,96,272399,1,8,0:0:0:0:
352,96,272474,1,8,0:0:0:0:
352,96,272624,1,8,0:0:0:0:
160,96,272699,1,0,0:0:0:0:
352,96,272774,1,8,0:0:0:0:
160,96,272924,1,0,0:0:0:0:
352,96,272999,1,8,0:0:0:0:
352,96,273074,1,8,0:0:0:0:
160,96,273224,1,0,0:0:0:0:
352,96,273299,1,8,0:0:0:0:
352,96,273374,1,8,0:0:0:0:
160,96,273449,1,0,0:0:0:0:
352,96,273524,1,8,0:0:0:0:
352,96,273674,1,8,0:0:0:0:
352,96,273724,5,8,0:0:0:0:
352,96,273774,1,8,0:0:0:0:
160,96,273824,1,0,0:0:0:0:
352,288,273974,1,12,0:0:0:0:
256,192,274124,12,0,276224,0:0:0:0:
160,288,276374,5,4,0:0:0:0:
160,288,276524,1,4,0:0:0:0:
160,288,276824,1,4,0:0:0:0:
160,288,277124,1,4,0:0:0:0:
160,288,277424,1,4,0:0:0:0:
352,288,277574,1,12,0:0:0:0:
