osu file format v14

[General]
AudioFilename: audio.mp3
AudioLeadIn: 0
PreviewTime: 83451
Countdown: 0
SampleSet: Soft
StackLeniency: 0.7
Mode: 0
LetterboxInBreaks: 0
WidescreenStoryboard: 1

[Editor]
Bookmarks: 5185,6785,11585,13185,17985,19585,24385,25985,43585,45185,49985,51585,56385,57985,62785,64385,69185,70785,88385,89985,94785,96385,126785,128385,133185,134785,139585,141185,145985,147585
DistanceSpacing: 1
BeatDivisor: 6
GridSize: 16
TimelineZoom: 1.6

[Metadata]
Title:Ruination
TitleUnicode:Ruination
Artist:FRASER EDWARDS
ArtistUnicode:FRASER EDWARDS
Creator:Shii
Version:Normal
Source:
Tags:English Rock Power Metal The Architect mindmaster107
BeatmapID:3800953
BeatmapSetID:1848184

[Difficulty]
HPDrainRate:3
CircleSize:3
OverallDifficulty:4
ApproachRate:5
SliderMultiplier:1.2
SliderTickRate:1

[Events]
//Background and Video events
0,0,"fraser edwards.jpeg",0,0
//Break Periods
//Storyboard Layer 0 (Background)
//Storyboard Layer 1 (Fail)
//Storyboard Layer 2 (Pass)
//Storyboard Layer 3 (Foreground)
//Storyboard Layer 4 (Overlay)
//Storyboard Sound Samples

[TimingPoints]
400,400,4,2,1,40,1,0
400,-111.111111111111,4,2,1,40,0,0
2000,-111.111111111111,4,2,1,55,0,0
3600,-111.111111111111,4,2,1,65,0,0
5200,-111.111111111111,4,2,1,80,0,0
5266,-111.111111111111,4,2,1,50,0,0
5600,-111.111111111111,4,2,1,60,0,0
6000,-111.111111111111,4,2,1,70,0,0
6400,-111.111111111111,4,2,1,80,0,0
6800,-100,4,2,1,80,0,0
18000,-100,4,2,1,60,0,0
18800,-100,4,2,1,50,0,0
19600,-100,4,2,1,80,0,0
26000,-100,4,2,1,70,0,0
37333,-100,4,2,1,50,0,0
38800,-90.9090909090909,4,2,1,85,0,1
43600,-90.9090909090909,4,2,1,60,0,1
45200,-90.9090909090909,4,2,1,85,0,1
50000,-100,4,2,1,85,0,0
51600,-100,4,2,1,80,0,0
56400,-100,4,2,1,60,0,0
57600,-100,4,2,1,70,0,0
58000,-100,4,2,1,80,0,0
69200,-100,4,2,1,60,0,0
70000,-100,4,2,1,70,0,0
70400,-100,4,2,1,85,0,0
70800,-100,4,2,1,70,0,0
82133,-100,4,2,1,50,0,0
83600,-90.9090909090909,4,2,1,85,0,1
94800,-100,4,2,1,85,0,0
96400,-100,4,2,1,70,0,0
102800,-100,4,2,1,85,0,0
107866,-100,4,2,1,70,0,0
108400,-100,4,2,1,60,0,0
108800,-100,4,2,1,50,0,0
109200,-100,4,2,1,70,0,0
120533,-100,4,2,1,50,0,0
122000,-90.9090909090909,4,2,1,85,0,1
133200,-100,4,2,1,60,0,0
133600,-100,4,2,1,68,0,0
134000,-100,4,2,1,75,0,0
134400,-100,4,2,1,85,0,0
134800,-83.3333333333333,4,2,1,90,0,1
146000,-100,4,2,1,90,0,0
147600,-100,4,2,1,70,0,0
150200,-100,4,2,1,60,0,0
150800,-100,4,2,1,50,0,0
151600,-100,4,2,1,40,0,0
152000,-100,4,2,1,20,0,0
152400,-100,4,2,1,5,0,0

[Colours]
Combo1 : 141,104,172
Combo2 : 176,121,149
Combo3 : 116,157,171
Combo4 : 116,142,203

[HitObjects]
203,49,400,6,0,P|157:40|92:28,3,107.999996704102,0|0|0|0,3:2|3:2|3:2|3:2,0:0:0:0:
25,103,2000,2,0,P|40:146|62:208,3,107.999996704102,0|0|0|0,3:2|3:2|3:2|3:2,0:0:0:0:
162,230,3600,2,0,P|190:193|234:144,3,107.999996704102,0|0|0|0,3:2|3:2|3:2|3:2,0:0:0:0:
310,68,5200,5,10,3:2:0:0:
402,17,5600,1,2,3:2:0:0:
503,56,6000,1,10,3:2:0:0:
495,160,6400,1,10,3:2:0:0:
482,262,6800,5,6,3:2:0:0:
469,348,7066,1,2,3:2:0:0:
469,348,7200,2,0,P|413:356|361:318,1,120,10|2,3:2|3:2,0:0:0:0:
297,233,8000,2,0,P|241:225|189:263,1,120,10|2,3:2|3:2,0:0:0:0:
122,218,8666,1,2,3:2:0:0:
122,218,8800,2,0,P|136:296|144:348,1,120,10|2,3:2|3:2,0:0:0:0:
26,346,9600,2,0,P|19:304|11:263,1,80,10|10,3:2|3:2,0:0:0:0:
5,226,10000,5,2,3:2:0:0:
60,159,10266,1,2,3:2:0:0:
60,159,10400,2,0,P|69:99|80:40,2,120,10|2|10,3:2|3:2|3:2,0:0:0:0:
129,246,11600,5,10,3:2:0:0:
232,177,12000,1,10,3:2:0:0:
165,86,12400,1,10,3:2:0:0:
268,31,12800,1,10,3:2:0:0:
325,97,13066,5,10,3:2:0:0:
325,97,13200,2,0,P|373:97|452:91,1,120,6|10,3:2|3:2,0:0:0:0:
502,158,13866,1,2,3:2:0:0:
502,158,14000,2,0,P|502:206|508:285,1,120,0|8,3:2|3:2,0:0:0:0:
441,335,14666,5,10,3:2:0:0:
441,335,14800,2,0,P|393:335|314:341,1,120,2|10,3:2|3:2,0:0:0:0:
264,274,15466,1,2,3:2:0:0:
264,274,15600,2,0,P|264:226|258:147,1,120,0|8,3:2|3:2,0:0:0:0:
222,47,16400,6,0,P|186:27|104:37,1,120,2|10,3:2|3:2,0:0:0:0:
38,129,17200,2,0,P|38:170|88:236,1,120,2|10,3:2|3:2,0:0:0:0:
171,227,17866,5,2,3:2:0:0:
171,227,18000,1,10,3:2:0:0:
120,335,18400,2,0,P|230:347|360:363,1,240,10|2,3:2|3:2,0:0:0:0:
470,316,19600,6,0,P|485:267|511:191,1,120,6|10,3:2|3:2,0:0:0:0:
496,119,20266,1,2,3:2:0:0:
496,119,20400,2,0,P|463:98|384:101,1,120,0|8,3:2|3:2,0:0:0:0:
284,160,21200,6,0,P|299:209|325:285,1,120,2|10,3:2|3:2,0:0:0:0:
310,357,21866,1,2,3:2:0:0:
310,357,22000,2,0,P|277:378|198:375,1,120,0|8,3:2|3:2,0:0:0:0:
130,275,22800,6,0,B|73:256|73:256|14:275,1,120,2|10,3:2|3:2,0:0:0:0:
36,154,23600,2,0,B|75:141|75:141|115:154,1,80,2|0,3:2|3:2,0:0:0:0:
183,62,24266,5,2,3:2:0:0:
183,62,24400,1,10,3:2:0:0:
284,108,24800,1,10,3:2:0:0:
363,11,25200,1,10,3:2:0:0:
464,62,25600,1,10,3:2:0:0:
488,179,26000,6,0,P|493:227|501:304,2,120,6|10|2,3:2|3:2|3:2,0:0:0:0:
395,102,27200,1,10,3:2:0:0:
349,172,27466,1,2,3:2:0:0:
349,172,27600,2,0,P|352:205|358:258,2,80,2|2|0,3:2|0:2|0:0,0:0:0:0:
293,105,28400,1,0,3:2:0:0:
216,34,28800,1,8,3:2:0:0:
182,116,29066,5,2,0:2:0:0:
182,116,29200,2,0,P|187:164|195:241,2,120,2|10|2,3:2|3:2|3:2,0:0:0:0:
104,33,30400,1,10,3:2:0:0:
6,93,30800,2,0,P|11:141|19:218,1,120,2|10,3:2|3:2,0:0:0:0:
107,285,31600,2,0,P|140:282|194:276,1,80,0|0,3:2|3:2,0:0:0:0:
226,274,32000,1,8,3:2:0:0:
340,341,32400,6,0,P|368:349|396:359,1,60,6|0,3:2|0:0,0:0:0:0:
453,329,32800,6,0,P|461:300|471:272,1,60,10|0,3:2|0:0,0:0:0:0:
451,216,33200,6,0,P|422:207|394:197,1,60,2|0,3:2|0:0,0:0:0:0:
337,177,33600,5,10,3:2:0:0:
263,275,34000,5,2,3:2:0:0:
216,345,34266,2,0,P|161:347|113:289,1,120,2|2,0:2|0:2,0:0:0:0:
116,276,34800,1,0,3:2:0:0:
0,282,35200,1,8,3:2:0:0:
2,198,35466,5,2,0:2:0:0:
2,198,35600,2,0,P|0:170|0:100,1,80,2|2,3:2|0:2,0:0:0:0:
0,118,36000,2,0,P|27:94|81:89,1,80,10|2,3:2|0:2,0:0:0:0:
105,106,36400,1,10,3:2:0:0:
218,86,36800,1,0,3:2:0:0:
336,63,37200,5,2,0:2:0:0:
16,15,38800,6,0,P|59:15|97:37,1,88.000002685547,6|0,3:2|3:2,0:0:0:0:
97,37,39200,2,0,P|86:81|83:127,1,88.000002685547,10|2,3:2|3:2,0:0:0:0:
0,214,39866,1,2,3:2:0:0:
0,214,40000,2,0,P|10:258|13:304,1,88.000002685547,10|2,3:2|0:2,0:0:0:0:
6,345,40400,1,2,3:2:0:0:
131,297,40800,5,10,3:2:0:0:
172,370,41066,2,0,P|217:356|344:334,1,176.000005371094,2|8,3:2|3:2,0:0:0:0:
431,377,41866,5,10,3:2:0:0:
431,377,42000,2,0,P|474:376|512:354,1,88.000002685547,2|0,3:2|3:2,0:0:0:0:
512,353,42400,2,0,P|501:308|498:262,1,88.000002685547,10|2,3:2|3:2,0:0:0:0:
413,182,43066,1,2,3:2:0:0:
413,182,43200,2,0,P|423:137|426:91,1,88.000002685547,10|2,3:2|3:2,0:0:0:0:
420,50,43600,1,8,3:2:0:0:
343,10,43866,5,10,3:2:0:0:
343,10,44000,2,0,P|302:29|277:114,1,132.00000402832,10|10,3:2|3:2,0:0:0:0:
311,188,44666,1,10,3:2:0:0:
311,188,44800,2,0,P|280:193|249:199,2,44.0000013427735,10|10|10,3:2|3:2|3:2,0:0:0:0:
359,181,45200,6,0,P|402:172|444:164,1,88.000002685547,6|0,3:2|3:2,0:0:0:0:
444,164,45600,2,0,P|489:192|504:234,1,88.000002685547,10|2,3:2|3:2,0:0:0:0:
466,333,46266,1,2,3:2:0:0:
466,333,46400,6,0,P|422:324|380:316,1,88.000002685547,10|2,3:2|0:2,0:0:0:0:
338,308,46800,1,2,3:2:0:0:
218,293,47200,1,10,3:2:0:0:
176,372,47466,2,0,P|167:316|141:191,1,176.000005371094,2|8,3:2|3:2,0:0:0:0:
31,129,48400,5,2,3:2:0:0:
100,6,48800,1,10,3:2:0:0:
178,55,49066,2,0,P|239:22|305:42,1,132.00000402832,2|2,3:2|3:2,0:0:0:0:
296,36,49600,2,0,P|341:60|391:45,1,88.000002685547,10|2,3:2|3:2,0:0:0:0:
375,55,50000,5,10,3:2:0:0:
482,7,50400,1,10,3:2:0:0:
512,116,50800,1,10,3:2:0:0:
409,162,51200,1,10,3:2:0:0:
510,222,51600,5,6,3:2:0:0:
504,311,51866,1,2,3:2:0:0:
504,311,52000,2,0,P|474:334|390:335,1,120,10|2,3:2|3:2,0:0:0:0:
306,262,52800,2,0,P|293:197|278:134,1,120,10|2,3:2|3:2,0:0:0:0:
259,64,53466,1,2,3:2:0:0:
259,64,53600,2,0,P|229:41|145:40,1,120,10|2,3:2|3:2,0:0:0:0:
132,148,54400,2,0,P|154:165|217:166,1,80,10|10,3:2|3:2,0:0:0:0:
235,154,54800,1,2,3:2:0:0:
311,203,55066,1,2,3:2:0:0:
311,203,55200,2,0,P|318:255|330:331,2,120,10|2|10,3:2|3:2|3:2,0:0:0:0:
289,89,56400,5,8,3:2:0:0:
373,14,56800,1,8,3:2:0:0:
483,43,57200,1,8,3:2:0:0:
494,152,57600,1,8,3:2:0:0:
502,242,57866,5,8,3:2:0:0:
502,242,58000,2,0,P|496:311|491:371,1,120,6|10,3:2|3:2,0:0:0:0:
408,364,58666,1,2,3:2:0:0:
408,364,58800,2,0,P|402:304|397:244,1,120,0|8,3:2|3:2,0:0:0:0:
310,244,59466,1,10,3:2:0:0:
310,244,59600,2,0,P|304:313|299:373,1,120,2|10,3:2|3:2,0:0:0:0:
216,366,60266,1,2,3:2:0:0:
216,366,60400,2,0,P|210:306|205:246,1,120,0|8,3:2|3:2,0:0:0:0:
77,230,61200,6,0,P|41:199|24:120,1,120,2|10,3:2|3:2,0:0:0:0:
98,37,62000,2,0,P|142:22|219:46,1,120,2|10,3:2|3:2,0:0:0:0:
285,127,62800,5,10,3:2:0:0:
251,241,63200,1,10,3:2:0:0:
302,349,63600,1,10,3:2:0:0:
414,380,64000,1,10,3:2:0:0:
508,328,64400,6,0,P|499:279|489:200,1,120,6|10,3:2|3:2,0:0:0:0:
493,127,65066,1,2,3:2:0:0:
493,127,65200,2,0,P|462:94|384:90,1,120,0|8,3:2|3:2,0:0:0:0:
281,133,66000,6,0,P|272:182|262:261,1,120,2|10,3:2|3:2,0:0:0:0:
268,337,66666,1,2,3:2:0:0:
268,337,66800,2,0,P|237:370|159:374,1,120,0|8,3:2|3:2,0:0:0:0:
35,308,67600,6,0,B|14:268|14:268|89:231,1,120,2|10,3:2|3:2,0:0:0:0:
201,192,68400,2,0,B|222:152|222:152|147:115,1,120,2|10,3:2|3:2,0:0:0:0:
75,92,69066,5,2,3:2:0:0:
75,92,69200,2,0,P|139:85|329:61,1,240,2|10,3:2|3:2,0:0:0:0:
446,40,70400,1,10,3:2:0:0:
466,152,70800,6,0,P|471:213|475:278,1,120,6|10,3:2|3:2,0:0:0:0:
436,349,71466,1,2,3:2:0:0:
436,349,71600,2,0,P|375:354|310:358,1,120,2|10,3:2|3:2,0:0:0:0:
251,307,72266,1,2,3:2:0:0:
251,307,72400,6,0,P|247:247|242:187,1,120,2|8,3:2|3:2,0:0:0:0:
231,106,73066,1,2,2:2:0:0:
231,106,73200,1,0,3:2:0:0:
143,28,73600,1,8,3:2:0:0:
68,112,74000,6,0,P|38:114|14:117,2,40,2|2|2,3:2|0:2|0:2,0:0:0:0:
95,150,74400,2,0,P|125:152|149:155,2,40,10|2|2,3:2|0:2|0:2,0:0:0:0:
90,197,74800,2,0,P|98:245|106:290,1,80,2|2,3:2|0:2,0:0:0:0:
111,317,75200,1,10,3:2:0:0:
191,381,75600,2,0,P|218:373|245:326,1,80,2|2,3:2|0:2,0:0:0:0:
340,281,76266,2,0,P|293:260|258:158,1,160,2|8,0:2|3:2,0:0:0:0:
321,43,77200,6,0,P|369:48|397:50,1,60,6|0,3:2|0:0,0:0:0:0:
427,92,77600,6,0,P|422:140|420:168,1,60,10|0,3:2|0:0,0:0:0:0:
462,195,78000,6,0,P|467:243|469:271,1,60,2|0,3:2|0:0,0:0:0:0:
478,312,78400,5,10,3:2:0:0:
417,371,78666,1,0,3:2:0:0:
417,371,78800,2,0,P|363:378|333:385,1,80,2|2,3:2|0:2,0:0:0:0:
256,305,79466,2,0,P|153:291|96:278,1,160,2|8,0:2|3:2,0:0:0:0:
3,214,80400,6,0,P|15:162|23:118,1,80,2|2,3:2|0:2,0:0:0:0:
19,135,80800,2,0,P|11:89|2:57,1,80,10|2,3:2|0:2,0:0:0:0:
27,22,81200,1,10,3:2:0:0:
123,81,81600,1,0,3:2:0:0:
230,39,82000,5,10,0:2:0:0:
511,7,83600,6,0,P|505:50|498:106,1,88.000002685547,6|0,3:2|3:2,0:0:0:0:
499,94,84000,2,0,P|466:112|416:113,1,88.000002685547,10|2,3:2|3:2,0:0:0:0:
343,40,84666,1,2,3:2:0:0:
343,40,84800,2,0,P|309:22|259:21,1,88.000002685547,10|2,3:2|0:2,0:0:0:0:
227,44,85200,1,2,3:2:0:0:
108,2,85600,5,10,3:2:0:0:
47,66,85866,2,0,P|53:133|60:257,1,176.000005371094,2|8,3:2|3:2,0:0:0:0:
25,321,86666,5,10,3:2:0:0:
25,321,86800,2,0,P|34:353|94:378,1,88.000002685547,2|0,3:2|3:2,0:0:0:0:
79,379,87200,2,0,P|114:375|171:364,1,88.000002685547,10|2,3:2|3:2,0:0:0:0:
264,288,87866,1,2,3:2:0:0:
264,288,88000,2,0,P|307:296|350:301,1,88.000002685547,10|2,3:2|3:2,0:0:0:0:
400,302,88400,5,8,3:2:0:0:
508,259,88800,1,10,3:2:0:0:
509,143,89200,1,10,3:2:0:0:
406,87,89600,1,10,3:2:0:0:
333,173,90000,6,0,P|295:186|246:178,1,88.000002685547,6|0,3:2|3:2,0:0:0:0:
248,179,90400,2,0,P|238:119|232:85,1,88.000002685547,10|2,3:2|3:2,0:0:0:0:
114,44,91066,1,2,3:2:0:0:
114,44,91200,2,0,P|103:104|97:138,1,88.000002685547,10|2,3:2|0:2,0:0:0:0:
93,176,91600,1,2,3:2:0:0:
0,269,92000,5,10,3:2:0:0:
37,343,92266,2,0,P|91:354|214:371,1,176.000005371094,2|8,3:2|3:2,0:0:0:0:
314,298,93200,5,2,3:2:0:0:
413,384,93600,1,10,3:2:0:0:
479,331,93866,2,0,P|512:270|492:204,1,132.00000402832,2|2,3:2|3:2,0:0:0:0:
498,213,94400,2,0,P|474:168|489:118,1,88.000002685547,10|2,3:2|3:2,0:0:0:0:
509,104,94800,1,10,3:2:0:0:
0,135,96400,6,2,P|58:120|116:104,1,120,6|10,3:2|3:2,0:0:0:0:
234,69,97200,2,2,P|292:54|350:38,1,120,2|10,3:2|3:2,0:0:0:0:
464,5,98000,2,2,P|498:35|498:113,1,120,2|10,3:2|3:2,0:0:0:0:
431,151,98666,1,2,3:2:0:0:
510,218,99066,1,2,3:2:0:0:
510,218,99200,2,2,P|496:266|487:305,1,80,10|2,3:2|0:2,0:0:0:0:
475,333,99600,6,2,P|416:318|358:302,1,120,6|10,3:2|3:2,0:0:0:0:
241,267,100400,2,2,P|182:252|124:236,1,120,2|10,3:2|3:2,0:0:0:0:
55,284,101066,1,0,3:2:0:0:
512,135,102800,6,2,B|493:131|493:131|489:124|489:124|480:126|480:126|453:120|395:104,1,120,6|10,3:2|3:2,0:1:0:0:
278,69,103600,2,2,B|259:63|259:63|252:67|252:67|246:61|246:61|219:53|160:39,1,120,2|10,3:2|3:2,0:1:0:0:
48,5,104400,2,2,P|14:35|14:113,1,120,0|10,3:2|3:2,0:1:0:0:
81,151,105066,1,2,3:2:0:0:
2,218,105466,1,2,3:2:0:0:
2,218,105600,2,2,P|16:266|25:305,1,80,10|0,3:2|0:0,0:1:0:0:
6,340,106000,6,2,B|64:325|87:320|87:320|95:320|95:320|102:310|102:310|108:312|108:312|122:309,1,120,6|10,3:2|3:2,0:1:0:0:
240,274,106800,2,2,P|298:259|356:243,1,120,2|10,3:2|3:2,0:1:0:0:
426,291,107466,1,2,3:2:0:0:
512,207,107866,1,10,3:2:0:0:
512,207,108000,2,0,P|496:146|475:77,2,120,10|2|2,3:2|3:2|3:2,0:0:0:0:
488,332,109200,6,0,P|408:357|366:372,2,120,6|10|2,3:2|3:2|3:2,0:0:0:0:
397,260,110400,1,10,3:2:0:0:
330,209,110666,1,2,3:2:0:0:
330,209,110800,2,0,P|289:196|246:185,2,80,2|2|0,3:2|0:2|0:0,0:0:0:0:
401,161,111600,2,0,P|426:81|441:39,1,120,0|8,3:2|3:2,0:0:0:0:
366,0,112266,5,2,0:2:0:0:
366,0,112400,2,0,P|286:25|244:40,2,120,2|10|2,3:2|3:2|3:2,0:0:0:0:
481,33,113600,1,10,3:2:0:0:
509,145,114000,2,0,P|491:202|476:260,1,120,2|10,3:2|3:2,0:0:0:0:
476,377,114800,6,0,P|434:368|382:356,1,80,0|0,3:2|3:2,0:0:0:0:
362,350,115200,1,8,3:2:0:0:
237,378,115600,6,0,P|232:341|228:316,1,60,6|0,3:2|0:0,0:0:0:0:
267,275,116000,6,0,P|272:238|276:213,1,60,10|0,3:2|0:0,0:0:0:0:
235,174,116400,6,0,P|230:137|226:112,1,60,2|0,3:2|0:0,0:0:0:0:
271,71,116800,5,10,3:2:0:0:
169,7,117200,5,2,3:2:0:0:
102,62,117466,2,0,P|69:63|23:141,1,120,2|2,0:2|0:2,0:0:0:0:
30,162,118000,1,0,3:2:0:0:
44,274,118400,1,8,3:2:0:0:
54,363,118666,5,2,0:2:0:0:
54,363,118800,2,0,P|103:367|141:383,1,80,2|2,3:2|3:2,0:0:0:0:
131,377,119200,2,0,P|180:373|218:357,1,80,10|2,3:2|3:2,0:0:0:0:
227,337,119600,1,2,3:2:0:0:
238,231,120000,1,8,3:2:0:0:
250,126,120400,5,2,0:2:0:0:
16,369,122000,6,0,P|59:369|97:347,1,88.000002685547,6|0,3:2|3:2,0:0:0:0:
97,347,122400,2,0,P|86:303|83:257,1,88.000002685547,10|2,3:2|3:2,0:0:0:0:
0,170,123066,1,2,3:2:0:0:
0,170,123200,2,0,P|10:126|13:80,1,88.000002685547,10|2,3:2|0:2,0:0:0:0:
6,39,123600,1,2,3:2:0:0:
131,87,124000,5,10,3:2:0:0:
172,14,124266,2,0,P|217:28|344:50,1,176.000005371094,2|8,3:2|3:2,0:0:0:0:
418,3,125066,5,10,3:2:0:0:
418,3,125200,2,0,P|461:4|499:26,1,88.000002685547,2|0,3:2|3:2,0:0:0:0:
499,27,125600,2,0,P|488:72|485:118,1,88.000002685547,10|2,3:2|3:2,0:0:0:0:
427,212,126266,1,2,3:2:0:0:
427,212,126400,2,0,P|437:257|440:303,1,88.000002685547,10|2,3:2|3:2,0:0:0:0:
434,344,126800,5,8,3:2:0:0:
316,384,127200,1,10,3:2:0:0:
239,301,127600,1,10,3:2:0:0:
153,384,128000,1,10,3:2:0:0:
32,378,128400,6,0,P|23:335|15:293,1,88.000002685547,6|0,3:2|3:2,0:0:0:0:
14,291,128800,2,0,P|37:250|79:233,1,88.000002685547,10|2,3:2|3:2,0:0:0:0:
188,275,129466,1,2,3:2:0:0:
188,275,129600,2,0,P|197:232|205:190,1,88.000002685547,10|2,3:2|0:2,0:0:0:0:
215,144,130000,1,2,3:2:0:0:
246,32,130400,1,10,3:2:0:0:
327,8,130666,2,0,P|386:22|508:43,1,176.000005371094,2|8,3:2|3:2,0:0:0:0:
512,174,131600,5,2,3:2:0:0:
443,297,132000,1,10,3:2:0:0:
387,236,132266,2,0,P|326:203|260:223,1,132.00000402832,2|2,3:2|3:2,0:0:0:0:
268,217,132800,2,0,P|223:241|173:226,1,88.000002685547,10|2,3:2|3:2,0:0:0:0:
161,206,133200,5,10,3:2:0:0:
133,317,133600,1,8,3:2:0:0:
235,382,134000,1,8,3:2:0:0:
334,327,134400,1,8,3:2:0:0:
448,378,134800,6,0,P|450:331|457:261,1,95.9999970703126,6|0,3:2|3:2,0:0:0:0:
465,242,135200,1,10,3:2:0:0:
507,165,135466,2,0,P|495:132|395:88,1,143.999995605469,2|2,3:2|3:2,0:0:0:0:
361,119,136000,1,10,3:2:0:0:
276,185,136400,6,0,P|251:170|228:107,1,95.9999970703126,2|0,3:2|3:2,0:0:0:0:
237,62,136800,2,0,P|252:37|315:14,1,95.9999970703126,10|2,3:2|3:2,0:0:0:0:
411,95,137466,1,0,3:2:0:0:
411,95,137600,2,0,P|403:159|401:197,1,95.9999970703126,8|10,3:2|3:2,0:0:0:0:
401,190,138000,6,0,P|408:254|410:292,1,95.9999970703126,2|0,3:2|3:2,0:0:0:0:
412,333,138400,1,10,3:2:0:0:
337,384,138666,2,0,P|281:376|141:356,1,191.999994140625,2|10,3:2|3:2,0:0:0:0:
28,343,139600,5,8,3:2:0:0:
49,230,140000,1,10,3:2:0:0:
56,116,140400,2,0,L|8:132,2,47.9999985351563,10|4|4,3:2|3:2|3:2,0:0:0:0:
101,75,140800,2,0,L|149:91,2,47.9999985351563,4|4|4,3:2|3:2|3:2,0:0:0:0:
92,25,141200,6,0,P|139:21|197:13,1,95.9999970703126,6|0,3:2|3:2,0:0:0:0:
227,5,141600,1,10,3:2:0:0:
291,58,141866,6,0,P|286:122|279:206,1,143.999995605469,2|2,3:2|3:2,0:0:0:0:
273,247,142400,1,10,3:2:0:0:
278,337,142666,1,2,0:2:0:0:
278,337,142800,2,0,P|310:356|378:363,1,95.9999970703126,2|0,3:2|3:2,0:0:0:0:
411,352,143200,1,10,3:2:0:0:
481,301,143466,2,0,P|467:220|451:106,1,191.999994140625,2|8,3:2|3:2,0:0:0:0:
375,1,144400,5,2,3:2:0:0:
261,48,144800,1,10,3:2:0:0:
248,136,145066,2,0,P|180:172|108:150,1,143.999995605469,2|2,3:2|3:2,0:0:0:0:
118,158,145600,2,0,P|68:131|13:148,1,95.9999970703126,10|2,3:2|3:2,0:0:0:0:
0,178,146000,5,10,3:2:0:0:
0,289,146400,1,10,3:2:0:0:
85,362,146800,1,10,3:2:0:0:
186,311,147200,1,10,3:2:0:0:
278,383,147600,5,4,3:2:0:0:
405,333,148000,2,0,P|436:340|457:345,2,40,0|0|0,3:2|3:2|3:2,0:0:0:0:
390,305,148400,5,4,3:2:0:0:
288,256,148800,2,0,P|257:263|236:268,2,40,0|0|0,3:2|3:2|3:2,0:0:0:0:
305,231,149200,5,4,3:2:0:0:
388,151,149600,1,8,3:2:0:0:
350,42,150000,1,4,3:2:0:0:
256,192,150200,12,0,152400,0:0:0:0:
