osu file format v14

[General]
AudioFilename: audio.mp3
AudioLeadIn: 0
PreviewTime: 83451
Countdown: 0
SampleSet: Soft
StackLeniency: 0.7
Mode: 0
LetterboxInBreaks: 0
WidescreenStoryboard: 0

[Editor]
Bookmarks: 5185,6785,11585,13185,17985,19585,24385,25985,43585,45185,49985,51585,56385,57985,62785,64385,69185,70785,75851,88385,89985,94785,96385,126785,128385,133185,134785,139585,141185,145985,147585
DistanceSpacing: 2.2
BeatDivisor: 6
GridSize: 8
TimelineZoom: 2.2

[Metadata]
Title:Ruination
TitleUnicode:Ruination
Artist:FRASER EDWARDS
ArtistUnicode:FRASER EDWARDS
Creator:Shii
Version:Extra
Source:
Tags:English Rock Power Metal The Architect mindmaster107
BeatmapID:3796545
BeatmapSetID:1848184

[Difficulty]
HPDrainRate:5
CircleSize:4
OverallDifficulty:9
ApproachRate:9.5
SliderMultiplier:2.4
SliderTickRate:1

[Events]
//Background and Video events
0,0,"fraser edwards.jpeg",0,0
//Break Periods
//Storyboard Layer 0 (Background)
//Storyboard Layer 1 (Fail)
//Storyboard Layer 2 (Pass)
//Storyboard Layer 3 (Foreground)
//Storyboard Layer 4 (Overlay)
//Storyboard Sound Samples

[TimingPoints]
400,400,4,2,1,40,1,0
400,-250,4,2,1,40,0,0
2000,-166.666666666667,4,2,1,55,0,0
3600,-125,4,2,1,65,0,0
5200,-125,4,2,1,80,0,0
5266,-125,4,2,1,50,0,0
5600,-125,4,2,1,60,0,0
6000,-125,4,2,1,70,0,0
6400,-125,4,2,1,80,0,0
6800,-100,4,2,1,80,0,0
7000,-100,4,2,1,5,0,0
7066,-100,4,2,1,80,0,0
8000,-83.3333333333333,4,2,1,80,0,0
8400,-100,4,2,1,80,0,0
8600,-100,4,2,1,5,0,0
8666,-100,4,2,1,80,0,0
9600,-83.3333333333333,4,2,1,80,0,0
10000,-100,4,2,1,80,0,0
10200,-100,4,2,1,5,0,0
10266,-100,4,2,1,80,0,0
11200,-83.3333333333333,4,2,1,80,0,0
13200,-100,4,2,1,80,0,0
13400,-100,4,2,1,5,0,0
13466,-100,4,2,1,80,0,0
15000,-100,4,2,1,5,0,0
15066,-100,4,2,1,80,0,0
18000,-100,4,2,1,60,0,0
18800,-200,4,2,1,50,0,0
19600,-100,4,2,1,80,0,0
19800,-100,4,2,1,5,0,0
19866,-100,4,2,1,80,0,0
21400,-100,4,2,1,5,0,0
21466,-100,4,2,1,80,0,0
26000,-250,4,2,1,70,0,0
37333,-250,4,2,1,50,0,0
38800,-83.3333333333333,4,2,1,85,0,1
39000,-83.3333333333333,4,2,1,5,0,1
39066,-83.3333333333333,4,2,1,85,0,1
40600,-83.3333333333333,4,2,1,5,0,1
40666,-83.3333333333333,4,2,1,85,0,1
42200,-83.3333333333333,4,2,1,5,0,1
42266,-83.3333333333333,4,2,1,85,0,1
43600,-83.3333333333333,4,2,1,60,0,1
43800,-83.3333333333333,4,2,1,5,0,1
43866,-83.3333333333333,4,2,1,60,0,1
44600,-83.3333333333333,4,2,1,5,0,1
44666,-83.3333333333333,4,2,1,60,0,1
45200,-83.3333333333333,4,2,1,85,0,1
45400,-83.3333333333333,4,2,1,5,0,1
45466,-83.3333333333333,4,2,1,85,0,1
47000,-83.3333333333333,4,2,1,5,0,1
47066,-83.3333333333333,4,2,1,85,0,1
50000,-83.3333333333333,4,2,1,85,0,0
50800,-166.666666666667,4,2,1,85,0,0
51600,-100,4,2,1,80,0,0
51800,-100,4,2,1,5,0,0
51866,-100,4,2,1,80,0,0
52800,-83.3333333333333,4,2,1,80,0,0
53200,-100,4,2,1,80,0,0
53400,-100,4,2,1,5,0,0
53466,-100,4,2,1,80,0,0
54400,-83.3333333333333,4,2,1,80,0,0
54800,-100,4,2,1,80,0,0
55000,-100,4,2,1,5,0,0
55066,-100,4,2,1,80,0,0
56000,-83.3333333333333,4,2,1,80,0,0
56400,-100,4,2,1,60,0,0
57600,-100,4,2,1,70,0,0
58000,-100,4,2,1,80,0,0
58200,-100,4,2,1,5,0,0
58266,-100,4,2,1,80,0,0
59800,-100,4,2,1,5,0,0
59866,-100,4,2,1,80,0,0
64600,-100,4,2,1,5,0,0
64666,-100,4,2,1,80,0,0
66200,-100,4,2,1,5,0,0
66266,-100,4,2,1,80,0,0
67400,-100,4,2,1,5,0,0
67466,-100,4,2,1,80,0,0
69200,-100,4,2,1,60,0,0
70000,-100,4,2,1,70,0,0
70400,-100,4,2,1,85,0,0
70800,-250,4,2,1,70,0,0
82133,-250,4,2,1,50,0,0
83600,-83.3333333333333,4,2,1,85,0,1
83800,-83.3333333333333,4,2,1,5,0,1
83866,-83.3333333333333,4,2,1,85,0,1
85400,-83.3333333333333,4,2,1,5,0,1
85466,-83.3333333333333,4,2,1,85,0,1
87000,-83.3333333333333,4,2,1,5,0,1
87066,-83.3333333333333,4,2,1,85,0,1
90200,-83.3333333333333,4,2,1,5,0,1
90266,-83.3333333333333,4,2,1,85,0,1
91800,-83.3333333333333,4,2,1,5,0,1
91866,-83.3333333333333,4,2,1,85,0,1
93400,-83.3333333333333,4,2,1,5,0,1
93466,-83.3333333333333,4,2,1,85,0,1
94800,-83.3333333333333,4,2,1,85,0,0
96000,-250,4,2,1,85,0,0
96400,-83.3333333333333,4,2,1,70,0,0
96733,-83.3333333333333,4,2,1,5,0,0
96800,-66.6666666666667,4,2,1,70,0,0
97133,-66.6666666666667,4,2,1,5,0,0
97200,-83.3333333333333,4,2,1,70,0,0
97400,-83.3333333333333,4,2,1,5,0,0
97466,-83.3333333333333,4,2,1,70,0,0
99400,-83.3333333333333,4,2,1,5,0,0
99466,-83.3333333333333,4,2,1,70,0,0
99933,-83.3333333333333,4,2,1,5,0,0
100000,-66.6666666666667,4,2,1,70,0,0
100333,-66.6666666666667,4,2,1,5,0,0
100400,-66.6666666666667,4,2,1,70,0,0
102800,-66.6666666666667,4,2,1,85,0,0
103133,-66.6666666666667,4,2,1,5,0,0
103200,-55.5555555555556,4,2,1,85,0,0
103533,-55.5555555555556,4,2,1,5,0,0
103600,-66.6666666666667,4,2,1,85,0,0
103933,-66.6666666666667,4,2,1,5,0,0
104000,-83.3333333333333,4,2,1,85,0,0
105400,-83.3333333333333,4,2,1,5,0,0
105466,-83.3333333333333,4,2,1,85,0,0
106000,-66.6666666666667,4,2,1,85,0,0
106333,-66.6666666666667,4,2,1,5,0,0
106400,-55.5555555555556,4,2,1,85,0,0
106733,-55.5555555555556,4,2,1,5,0,0
106800,-66.6666666666667,4,2,1,85,0,0
107133,-66.6666666666667,4,2,1,5,0,0
107200,-55.5555555555556,4,2,1,85,0,0
107866,-55.5555555555556,4,2,1,70,0,0
108400,-55.5555555555556,4,2,1,60,0,0
108800,-55.5555555555556,4,2,1,50,0,0
109200,-250,4,2,1,70,0,0
120533,-250,4,2,1,50,0,0
122000,-83.3333333333333,4,2,1,85,0,1
122200,-83.3333333333333,4,2,1,5,0,1
122266,-83.3333333333333,4,2,1,85,0,1
123800,-83.3333333333333,4,2,1,5,0,1
123866,-83.3333333333333,4,2,1,85,0,1
125400,-83.3333333333333,4,2,1,5,0,1
125466,-83.3333333333333,4,2,1,85,0,1
128600,-83.3333333333333,4,2,1,5,0,1
128666,-83.3333333333333,4,2,1,85,0,1
130200,-83.3333333333333,4,2,1,5,0,1
130266,-83.3333333333333,4,2,1,85,0,1
131800,-83.3333333333333,4,2,1,5,0,1
131866,-83.3333333333333,4,2,1,85,0,1
133200,-83.3333333333333,4,2,1,60,0,0
133600,-83.3333333333333,4,2,1,68,0,0
134000,-83.3333333333333,4,2,1,75,0,0
134400,-83.3333333333333,4,2,1,85,0,0
134800,-74.0740740740741,4,2,1,90,0,1
135000,-74.0740740740741,4,2,1,5,0,1
135066,-74.0740740740741,4,2,1,90,0,1
136600,-74.0740740740741,4,2,1,5,0,1
136666,-74.0740740740741,4,2,1,90,0,1
138200,-74.0740740740741,4,2,1,5,0,1
138266,-74.0740740740741,4,2,1,90,0,1
141400,-74.0740740740741,4,2,1,5,0,1
141466,-74.0740740740741,4,2,1,90,0,1
143000,-74.0740740740741,4,2,1,5,0,1
143066,-74.0740740740741,4,2,1,90,0,1
144600,-74.0740740740741,4,2,1,5,0,1
144666,-74.0740740740741,4,2,1,90,0,1
146000,-83.3333333333333,4,2,1,90,0,0
147600,-83.3333333333333,4,2,1,70,0,0
150133,-83.3333333333333,4,2,1,60,0,0
150800,-83.3333333333333,4,2,1,50,0,0
151600,-83.3333333333333,4,2,1,40,0,0
152000,-83.3333333333333,4,2,1,20,0,0
152400,-83.3333333333333,4,2,1,5,0,0

[Colours]
Combo1 : 141,104,172
Combo2 : 176,121,149
Combo3 : 116,157,171
Combo4 : 116,142,203

[HitObjects]
500,205,400,6,0,P|491:258|488:279,1,64,0|0,3:2|0:2,0:2:0:0:
476,342,800,2,0,P|474:356|471:372,2,32,0|0|0,3:2|0:2|0:2,0:2:0:0:
490,268,1200,6,0,P|494:236|499:205,1,64,0|0,3:2|0:2,0:2:0:0:
512,130,1600,1,0,3:2:0:0:
410,294,1866,5,0,0:2:0:0:
410,294,2000,2,0,P|402:243|395:193,1,95.9999970703126,0|0,3:2|0:2,0:2:0:0:
380,124,2400,2,0,P|375:100|372:76,2,47.9999985351563,0|0|0,3:2|0:2|0:2,0:2:0:0:
396,198,2800,1,0,3:2:0:0:
366,29,3066,1,0,0:2:0:0:
366,29,3200,2,0,P|373:76|380:123,1,95.9999970703126,0|0,3:2|0:2,0:2:0:0:
301,304,3600,6,0,P|311:235|321:169,1,128,0|0,3:2|0:2,0:2:0:0:
259,56,4000,6,0,P|263:87|268:119,2,64,0|0|0,3:2|0:2|0:2,0:2:0:0:
348,10,4400,1,0,3:2:0:0:
219,186,4666,5,0,0:2:0:0:
219,186,4800,1,0,3:2:0:0:
43,328,5066,5,0,0:2:0:0:
43,328,5200,1,10,3:2:0:0:
30,225,5333,1,2,3:2:0:0:
17,122,5466,1,2,3:2:0:0:
108,0,5600,5,2,3:2:0:0:
97,82,5733,1,2,3:2:0:0:
87,164,5866,1,2,3:2:0:0:
180,283,6000,5,10,3:2:0:0:
170,208,6133,1,10,3:2:0:0:
160,134,6266,1,10,3:2:0:0:
30,225,6400,5,10,3:2:0:0:
180,283,6533,1,10,3:2:0:0:
87,164,6666,1,10,3:2:0:0:
80,371,6800,6,0,P|92:311|112:223,1,120,6|0,3:2|0:2,0:2:0:0:
105,253,7066,1,2,3:2:0:0:
0,109,7200,5,10,3:2:0:0:
4,129,7333,1,0,3:2:0:0:
9,149,7466,1,2,3:2:0:0:
179,227,7600,6,0,P|148:187|104:181,1,80,2|0,3:2|0:2,0:2:0:0:
48,210,7866,1,2,3:2:0:0:
234,76,8000,6,0,P|174:84|142:126,1,95.9999970703126,10|2,3:2|0:2,0:2:0:0:
108,254,8266,1,10,3:2:0:0:
22,92,8400,6,0,P|34:152|54:239,1,120,2|0,3:2|0:2,0:2:0:0:
47,210,8666,1,2,3:2:0:0:
171,323,8800,5,10,3:2:0:0:
176,303,8933,1,0,3:2:0:0:
180,283,9066,1,2,3:2:0:0:
11,378,9200,6,0,P|71:363|193:337,1,160,2|2,3:2|3:2,0:2:0:0:
337,382,9600,2,0,P|306:376|241:361,1,95.9999970703126,10|2,3:2|0:2,0:2:0:0:
94,312,9866,1,10,3:2:0:0:
250,188,10000,6,0,P|260:228|204:293,1,120,2|0,3:2|0:2,0:2:0:0:
217,288,10266,1,2,3:2:0:0:
334,200,10400,1,10,3:2:0:0:
355,194,10533,1,0,3:2:0:0:
372,203,10666,1,2,3:2:0:0:
404,345,10800,6,0,P|415:282|422:253,1,80,2|0,3:2|0:2,0:2:0:0:
446,191,11066,1,2,3:2:0:0:
512,349,11200,6,0,P|498:274|489:238,1,95.9999970703126,10|2,3:2|2:2,0:2:0:0:
395,136,11466,1,10,3:2:0:0:
512,39,11600,5,10,3:2:0:0:
413,19,11733,1,10,3:2:0:0:
316,3,11866,1,10,3:2:0:0:
316,153,12000,5,10,3:2:0:0:
395,136,12133,1,10,3:2:0:0:
472,124,12266,1,10,3:2:0:0:
512,192,12400,5,10,3:2:0:0:
507,201,12533,1,2,3:2:0:0:
502,210,12666,1,10,3:2:0:0:
395,136,12800,5,10,3:2:0:0:
312,230,12933,1,10,3:2:0:0:
226,108,13066,1,10,3:2:0:0:
124,247,13200,6,0,P|117:325|113:393,1,120,6|0,3:2|0:2,0:2:0:0:
114,366,13466,1,2,3:2:0:0:
200,276,13600,6,0,P|195:326|192:369,1,80,10|0,3:2|3:2,0:2:0:0:
32,383,13866,1,2,3:2:0:0:
32,383,14000,6,0,P|37:303|44:223,1,160,0|0,3:2|3:2,0:2:0:0:
80,45,14400,1,8,3:2:0:0:
299,230,14667,5,10,3:2:0:0:
299,230,14800,2,0,P|267:270|194:275,1,120,2|0,3:2|0:2,0:2:0:0:
202,278,15066,1,2,3:2:0:0:
201,123,15200,2,0,P|215:176|222:210,1,80,10|0,3:2|3:2,0:2:0:0:
357,328,15466,1,2,3:2:0:0:
357,328,15600,2,0,P|374:249|395:172,1,160,0|0,3:2|3:2,0:2:0:0:
314,25,16000,1,8,3:2:0:0:
509,138,16266,5,8,3:2:0:0:
509,138,16400,2,0,B|471:142|436:132|450:73|412:64|376:72,1,160,2|0,3:2|3:2,0:2:0:0:
266,241,16800,2,0,B|303:245|338:235|324:176|362:167|398:175,1,160,10|0,3:2|3:2,0:2:0:0:
229,28,17200,2,0,P|215:110|200:203,1,160,2|0,3:2|3:2,0:2:0:0:
363,314,17600,2,0,P|356:274|349:235,1,80,10|0,3:2|0:2,0:2:0:0:
182,353,17866,5,2,3:2:0:0:
182,353,18000,5,10,3:2:0:0:
97,338,18133,1,2,3:2:0:0:
12,323,18266,1,2,3:2:0:0:
53,251,18400,5,10,3:2:0:0:
124,238,18533,1,10,3:2:0:0:
195,225,18666,1,2,3:2:0:0:
242,165,18800,6,0,P|246:136|250:117,1,40,2|2,3:2|3:2,0:2:0:0:
24,125,19066,6,0,P|20:96|16:77,1,40,10|2,3:2|3:2,0:2:0:0:
143,0,19333,1,2,3:2:0:0:
143,0,19466,1,2,3:2:0:0:
143,0,19600,6,0,P|133:80|126:152,1,120,6|0,3:2|0:2,0:2:0:0:
128,119,19866,1,2,3:2:0:0:
269,51,20000,2,0,P|227:76|211:112,1,80,10|0,3:2|3:2,0:2:0:0:
15,79,20266,1,2,3:2:0:0:
15,79,20400,2,0,P|61:98|93:207,1,160,0|0,3:2|3:2,0:2:0:0:
1,323,20800,1,8,3:2:0:0:
243,384,21066,5,10,3:2:0:0:
243,384,21200,2,0,P|213:350|140:337,1,120,2|0,3:2|0:2,0:2:0:0:
142,336,21466,1,2,3:2:0:0:
284,301,21600,2,0,P|305:260|297:223,1,80,10|0,3:2|3:2,0:2:0:0:
385,369,21866,1,2,3:2:0:0:
385,369,22000,2,0,P|376:290|416:222,1,160,0|0,3:2|3:2,0:2:0:0:
300,373,22400,1,8,3:2:0:0:
489,193,22666,5,8,3:2:0:0:
489,193,22800,2,0,P|485:132|383:66,1,160,2|0,3:2|3:2,0:2:0:0:
246,169,23200,2,0,P|300:196|408:140,1,160,10|0,3:2|3:2,0:2:0:0:
333,19,23600,2,0,P|324:70|318:107,1,80,2|0,3:2|0:2,0:2:0:0:
180,273,23866,2,0,P|166:194|152:115,1,160,0|0,3:2|0:2,0:2:0:0:
0,10,24266,5,2,3:2:0:0:
0,10,24400,1,10,3:2:0:0:
8,110,24533,1,10,3:2:0:0:
19,211,24666,1,10,3:2:0:0:
83,269,24800,5,10,3:2:0:0:
92,177,24933,1,10,3:2:0:0:
101,86,25066,1,10,3:2:0:0:
167,40,25200,5,10,3:2:0:0:
175,124,25333,1,10,3:2:0:0:
183,207,25466,1,10,3:2:0:0:
245,252,25600,5,10,3:2:0:0:
252,177,25733,1,10,3:2:0:0:
259,103,25866,1,10,3:2:0:0:
309,34,26000,5,6,3:2:0:0:
308,26,26133,1,0,3:2:0:0:
307,18,26266,1,0,3:2:0:0:
231,43,26400,5,10,3:2:0:0:
230,35,26533,1,0,3:2:0:0:
229,27,26666,1,0,3:2:0:0:
151,56,26800,5,2,3:2:0:0:
150,48,26933,1,0,3:2:0:0:
149,40,27066,1,0,3:2:0:0:
76,67,27200,5,10,3:2:0:0:
74,58,27333,1,0,3:2:0:0:
0,81,27466,5,2,3:2:0:0:
105,133,27600,6,0,L|149:124,1,32,2|0,3:2|0:2,0:2:0:0:
76,243,27866,6,0,L|0:226,1,64,2|0,0:2|0:2,0:2:0:0:
122,343,28266,5,2,2:2:0:0:
122,343,28400,1,0,3:2:0:0:
33,156,28666,5,0,0:2:0:0:
33,156,28800,1,8,3:2:0:0:
265,0,29066,5,2,0:2:0:0:
265,0,29200,2,0,L|259:44,1,32,2|0,3:2|0:2,0:2:0:0:
238,159,29466,5,2,0:2:0:0:
238,159,29600,2,0,L|232:203,1,32,10|0,3:2|0:2,0:2:0:0:
213,319,29866,5,2,0:2:0:0:
213,319,30000,2,0,L|202:393,1,64,2|0,3:2|0:2,0:2:0:0:
233,190,30400,5,10,3:2:0:0:
498,377,30800,6,0,P|493:352|491:336,1,32,2|0,3:2|0:2,0:2:0:0:
476,271,31066,5,2,0:2:0:0:
476,271,31200,2,0,P|471:246|469:230,1,32,10|0,3:2|0:2,0:2:0:0:
407,193,31466,6,0,L|333:206,1,64,2|0,0:2|0:2,0:2:0:0:
198,236,31866,5,0,3:2:0:0:
198,236,31933,1,0,3:2:0:0:
198,236,32000,1,8,3:2:0:0:
176,24,32266,5,10,3:2:0:0:
176,24,32400,1,6,3:2:0:0:
152,28,32533,1,0,3:2:0:0:
128,32,32666,1,0,3:2:0:0:
173,150,32800,5,10,3:2:0:0:
169,126,32933,1,0,3:2:0:0:
165,102,33066,1,0,3:2:0:0:
47,147,33200,5,2,3:2:0:0:
71,143,33333,1,0,3:2:0:0:
95,139,33466,1,0,3:2:0:0:
50,21,33600,5,10,3:2:0:0:
54,45,33733,1,0,3:2:0:0:
58,69,33866,1,0,3:2:0:0:
173,150,34000,6,0,L|164:104,1,32,2|0,3:2|0:2,0:2:0:0:
263,7,34266,6,0,L|249:82,1,64,2|0,0:2|0:2,0:2:0:0:
347,192,34666,6,0,L|330:98,1,96,2|0,0:2|0:2,0:2:0:0:
376,7,35200,1,8,3:2:0:0:
267,164,35466,5,2,0:2:0:0:
267,164,35600,2,0,L|261:195,1,32,2|0,3:2|0:2,0:2:0:0:
165,168,35866,5,2,0:2:0:0:
165,168,36000,2,0,L|170:199,1,32,10|0,3:2|0:2,0:2:0:0:
65,183,36266,5,2,0:2:0:0:
65,183,36400,2,0,L|58:210,3,16,10|0|2|0,3:2|3:2|3:2|3:2,0:2:0:0:
91,75,36666,5,0,3:2:0:0:
91,75,36733,1,0,3:2:0:0:
91,75,36800,2,0,L|79:118,1,32,0|0,3:2|3:2,0:2:0:0:
49,284,37066,1,2,3:2:0:0:
49,284,37133,1,0,3:2:0:0:
49,284,37200,1,10,0:2:0:0:
139,120,38800,6,0,P|216:105|311:86,1,143.999995605469,6|0,3:2|0:2,0:2:0:0:
280,92,39066,1,0,3:2:0:0:
195,234,39200,2,0,P|202:170|234:137,1,95.9999970703126,10|0,3:2|0:2,0:2:0:0:
16,0,39466,2,0,P|58:93|137:119,1,191.999994140625,2|0,3:2|0:2,0:2:0:0:
202,73,39866,1,2,3:2:0:0:
366,236,40000,6,0,P|301:215|259:205,1,95.9999970703126,10|0,3:2|0:2,0:2:0:0:
350,136,40266,1,2,0:2:0:0:
362,337,40400,6,0,P|264:305|201:290,1,143.999995605469,2|0,3:2|0:2,0:2:0:0:
224,295,40666,1,0,3:2:0:0:
418,175,40800,2,0,P|443:219|437:272,1,95.9999970703126,10|0,3:2|0:2,0:2:0:0:
216,213,41066,2,0,P|265:133|355:129,1,191.999994140625,2|0,3:2|0:2,0:2:0:0:
350,208,41466,1,0,3:2:0:0:
161,122,41600,1,8,3:2:0:0:
136,201,41866,5,10,3:2:0:0:
359,133,42000,2,0,P|436:148|531:167,1,143.999995605469,2|0,3:2|0:2,0:2:0:0:
500,161,42266,1,0,3:2:0:0:
257,22,42400,2,0,P|277:92|289:135,1,95.9999970703126,10|0,3:2|0:2,0:2:0:0:
148,302,42666,2,0,P|173:209|200:117,1,191.999994140625,2|0,3:2|0:2,0:2:0:0:
158,50,43066,1,2,3:2:0:0:
27,241,43200,6,0,P|98:226|148:216,1,95.9999970703126,10|0,3:2|0:2,0:2:0:0:
326,186,43466,5,2,3:2:0:0:
326,186,43533,1,0,3:2:0:0:
326,186,43600,2,0,P|432:163|508:149,1,143.999995605469,8|0,3:2|0:2,0:2:0:0:
467,157,43866,1,10,3:2:0:0:
348,86,44000,5,10,3:2:0:0:
396,170,44133,1,10,3:2:0:0:
443,253,44266,1,10,3:2:0:0:
387,315,44400,6,0,P|280:292|204:278,1,143.999995605469,10|0,3:2|3:2,0:2:0:0:
246,285,44666,1,10,3:2:0:0:
274,384,44800,5,10,3:2:0:0:
321,300,44933,1,10,3:2:0:0:
368,216,45066,1,10,3:2:0:0:
507,357,45200,6,0,B|471:360|438:352|449:291|412:280|376:290,1,143.999995605469,6|0,3:2|0:2,0:2:0:0:
391,287,45466,1,0,3:2:0:0:
502,163,45600,2,0,P|511:248|515:274,1,95.9999970703126,10|0,3:2|0:2,0:2:0:0:
312,384,45866,2,0,P|293:214|285:162,1,191.999994140625,2|0,3:2|0:2,0:2:0:0:
255,123,46266,1,2,3:2:0:0:
391,57,46400,6,0,P|361:111|311:129,1,95.9999970703126,10|0,3:2|0:2,0:2:0:0:
171,21,46666,1,2,0:2:0:0:
171,21,46800,6,0,P|251:19|304:64,1,143.999995605469,2|0,3:2|0:2,0:2:0:0:
299,56,47066,1,0,3:2:0:0:
482,1,47200,2,0,P|473:61|469:107,1,95.9999970703126,10|0,3:2|0:2,0:2:0:0:
216,107,47466,2,0,P|234:227|242:319,1,191.999994140625,2|0,3:2|0:2,0:2:0:0:
237,384,47866,1,0,3:2:0:0:
237,384,47933,1,0,3:2:0:0:
237,384,48000,1,8,3:2:0:0:
74,127,48400,6,0,P|144:115|222:107,1,143.999995605469,2|0,3:2|0:2,0:2:0:0:
216,107,48666,1,0,3:2:0:0:
216,107,48733,1,0,3:2:0:0:
216,107,48799,2,0,P|250:70|258:21,1,95.9999970703126,10|0,3:2|0:2,0:2:0:0:
83,202,49066,2,0,P|18:133|2:39,1,191.999994140625,2|0,3:2|0:2,0:2:0:0:
192,197,49466,1,2,3:2:0:0:
192,197,49600,2,0,P|258:179|308:171,1,95.9999970703126,10|0,3:2|0:2,0:2:0:0:
486,328,49866,1,2,3:2:0:0:
486,328,49933,1,0,3:2:0:0:
486,328,50000,5,10,3:2:0:0:
499,225,50133,1,10,3:2:0:0:
512,122,50266,1,10,3:2:0:0:
421,0,50400,5,10,3:2:0:0:
432,82,50533,1,10,3:2:0:0:
442,164,50666,1,10,3:2:0:0:
388,223,50800,2,0,L|334:211,2,47.9999985351563,10|2|10,3:2|3:2|3:2,0:2:0:0:
508,254,51200,5,10,3:2:0:0:
352,294,51333,1,10,3:2:0:0:
442,164,51466,1,10,3:2:0:0:
472,326,51600,6,0,P|414:310|355:297,1,120,6|0,3:2|0:2,0:2:0:0:
355,297,51866,1,2,3:2:0:0:
442,164,52000,1,10,3:2:0:0:
445,177,52133,1,0,3:2:0:0:
443,189,52266,1,2,3:2:0:0:
300,85,52400,6,0,P|320:142|328:170,1,80,2|0,3:2|0:2,0:2:0:0:
374,224,52666,1,2,3:2:0:0:
426,41,52800,6,0,P|404:103|395:134,1,95.9999970703126,10|2,3:2|0:2,0:2:0:0:
299,239,53066,1,10,3:2:0:0:
126,157,53200,6,0,P|68:173|9:186,1,120,2|0,3:2|0:2,0:2:0:0:
9,186,53466,1,2,3:2:0:0:
167,252,53600,1,10,3:2:0:0:
174,234,53733,1,0,3:2:0:0:
176,218,53866,1,2,3:2:0:0:
271,325,54000,2,0,P|201:296|191:188,1,160,2|2,3:2|3:2,0:2:0:0:
107,370,54400,2,0,P|152:340|169:295,1,95.9999970703126,10|2,3:2|0:2,0:2:0:0:
124,162,54666,1,10,3:2:0:0:
272,232,54800,6,0,P|318:221|359:151,1,120,2|0,3:2|0:2,0:2:0:0:
358,164,55066,1,2,3:2:0:0:
413,282,55200,1,10,3:2:0:0:
409,265,55333,1,0,3:2:0:0:
405,248,55466,1,2,3:2:0:0:
512,71,55600,6,0,P|496:141|491:182,1,80,2|0,3:2|0:2,0:2:0:0:
480,228,55866,1,2,3:2:0:0:
396,42,56000,6,0,P|412:112|417:153,1,95.9999970703126,10|2,3:2|2:2,0:2:0:0:
417,296,56266,1,10,3:2:0:0:
335,154,56400,6,0,P|331:174|329:202,3,40,8|0|0|0,3:2|3:2|3:2|3:2,0:2:0:0:
264,305,56666,1,0,3:2:0:0:
264,305,56733,1,0,3:2:0:0:
264,305,56800,6,0,P|262:285|258:265,3,40,8|0|0|0,3:2|3:2|3:2|3:2,0:2:0:0:
184,137,57066,1,0,3:2:0:0:
184,137,57133,1,0,3:2:0:0:
184,137,57200,6,0,P|180:156|178:176,3,40,8|0|0|0,3:2|3:2|3:2|3:2,0:2:0:0:
89,339,57466,1,0,3:2:0:0:
89,339,57533,1,0,3:2:0:0:
89,339,57600,5,8,3:2:0:0:
78,257,57733,1,8,3:2:0:0:
68,175,57866,1,8,3:2:0:0:
0,75,58000,6,0,P|73:58|133:43,1,120,6|0,3:2|0:2,0:2:0:0:
116,47,58266,1,2,3:2:0:0:
227,141,58400,6,0,P|176:129|135:119,1,80,10|0,3:2|3:2,0:2:0:0:
257,30,58666,1,2,3:2:0:0:
257,30,58800,2,0,P|277:130|294:203,1,160,0|0,3:2|3:2,0:2:0:0:
227,335,59200,1,8,3:2:0:0:
499,243,59466,5,10,3:2:0:0:
499,243,59600,2,0,P|445:258|406:323,1,120,2|0,3:2|0:2,0:2:0:0:
408,308,59866,1,2,3:2:0:0:
294,190,60000,2,0,P|339:210|362:241,1,80,10|0,3:2|3:2,0:2:0:0:
487,161,60266,1,2,3:2:0:0:
487,161,60400,2,0,P|499:71|514:-3,1,160,0|0,3:2|3:2,0:2:0:0:
399,153,60800,1,8,3:2:0:0:
202,21,61066,5,8,3:2:0:0:
202,21,61200,2,0,B|238:13|276:22|262:81|297:91|335:87,1,160,2|0,3:2|3:2,0:2:0:0:
122,219,61600,2,0,B|158:227|196:218|182:159|217:149|255:153,1,160,10|0,3:2|3:2,0:2:0:0:
367,324,62000,2,0,P|345:239|330:157,1,160,2|0,3:2|3:2,0:2:0:0:
148,63,62400,2,0,P|140:102|130:141,1,80,10|0,3:2|0:2,0:2:0:0:
0,374,62666,5,2,3:2:0:0:
0,374,62800,1,10,3:2:0:0:
8,274,62933,1,10,3:2:0:0:
19,173,63066,1,10,3:2:0:0:
83,115,63200,5,10,3:2:0:0:
92,207,63333,1,10,3:2:0:0:
101,298,63466,1,10,3:2:0:0:
167,344,63600,5,10,3:2:0:0:
175,260,63733,1,10,3:2:0:0:
183,177,63866,1,10,3:2:0:0:
245,132,64000,5,10,3:2:0:0:
252,207,64133,1,10,3:2:0:0:
259,281,64266,1,10,3:2:0:0:
340,384,64400,6,0,P|390:368|425:306,1,120,6|0,3:2|0:2,0:2:0:0:
424,312,64666,1,2,3:2:0:0:
328,222,64800,2,0,P|342:281|347:315,1,80,10|0,3:2|3:2,0:2:0:0:
510,312,65066,1,2,3:2:0:0:
510,312,65200,2,0,P|482:194|472:126,1,160,0|0,3:2|3:2,0:2:0:0:
512,0,65600,1,8,3:2:0:0:
275,141,65866,5,10,3:2:0:0:
275,141,66000,2,0,P|338:147|397:161,1,120,2|0,3:2|0:2,0:2:0:0:
393,160,66266,1,2,3:2:0:0:
272,64,66400,2,0,P|224:68|180:78,1,80,10|0,3:2|3:2,0:2:0:0:
70,29,66666,1,2,3:2:0:0:
70,29,66800,2,0,P|115:48|156:158,1,160,0|0,3:2|3:2,0:2:0:0:
2,227,67200,2,0,P|12:174|62:127,1,120,8|0,3:2|0:2,0:2:0:0:
57,128,67466,1,8,3:2:0:0:
247,250,67600,6,0,P|170:229|92:215,1,160,2|0,3:2|3:2,0:2:0:0:
262,28,68000,2,0,P|276:106|296:183,1,160,10|0,3:2|3:2,0:2:0:0:
142,362,68400,2,0,P|162:284|176:206,1,160,2|0,3:2|3:2,0:2:0:0:
446,277,68800,2,0,P|407:286|368:296,1,80,10|0,3:2|0:2,0:2:0:0:
138,358,69066,5,2,3:2:0:0:
138,358,69200,2,0,P|99:367|60:377,2,80,2|10|2,3:2|3:2|3:2,0:2:0:0:
291,317,69600,2,0,P|329:307|368:297,2,80,2|10|10,3:2|3:2|3:2,0:2:0:0:
61,378,70000,5,10,3:2:0:0:
138,358,70133,1,10,3:2:0:0:
214,338,70266,1,10,3:2:0:0:
236,262,70400,5,10,3:2:0:0:
139,237,70533,1,10,3:2:0:0:
44,212,70666,1,10,3:2:0:0:
7,106,70800,5,6,3:2:0:0:
8,114,70933,1,0,3:2:0:0:
83,100,71066,5,2,3:2:0:0:
157,82,71200,5,10,3:2:0:0:
158,90,71333,1,0,3:2:0:0:
232,73,71466,5,2,3:2:0:0:
305,49,71600,5,2,3:2:0:0:
306,57,71733,1,0,3:2:0:0:
307,65,71866,1,0,3:2:0:0:
380,40,72000,5,10,3:2:0:0:
381,48,72133,1,0,3:2:0:0:
452,30,72266,5,2,3:2:0:0:
500,117,72400,6,0,L|434:105,1,64,2|2,3:2|0:2,0:2:0:0:
339,164,72800,6,0,L|372:158,1,32,8|0,3:2|0:2,0:2:0:0:
432,283,73066,6,0,L|450:181,1,96,2|0,2:2|0:2,0:2:0:0:
486,36,73600,1,8,3:2:0:0:
228,0,73866,5,2,0:2:0:0:
228,0,74000,5,2,3:2:0:0:
237,74,74133,5,2,0:2:0:0:
246,148,74266,5,2,0:2:0:0:
255,222,74400,5,10,3:2:0:0:
264,296,74533,5,2,0:2:0:0:
273,370,74666,5,2,0:2:0:0:
363,257,74800,6,0,L|330:251,1,32,2|0,3:2|0:2,0:2:0:0:
120,202,75066,5,2,0:2:0:0:
120,202,75200,2,0,L|195:188,1,64,10|0,3:2|0:2,0:2:0:0:
342,105,75600,6,0,L|309:99,1,32,2|0,3:2|0:2,0:2:0:0:
103,59,75866,6,0,L|178:45,1,64,2|0,0:2|0:2,0:2:0:0:
228,0,76266,1,2,0:2:0:0:
228,0,76400,1,0,3:2:0:0:
334,236,76666,5,0,3:2:0:0:
334,236,76733,1,0,3:2:0:0:
334,236,76800,1,8,3:2:0:0:
336,24,77066,5,10,3:2:0:0:
336,24,77200,1,6,3:2:0:0:
360,28,77333,1,0,3:2:0:0:
384,32,77466,1,0,3:2:0:0:
339,150,77600,5,10,3:2:0:0:
343,126,77733,1,0,3:2:0:0:
347,102,77866,1,0,3:2:0:0:
465,147,78000,5,2,3:2:0:0:
441,143,78133,1,0,3:2:0:0:
417,139,78266,1,0,3:2:0:0:
462,21,78400,5,10,3:2:0:0:
458,45,78533,1,0,3:2:0:0:
384,32,78666,5,0,3:2:0:0:
312,0,78800,6,0,L|303:45,1,32,2|0,3:2|0:2,0:2:0:0:
275,164,79066,6,0,L|262:91,1,64,2|0,0:2|0:2,0:2:0:0:
131,72,79466,6,0,L|204:59,1,64,2|0,0:2|0:2,0:2:0:0:
313,39,79866,1,0,3:2:0:0:
313,39,79933,1,0,3:2:0:0:
313,39,80000,1,8,3:2:0:0:
487,207,80266,5,10,0:2:0:0:
487,207,80400,2,0,L|481:174,1,32,2|0,3:2|0:2,0:2:0:0:
381,221,80666,5,2,0:2:0:0:
381,221,80800,2,0,L|387:188,1,32,10|0,3:2|0:2,0:2:0:0:
284,213,81066,1,2,0:2:0:0:
205,210,81200,5,10,3:2:0:0:
205,210,81266,1,0,3:2:0:0:
205,210,81333,1,2,3:2:0:0:
205,210,81400,1,0,3:2:0:0:
205,210,81466,5,0,3:2:0:0:
205,210,81533,1,0,3:2:0:0:
205,210,81600,2,0,L|210:240,3,16,0|0|0|0,3:2|3:2|3:2|3:2,0:2:0:0:
238,336,81866,5,2,3:2:0:0:
238,336,81933,1,0,3:2:0:0:
238,336,82000,1,10,0:2:0:0:
298,121,83600,6,0,B|330:126|359:118|347:68|378:54|416:61,1,143.999995605469,6|0,3:2|0:2,0:2:0:0:
416,61,83866,1,0,3:2:0:0:
241,7,84000,2,0,P|231:64|220:108,1,95.9999970703126,10|0,3:2|0:2,0:2:0:0:
512,18,84266,2,0,P|490:112|474:207,1,191.999994140625,2|0,3:2|0:2,0:2:0:0:
474,286,84666,1,2,3:2:0:0:
261,145,84800,6,0,B|317:156|290:187|358:205,1,95.9999970703126,10|0,3:2|0:2,0:2:0:0:
407,246,85066,1,2,0:2:0:0:
228,281,85200,6,0,B|299:264|259:217|343:201,1,143.999995605469,2|0,3:2|0:2,0:2:0:0:
341,201,85466,1,0,3:2:0:0:
137,141,85600,2,0,P|154:206|163:256,1,95.9999970703126,10|0,3:2|0:2,0:2:0:0:
396,334,85866,2,0,P|415:240|441:147,1,191.999994140625,2|0,3:2|0:2,0:2:0:0:
494,88,86266,1,0,3:2:0:0:
281,45,86400,1,8,3:2:0:0:
353,8,86666,5,10,3:2:0:0:
180,108,86800,2,0,P|106:94|31:83,1,143.999995605469,2|0,3:2|0:2,0:2:0:0:
38,84,87066,1,0,3:2:0:0:
180,251,87200,2,0,P|220:209|219:145,1,95.9999970703126,10|0,3:2|0:2,0:2:0:0:
105,331,87466,2,0,P|192:352|278:301,1,191.999994140625,2|0,3:2|0:2,0:2:0:0:
297,227,87866,1,2,3:2:0:0:
452,302,88000,2,0,P|370:285|330:276,1,95.9999970703126,10|0,3:2|0:2,0:2:0:0:
0,190,88266,5,2,3:2:0:0:
0,190,88400,1,8,3:2:0:0:
103,203,88533,1,10,3:2:0:0:
206,216,88666,1,10,3:2:0:0:
260,280,88800,5,10,3:2:0:0:
173,291,88933,1,10,3:2:0:0:
85,303,89066,1,10,3:2:0:0:
36,365,89200,5,10,3:2:0:0:
110,375,89333,1,10,3:2:0:0:
184,384,89466,1,10,3:2:0:0:
208,216,89600,5,10,3:2:0:0:
110,375,89733,1,10,3:2:0:0:
260,280,89866,1,10,3:2:0:0:
46,253,90000,6,0,P|142:280|199:296,1,143.999995605469,6|0,3:2|0:2,0:2:0:0:
184,292,90266,1,0,3:2:0:0:
353,145,90400,2,0,P|300:177|281:221,1,95.9999970703126,10|0,3:2|0:2,0:2:0:0:
90,83,90666,2,0,P|141:101|207:224,1,191.999994140625,2|0,3:2|0:2,0:2:0:0:
184,292,91066,1,2,3:2:0:0:
370,227,91200,6,0,P|425:220|479:213,1,95.9999970703126,10|0,3:2|0:2,0:2:0:0:
433,306,91466,1,2,0:2:0:0:
327,147,91600,6,0,P|398:137|469:128,1,143.999995605469,2|0,3:2|0:2,0:2:0:0:
469,128,91866,1,0,3:2:0:0:
285,9,92000,2,0,P|270:65|258:115,1,95.9999970703126,10|0,3:2|0:2,0:2:0:0:
247,343,92266,2,0,P|220:235|191:128,1,191.999994140625,2|0,3:2|0:2,0:2:0:0:
177,83,92666,1,0,3:2:0:0:
295,217,92800,1,8,3:2:0:0:
0,375,93200,6,0,P|96:348|153:332,1,143.999995605469,2|0,3:2|0:2,0:2:0:0:
138,336,93466,1,0,3:2:0:0:
214,189,93600,2,0,P|161:229|151:270,1,95.9999970703126,10|0,3:2|0:2,0:2:0:0:
318,358,93866,2,0,P|342:316|292:192,1,191.999994140625,2|0,3:2|0:2,0:2:0:0:
452,370,94266,1,2,3:2:0:0:
452,369,94400,2,0,P|429:327|438:281,1,95.9999970703126,10|0,3:2|0:2,0:2:0:0:
506,243,94666,1,2,3:2:0:0:
363,136,94800,5,10,3:2:0:0:
339,90,96000,6,0,P|322:93|304:98,2,32,0|0|0,0:2|0:2|0:2,0:2:0:0:
512,53,96400,6,2,B|474:7|418:16|406:74|410:81|415:85|419:91|429:153|368:181|323:152,1,239.999992675781,6|0,3:2|0:2,0:2:0:0:
256,218,96800,2,2,B|212:242|150:208|162:110|246:117|272:130|286:146|274:202|293:232|317:245|351:244|381:219,1,300.000011444092,10|0,3:2|0:2,0:2:0:0:
468,272,97200,6,2,B|441:262|423:218|423:218|426:265|407:286,1,143.999995605469,2|0,3:2|0:2,0:2:0:0:
454,346,97466,1,2,0:2:0:0:
503,202,97600,5,10,3:2:0:0:
450,143,97733,1,2,0:2:0:0:
371,159,97866,1,2,0:2:0:0:
409,23,98000,5,2,3:2:0:0:
337,37,98133,1,2,0:2:0:0:
314,107,98266,1,2,0:2:0:0:
224,45,98400,5,10,3:2:0:0:
207,93,98533,1,2,0:2:0:0:
241,131,98666,1,2,3:2:0:0:
66,233,98800,5,2,3:2:0:0:
145,220,98933,1,2,0:2:0:0:
224,207,99066,1,2,3:2:0:0:
344,309,99200,6,2,B|378:329|417:317|417:317|378:318|356:287,1,143.999995605469,10|0,3:2|0:2,0:2:0:0:
289,251,99466,1,2,0:2:0:0:
63,348,99600,6,2,B|101:394|157:385|169:327|165:320|160:316|156:310|146:248|207:220|252:249,1,239.999992675781,6|0,3:2|0:2,0:2:0:0:
358,297,100000,2,2,B|377:338|338:376|275:377|253:318|270:290|276:288|280:283|312:259|316:199|270:167|228:170,1,300.000011444092,10|0,3:2|0:2,0:2:0:0:
173,174,100400,5,2,3:2:0:0:
119,118,100533,1,2,0:2:0:0:
144,45,100666,1,2,0:2:0:0:
95,191,100800,5,10,3:2:0:0:
92,200,100933,1,2,0:2:0:0:
89,210,101066,1,0,3:2:0:0:
336,160,102800,6,2,B|438:135|438:135|446:140|446:140|540:119|540:119|533:178|533:178|496:157,1,300.000011444092,6|0,3:2|0:2,0:1:0:0:
455,61,103200,2,2,B|418:29|418:29|371:251|371:251|435:234|435:234|423:215|423:215,1,359.999989013672,10|0,3:2|0:2,0:1:0:0:
327,87,103600,6,2,B|224:111|224:111|216:106|216:106|122:127|122:127|129:68|129:68|166:89,1,300.000011444092,2|0,3:2|0:2,0:1:0:0:
241,158,104000,2,2,B|270:176|270:176|174:195,1,95.9999970703126,10|0,3:2|0:2,0:1:0:0:
130,210,104266,5,2,0:2:0:0:
130,210,104400,1,0,3:2:0:0:
278,360,104666,5,2,0:2:0:0:
278,360,104800,1,10,3:2:0:0:
199,354,104933,1,2,0:2:0:0:
120,348,105066,1,2,3:2:0:0:
81,234,105200,6,2,B|40:228|40:228|33:222|33:222|-21:215|-21:215|4:254,1,143.999995605469,2|0,3:2|0:2,0:1:0:0:
50,306,105466,1,2,3:2:0:0:
101,154,105600,6,2,B|122:120|122:120|184:144|184:144|176:204|176:204|112:206,1,191.999994140625,10|0,3:2|0:2,0:1:0:0:
257,130,106000,6,2,B|504:90|504:90|523:112|523:112|513:128,1,300.000011444092,6|0,3:2|0:2,0:1:0:0:
341,66,106400,2,2,B|359:18|359:18|444:57|444:57|416:179|416:179|358:185|358:185|343:152,1,359.999989013672,10|0,3:2|0:2,0:1:0:0:
268,47,106800,6,2,B|205:23|205:23|241:236|241:236|279:213,1,300.000011444092,2|0,3:2|0:2,0:1:0:0:
139,104,107200,2,2,B|152:179|152:179|84:166,1,143.999995605469,10|0,3:2|0:2,0:1:0:0:
0,155,107466,5,2,3:2:0:0:
479,276,107866,5,10,3:2:0:0:
479,276,108000,1,10,3:2:0:0:
400,259,108133,1,10,3:2:0:0:
323,247,108266,1,2,3:2:0:0:
283,315,108400,5,2,3:2:0:0:
288,324,108533,1,2,3:2:0:0:
293,333,108666,1,2,3:2:0:0:
355,375,108800,5,2,3:2:0:0:
353,379,108933,1,2,3:2:0:0:
351,384,109066,1,2,3:2:0:0:
512,306,109200,5,6,3:2:0:0:
511,298,109333,1,0,3:2:0:0:
510,290,109466,1,0,3:2:0:0:
434,315,109600,5,10,3:2:0:0:
433,307,109733,1,0,3:2:0:0:
432,299,109866,1,0,3:2:0:0:
354,328,110000,5,2,3:2:0:0:
353,320,110133,1,0,3:2:0:0:
352,312,110266,1,0,3:2:0:0:
279,339,110400,5,10,3:2:0:0:
277,330,110533,1,0,3:2:0:0:
203,353,110666,5,2,3:2:0:0:
132,384,110800,6,0,L|123:347,1,32,2|0,3:2|0:2,0:2:0:0:
187,221,111066,6,0,L|170:294,1,64,2|0,0:2|0:2,0:2:0:0:
83,168,111466,5,2,2:2:0:0:
83,168,111600,1,0,3:2:0:0:
207,16,111866,5,0,0:2:0:0:
207,16,112000,1,8,3:2:0:0:
0,0,112266,5,2,0:2:0:0:
0,0,112400,2,0,L|6:44,1,32,2|0,3:2|0:2,0:2:0:0:
27,159,112666,5,2,3:2:0:0:
27,159,112800,2,0,L|33:203,1,32,10|0,3:2|3:2,0:2:0:0:
52,319,113066,5,2,3:2:0:0:
52,319,113200,2,0,L|63:393,1,64,2|0,3:2|3:2,0:2:0:0:
40,198,113600,5,10,3:2:0:0:
40,198,113733,1,0,3:2:0:0:
40,198,113866,1,0,3:2:0:0:
133,334,114000,6,0,P|158:329|174:327,1,32,2|0,3:2|0:2,0:2:0:0:
239,312,114266,5,2,0:2:0:0:
239,312,114400,2,0,P|264:307|280:305,1,32,10|0,3:2|0:2,0:2:0:0:
346,287,114666,6,0,L|420:274,1,64,2|0,0:2|0:2,0:2:0:0:
512,258,115066,5,0,3:2:0:0:
512,258,115133,1,0,3:2:0:0:
512,258,115200,1,8,3:2:0:0:
502,49,115466,5,10,3:2:0:0:
502,49,115600,1,6,3:2:0:0:
478,53,115733,1,0,3:2:0:0:
454,57,115866,1,0,3:2:0:0:
499,175,116000,5,10,3:2:0:0:
495,151,116133,1,0,3:2:0:0:
491,127,116266,1,0,3:2:0:0:
373,172,116400,5,2,3:2:0:0:
397,168,116533,1,0,3:2:0:0:
421,164,116666,1,0,3:2:0:0:
376,46,116800,5,10,3:2:0:0:
380,70,116933,1,0,3:2:0:0:
384,94,117066,1,0,3:2:0:0:
267,89,117200,6,0,L|313:80,1,32,2|0,3:2|0:2,0:2:0:0:
184,74,117466,6,0,L|196:138,1,64,2|0,0:2|0:2,0:2:0:0:
50,134,117866,6,0,L|124:119,1,64,2|0,0:2|0:2,0:2:0:0:
275,97,118266,1,0,3:2:0:0:
275,97,118333,1,0,3:2:0:0:
275,97,118400,1,8,3:2:0:0:
512,32,118666,5,2,0:2:0:0:
512,32,118800,2,0,L|501:73,1,32,2|0,3:2|3:2,0:2:0:0:
385,56,119066,5,2,3:2:0:0:
385,56,119200,2,0,L|396:97,1,32,10|0,3:2|3:2,0:2:0:0:
262,61,119466,5,2,3:2:0:0:
262,61,119600,2,0,L|247:127,1,64,2|2,3:2|3:2,0:2:0:0:
209,221,120000,5,8,3:2:0:0:
216,227,120133,1,0,3:2:0:0:
223,233,120266,1,2,3:2:0:0:
191,323,120400,5,10,0:2:0:0:
285,220,122000,6,0,P|320:320|331:363,1,143.999995605469,6|0,3:2|0:2,0:2:0:0:
329,356,122266,1,0,3:2:0:0:
436,205,122400,2,0,P|390:173|338:177,1,95.9999970703126,10|0,3:2|0:2,0:2:0:0:
411,384,122666,2,0,P|458:362|507:237,1,191.999994140625,2|0,3:2|0:2,0:2:0:0:
497,160,123066,1,2,3:2:0:0:
272,300,123200,6,0,B|216:289|243:258|175:240,1,95.9999970703126,10|0,3:2|0:2,0:2:0:0:
131,202,123466,1,2,0:2:0:0:
312,171,123600,6,0,B|241:188|281:235|197:251,1,143.999995605469,2|0,3:2|0:2,0:2:0:0:
203,255,123866,1,0,3:2:0:0:
348,275,124000,6,0,P|408:266|463:259,1,95.9999970703126,10|0,3:2|0:2,0:2:0:0:
201,127,124266,2,0,P|105:114|10:99,1,191.999994140625,2|0,3:2|0:2,0:2:0:0:
0,178,124666,1,0,0:2:0:0:
193,47,124800,1,8,3:2:0:0:
112,37,125066,5,10,3:2:0:0:
266,182,125200,2,0,P|343:167|438:148,1,143.999995605469,2|0,3:2|0:2,0:2:0:0:
407,154,125466,1,0,3:2:0:0:
313,295,125600,2,0,P|321:240|359:206,1,95.9999970703126,10|0,3:2|0:2,0:2:0:0:
128,71,125866,2,0,P|169:145|270:181,1,191.999994140625,2|0,3:2|0:2,0:2:0:0:
326,137,126266,1,2,3:2:0:0:
235,257,126400,2,0,P|175:245|102:230,1,95.9999970703126,10|0,3:2|0:2,0:2:0:0:
0,10,126666,5,2,3:2:0:0:
0,10,126733,1,0,3:2:0:0:
0,10,126800,1,8,3:2:0:0:
13,113,126933,1,10,3:2:0:0:
26,216,127066,1,10,3:2:0:0:
81,354,127200,5,10,3:2:0:0:
92,267,127333,1,10,3:2:0:0:
104,179,127466,1,10,3:2:0:0:
157,57,127600,5,10,3:2:0:0:
167,131,127733,1,10,3:2:0:0:
176,205,127866,1,10,3:2:0:0:
26,216,128000,5,10,3:2:0:0:
167,131,128133,1,10,3:2:0:0:
92,267,128266,1,10,3:2:0:0:
29,107,128400,6,0,P|117:124|180:136,1,143.999995605469,6|0,3:2|0:2,0:2:0:0:
170,134,128666,1,0,3:2:0:0:
384,25,128800,2,0,P|336:64|325:110,1,95.9999970703126,10|0,3:2|0:2,0:2:0:0:
134,0,129066,2,0,P|216:45|249:133,1,191.999994140625,2|0,3:2|0:2,0:2:0:0:
208,202,129466,1,2,3:2:0:0:
412,102,129600,6,0,P|468:110|523:115,1,95.9999970703126,10|0,3:2|0:2,0:2:0:0:
470,30,129866,1,2,0:2:0:0:
346,151,130000,6,0,P|338:227|327:302,1,143.999995605469,2|0,3:2|0:2,0:2:0:0:
328,293,130266,1,0,3:2:0:0:
471,242,130400,2,0,P|448:180|401:162,1,95.9999970703126,10|0,3:2|0:2,0:2:0:0:
270,360,130666,2,0,P|342:381|422:299,1,191.999994140625,2|0,3:2|0:2,0:2:0:0:
391,236,131066,1,0,3:2:0:0:
473,384,131200,1,8,3:2:0:0:
0,222,131600,6,0,P|97:242|155:254,1,143.999995605469,2|0,3:2|0:2,0:2:0:0:
141,250,131866,1,0,3:2:0:0:
237,384,132000,2,0,P|178:352|162:313,1,95.9999970703126,10|0,3:2|0:2,0:2:0:0:
359,215,132266,2,0,P|378:259|315:377,1,191.999994140625,2|0,3:2|0:2,0:2:0:0:
209,205,132666,1,2,3:2:0:0:
209,205,132800,2,0,P|221:145|228:109,1,95.9999970703126,10|0,3:2|0:2,0:2:0:0:
471,1,133066,5,2,3:2:0:0:
471,1,133200,2,0,P|463:43|461:62,5,47.9999985351563,10|0|0|0|0|0,3:2|3:2|3:2|3:2|3:2|3:2,0:2:0:0:
374,99,133600,6,0,P|382:141|384:160,5,47.9999985351563,8|0|0|0|0|0,3:2|3:2|3:2|3:2|3:2|3:2,0:2:0:0:
501,195,134000,6,0,P|493:237|491:256,5,47.9999985351563,8|0|0|0|0|0,3:2|3:2|3:2|3:2|3:2|3:2,0:2:0:0:
395,357,134400,5,8,3:2:0:0:
395,357,134466,1,0,3:2:0:0:
395,357,134533,1,0,3:2:0:0:
395,357,134600,1,0,3:2:0:0:
395,357,134666,1,0,3:2:0:0:
395,357,134733,1,0,3:2:0:0:
395,357,134800,6,0,B|363:362|321:351|341:286|299:276|258:285,1,162.000000617981,6|0,3:2|0:2,0:2:0:0:
265,283,135066,1,0,3:2:0:0:
463,187,135200,2,0,P|452:246|446:294,1,108.000000411987,10|0,3:2|0:2,0:2:0:0:
187,357,135466,2,0,P|174:249|153:144,1,216.000000823975,2|0,3:2|0:2,0:2:0:0:
106,79,135866,1,2,3:2:0:0:
270,15,136000,6,0,B|211:26|239:58|168:77,1,108.000000411987,10|0,3:2|0:2,0:2:0:0:
151,0,136266,1,2,0:2:0:0:
293,91,136400,6,0,B|380:108|338:156|445:185,1,162.000000617981,2|0,3:2|0:2,0:2:0:0:
424,178,136666,1,0,3:2:0:0:
512,25,136800,2,0,P|495:91|488:142,1,108.000000411987,10|0,3:2|0:2,0:2:0:0:
205,60,137066,2,0,P|237:185|250:282,1,216.000000823975,2|0,3:2|0:2,0:2:0:0:
244,355,137466,1,0,3:2:0:0:
456,254,137600,1,8,3:2:0:0:
483,329,137866,5,10,3:2:0:0:
249,271,138000,2,0,P|140:295|58:310,1,162.000000617981,2|0,3:2|0:2,0:2:0:0:
90,304,138266,1,0,3:2:0:0:
249,188,138400,2,0,P|305:209|332:257,1,108.000000411987,10|0,3:2|0:2,0:2:0:0:
512,144,138666,2,0,P|446:181|404:312,1,216.000000823975,2|0,3:2|0:2,0:2:0:0:
434,380,139066,1,2,3:2:0:0:
249,271,139200,1,10,3:2:0:0:
176,292,139333,1,2,0:2:0:0:
142,365,139466,5,2,3:2:0:0:
142,365,139533,1,0,3:2:0:0:
142,365,139600,1,8,3:2:0:0:
0,252,139733,1,10,3:2:0:0:
176,292,139866,1,10,3:2:0:0:
0,332,140000,5,10,3:2:0:0:
142,220,140133,1,10,3:2:0:0:
63,382,140266,1,10,3:2:0:0:
63,202,140400,5,10,3:2:0:0:
87,301,140533,5,4,3:2:0:0:
76,297,140666,1,4,3:2:0:0:
76,287,140800,1,4,3:2:0:0:
87,283,140933,1,4,3:2:0:0:
93,292,141066,1,4,3:2:0:0:
223,228,141200,6,0,P|311:242|399:259,1,162.000000617981,6|0,3:2|0:2,0:2:0:0:
382,255,141466,1,0,3:2:0:0:
507,146,141600,2,0,P|496:203|454:241,1,108.000000411987,10|0,3:2|0:2,0:2:0:0:
295,125,141866,2,0,P|354:58|485:89,1,216.000000823975,2|0,3:2|0:2,0:2:0:0:
507,146,142266,1,2,3:2:0:0:
295,125,142400,6,0,P|228:114|171:106,1,108.000000411987,10|0,3:2|0:2,0:2:0:0:
259,34,142666,1,2,0:2:0:0:
303,213,142800,6,0,P|215:198|142:188,1,162.000000617981,2|0,3:2|0:2,0:2:0:0:
142,189,143066,1,0,3:2:0:0:
86,14,143200,2,0,P|112:97|122:133,1,108.000000411987,10|0,3:2|0:2,0:2:0:0:
185,332,143466,2,0,P|215:228|248:125,1,216.000000823975,2|0,3:2|0:2,0:2:0:0:
276,50,143866,1,0,3:2:0:0:
144,190,144000,1,8,3:2:0:0:
117,117,144266,5,8,3:2:0:0:
297,266,144400,2,0,P|374:251|476:235,1,162.000000617981,2|0,3:2|0:2,0:2:0:0:
456,237,144666,1,0,3:2:0:0:
351,384,144800,2,0,P|358:320|398:285,1,108.000000411987,10|0,3:2|0:2,0:2:0:0:
160,130,145066,2,0,P|207:235|297:265,1,216.000000823975,2|0,3:2|0:2,0:2:0:0:
359,215,145466,1,2,3:2:0:0:
499,372,145600,2,0,P|491:300|487:251,1,108.000000411987,10|0,3:2|0:2,0:2:0:0:
333,9,145866,5,2,3:2:0:0:
333,9,145933,1,0,3:2:0:0:
333,9,146000,1,10,3:2:0:0:
346,112,146133,1,10,3:2:0:0:
359,215,146266,1,10,3:2:0:0:
414,353,146400,5,10,3:2:0:0:
425,266,146533,1,10,3:2:0:0:
437,178,146666,1,10,3:2:0:0:
490,56,146800,5,10,3:2:0:0:
500,130,146933,1,2,3:2:0:0:
509,204,147066,1,10,3:2:0:0:
359,215,147200,5,10,3:2:0:0:
500,130,147333,1,10,3:2:0:0:
425,266,147466,1,10,3:2:0:0:
254,138,147600,5,4,3:2:0:0:
407,177,148000,5,0,3:2:0:0:
333,154,148133,1,0,3:2:0:0:
410,160,148266,1,0,3:2:0:0:
254,218,148400,5,4,3:2:0:0:
103,251,148800,5,0,3:2:0:0:
177,228,148933,1,0,3:2:0:0:
100,234,149066,1,0,3:2:0:0:
254,298,149200,5,4,3:2:0:0:
254,379,149600,5,8,3:2:0:0:
254,58,150000,5,4,3:2:0:0:
256,192,150133,12,0,152400,0:2:0:0:
