osu file format v14

[General]
AudioFilename: Heterochromia Iridis.mp3
AudioLeadIn: 0
PreviewTime: 72093
Countdown: 0
SampleSet: Normal
StackLeniency: 0.7
Mode: 0
LetterboxInBreaks: 1
WidescreenStoryboard: 1

[Editor]
DistanceSpacing: 1.6
BeatDivisor: 3
GridSize: 16
TimelineZoom: 2.4

[Metadata]
Title:Heterochromia Iridis
TitleUnicode:Heterochromia Iridis
Artist:FOLiACETATE
ArtistUnicode:FOLiACETATE
Creator:Tassadar
Version:Nightmare
Source:BMS
Tags:
BeatmapID:899505
BeatmapSetID:415059

[Difficulty]
HPDrainRate:4
CircleSize:4
OverallDifficulty:9
ApproachRate:10
SliderMultiplier:2
SliderTickRate:2

[Events]
//Background and Video events
0,0,"BG.jpg",0,0
//Break Periods
2,52990,65185
2,114939,118862
//Storyboard Layer 0 (Background)
//Storyboard Layer 1 (Fail)
//Storyboard Layer 2 (Pass)
//Storyboard Layer 3 (Foreground)
//Storyboard Sound Samples

[TimingPoints]
3214,269.058295964126,4,1,0,100,1,0
3214,-100,4,1,0,100,0,0
72093,-100,4,1,0,100,0,1
89044,-100,4,1,0,100,0,0
89313,-100,4,1,0,100,0,1
101151,-100,4,1,0,100,0,0
102227,-100,4,1,0,100,0,1
106532,-100,4,1,0,100,0,0

[Colours]
Combo1 : 128,128,255
Combo2 : 110,110,110
Combo3 : 115,0,230
Combo4 : 166,0,0

[HitObjects]
147,113,3214,5,0,0:0:0:0:
392,319,3348,1,0,0:0:0:0:
392,319,3416,1,0,0:0:0:0:
392,319,3483,1,0,0:0:0:0:
291,53,3618,5,0,0:0:0:0:
230,337,3752,1,0,0:0:0:0:
391,152,3887,1,0,0:0:0:0:
391,152,3954,1,0,0:0:0:0:
391,152,4021,1,0,0:0:0:0:
115,222,4156,5,0,0:0:0:0:
392,319,4290,1,0,0:0:0:0:
227,110,4425,1,0,0:0:0:0:
227,110,4492,1,0,0:0:0:0:
227,110,4559,1,0,0:0:0:0:
281,351,4694,1,0,0:0:0:0:
419,192,4828,2,0,P|421:137|394:98,1,100
158,124,5097,2,0,L|186:222,1,100
384,345,5366,5,0,0:0:0:0:
90,100,5501,1,0,0:0:0:0:
169,337,5635,5,0,0:0:0:0:
365,98,5770,1,0,0:0:0:0:
79,241,5905,5,0,0:0:0:0:
318,323,6039,1,0,0:0:0:0:
195,61,6174,5,0,0:0:0:0:
195,61,6241,1,0,0:0:0:0:
195,61,6308,1,0,0:0:0:0:
195,61,6375,1,0,0:0:0:0:
195,61,6443,5,0,0:0:0:0:
228,353,6577,1,0,0:0:0:0:
390,128,6712,5,0,0:0:0:0:
118,227,6846,1,0,0:0:0:0:
346,328,6981,5,0,0:0:0:0:
192,124,7115,1,0,0:0:0:0:
151,343,7250,5,0,0:0:0:0:
151,343,7317,1,0,0:0:0:0:
151,343,7384,1,0,0:0:0:0:
151,343,7452,1,0,0:0:0:0:
151,343,7519,5,0,0:0:0:0:
387,175,7653,1,0,0:0:0:0:
63,112,7788,1,0,0:0:0:0:
309,328,7922,5,0,0:0:0:0:
309,328,7990,1,0,0:0:0:0:
309,328,8057,2,0,L|353:298,1,50
428,146,8192,2,0,L|384:176,1,50
241,217,8326,1,0,0:0:0:0:
207,227,8393,1,0,0:0:0:0:
171,227,8461,1,0,0:0:0:0:
137,218,8528,1,0,0:0:0:0:
107,199,8595,5,0,0:0:0:0:
87,170,8662,1,0,0:0:0:0:
78,135,8730,1,0,0:0:0:0:
84,100,8797,1,0,0:0:0:0:
102,70,8864,2,0,L|141:33,1,50
370,34,8999,1,0,0:0:0:0:
331,322,9133,5,0,0:0:0:0:
295,322,9201,1,0,0:0:0:0:
263,306,9268,1,0,0:0:0:0:
239,279,9335,1,0,0:0:0:0:
230,245,9402,2,0,P|214:185|226:152,1,100
403,45,9671,2,0,L|433:145,1,100
369,335,9940,5,0,0:0:0:0:
108,186,10075,1,0,0:0:0:0:
108,186,10209,1,0,0:0:0:0:
388,124,10344,5,0,0:0:0:0:
162,332,10479,1,0,0:0:0:0:
162,332,10613,1,0,0:0:0:0:
235,44,10748,5,0,0:0:0:0:
344,324,10882,1,0,0:0:0:0:
344,324,10949,1,0,0:0:0:0:
344,324,11017,1,0,0:0:0:0:
61,176,11151,5,0,0:0:0:0:
360,90,11286,1,0,0:0:0:0:
360,90,11420,1,0,0:0:0:0:
184,344,11555,5,0,0:0:0:0:
171,26,11689,1,0,0:0:0:0:
388,244,11824,2,0,P|413:300|393:334,1,100
108,321,12093,5,0,0:0:0:0:
91,37,12227,1,0,0:0:0:0:
91,37,12362,1,0,0:0:0:0:
354,147,12496,5,0,0:0:0:0:
62,203,12631,1,0,0:0:0:0:
62,203,12766,1,0,0:0:0:0:
315,23,12900,5,0,0:0:0:0:
207,335,13035,1,0,0:0:0:0:
207,335,13101,1,0,0:0:0:0:
207,335,13169,1,0,0:0:0:0:
163,35,13304,5,0,0:0:0:0:
389,292,13438,1,0,0:0:0:0:
389,292,13573,1,0,0:0:0:0:
91,205,13707,5,0,0:0:0:0:
392,38,13842,1,0,0:0:0:0:
291,320,13976,6,0,P|238:338|191:324,1,100
91,205,14245,2,0,P|84:146|193:66,1,200
312,142,14649,2,0,P|341:184|246:269,1,200
106,190,15053,2,0,L|221:27,1,200
406,194,15456,2,0,L|291:357,1,200,0|0,0:3|0:3,0:3:0:0:
121,283,15860,1,0,0:0:0:0:
140,106,15994,5,0,0:0:0:0:
140,106,16062,1,0,0:0:0:0:
189,83,16129,5,0,0:0:0:0:
288,85,16218,1,0,0:0:0:0:
360,154,16308,1,0,0:0:0:0:
371,240,16398,5,0,0:0:0:0:
333,318,16488,1,0,0:0:0:0:
251,343,16577,1,0,0:0:0:0:
180,320,16667,5,0,0:0:0:0:
133,263,16757,1,0,0:0:0:0:
121,191,16846,1,0,0:0:0:0:
145,136,16936,5,0,0:0:0:0:
195,103,17026,1,0,0:0:0:0:
253,113,17115,1,0,0:0:0:0:
294,156,17205,6,0,P|319:218|306:290,2,133.333333333333
101,56,17743,6,0,P|86:118|99:157,1,100
216,313,18012,2,0,P|231:251|218:212,1,100,0|0,0:3|0:3,0:3:0:0:
77,34,18281,5,0,0:0:0:0:
99,324,18416,1,0,0:0:0:0:
99,324,18483,1,0,0:0:0:0:
99,324,18550,1,0,0:0:0:0:
325,155,18685,1,0,0:0:0:0:
53,153,18954,5,0,0:0:0:0:
292,351,19088,1,0,0:0:0:0:
196,28,19223,1,0,0:0:0:0:
159,328,19357,5,0,0:0:0:0:
307,100,19492,1,0,0:0:0:0:
307,100,19559,1,0,0:0:0:0:
307,100,19627,1,0,0:0:0:0:
56,222,19761,1,0,0:0:0:0:
333,331,20030,5,0,0:0:0:0:
156,20,20165,1,0,0:0:0:0:
144,360,20299,1,0,0:0:0:0:
404,165,20434,5,0,0:0:0:0:
114,127,20568,1,0,0:0:0:0:
114,127,20635,1,0,0:0:0:0:
114,127,20703,1,0,0:0:0:0:
294,356,20837,1,0,0:0:0:0:
204,35,21106,5,0,0:0:0:0:
116,341,21241,1,0,0:0:0:0:
453,145,21375,1,0,0:0:0:0:
114,189,21510,5,0,0:0:0:0:
402,328,21644,1,0,0:0:0:0:
402,328,21712,1,0,0:0:0:0:
402,328,21779,1,0,0:0:0:0:
265,37,21914,1,0,0:0:0:0:
211,359,22183,5,0,0:0:0:0:
456,113,22317,1,0,0:0:0:0:
94,165,22452,1,0,0:0:0:0:
393,330,22586,5,0,0:0:0:0:
200,68,22721,1,0,0:0:0:0:
200,68,22788,1,0,0:0:0:0:
200,68,22855,1,0,0:0:0:0:
150,344,22990,1,0,0:0:0:0:
381,187,23259,5,0,0:0:0:0:
51,68,23393,1,0,0:0:0:0:
312,329,23528,1,0,0:0:0:0:
221,34,23662,5,0,0:0:0:0:
156,303,23797,1,0,0:0:0:0:
156,303,23864,1,0,0:0:0:0:
156,303,23931,1,0,0:0:0:0:
430,138,24066,1,0,0:0:0:0:
95,151,24335,5,0,0:0:0:0:
361,367,24470,1,0,0:0:0:0:
271,30,24604,1,0,0:0:0:0:
169,339,24739,5,0,0:0:0:0:
366,102,24873,1,0,0:0:0:0:
366,102,24940,1,0,0:0:0:0:
366,102,25008,1,0,0:0:0:0:
45,123,25142,1,0,0:0:0:0:
354,337,25411,5,0,0:0:0:0:
180,29,25546,1,0,0:0:0:0:
130,354,25680,1,0,0:0:0:0:
442,188,25815,5,0,0:0:0:0:
76,63,25949,1,0,0:0:0:0:
76,63,26017,1,0,0:0:0:0:
76,63,26084,1,0,0:0:0:0:
279,351,26218,1,0,0:0:0:0:
160,11,26488,5,0,0:0:0:0:
142,351,26622,1,0,0:0:0:0:
449,129,26757,1,0,0:0:0:0:
54,147,26891,5,0,0:0:0:0:
413,331,27026,1,0,0:0:0:0:
413,331,27093,1,0,0:0:0:0:
413,331,27160,1,0,0:0:0:0:
186,20,27295,1,0,0:0:0:0:
235,365,27429,5,0,0:0:0:0:
398,29,27564,1,0,0:0:0:0:
22,160,27698,5,0,0:0:0:0:
473,276,27833,1,0,0:0:0:0:
473,276,28102,5,0,0:0:0:0:
206,41,28236,1,0,0:0:0:0:
265,345,28370,1,0,0:0:0:0:
431,42,28505,5,0,0:0:0:0:
104,244,28640,1,0,0:0:0:0:
406,352,28775,5,0,0:0:0:0:
206,41,28909,1,0,0:0:0:0:
155,351,29044,5,0,0:0:0:0:
459,163,29178,1,0,0:0:0:0:
92,62,29313,2,0,L|76:114,1,50
79,220,29582,2,0,L|111:292,1,66.6666666666667
214,345,29761,2,0,L|288:327,1,66.6666666666667
409,234,29940,2,0,L|391:160,1,66.6666666666667,0|0,0:3|0:3,0:3:0:0:
273,33,30120,5,0,0:0:0:0:
273,33,30187,1,0,0:0:0:0:
273,33,30254,1,0,0:0:0:0:
273,33,30322,1,0,0:0:0:0:
213,35,30389,5,0,0:0:0:0:
161,64,30456,1,0,0:0:0:0:
140,120,30523,1,0,0:0:0:0:
155,178,30591,1,0,0:0:0:0:
200,216,30658,5,0,0:0:0:0:
200,216,30725,1,0,0:0:0:0:
200,216,30792,1,0,0:0:0:0:
200,216,30860,1,0,0:0:0:0:
257,231,30927,5,0,0:0:0:0:
311,206,30994,1,0,0:0:0:0:
342,154,31062,1,0,0:0:0:0:
335,94,31129,1,0,0:0:0:0:
301,44,31196,5,0,0:0:0:0:
63,151,31331,1,0,0:0:0:0:
63,151,31398,1,0,0:0:0:0:
63,151,31465,1,0,0:0:0:0:
396,330,31600,1,0,0:0:0:0:
170,38,31734,5,0,0:0:0:0:
223,354,31869,1,0,0:0:0:0:
431,75,32003,1,0,0:0:0:0:
88,244,32138,1,0,0:0:0:0:
406,326,32407,5,0,0:0:0:0:
214,27,32541,1,0,0:0:0:0:
144,330,32676,1,0,0:0:0:0:
426,81,32810,5,0,0:0:0:0:
426,81,32878,1,0,0:0:0:0:
426,81,32945,1,0,0:0:0:0:
98,160,33079,1,0,0:0:0:0:
367,350,33214,1,0,0:0:0:0:
196,34,33348,5,0,0:0:0:0:
171,353,33483,1,0,0:0:0:0:
436,157,33618,1,0,0:0:0:0:
436,157,33887,6,0,L|376:124,1,66.6666666666667
274,41,34066,2,0,L|241:101,1,66.6666666666667
168,195,34245,2,0,L|228:228,1,66.6666666666667
393,329,34425,6,0,L|432:268,1,66.6666666666667
332,85,34604,2,0,L|293:146,1,66.6666666666667
101,253,34783,2,0,L|140:192,1,66.6666666666667
366,32,34963,2,0,P|430:70|436:92,1,100
312,338,35232,2,0,P|248:300|242:278,1,100
95,123,35501,5,0,0:0:0:0:
131,75,35568,1,0,0:0:0:0:
183,46,35635,1,0,0:0:0:0:
242,58,35703,1,0,0:0:0:0:
284,100,35770,1,0,0:0:0:0:
305,155,35837,1,0,0:0:0:0:
296,215,35905,1,0,0:0:0:0:
251,254,35972,1,0,0:0:0:0:
191,260,36039,6,0,L|138:253,7,50
55,124,36577,5,0,0:0:0:0:
82,60,36644,1,0,0:0:0:0:
145,28,36712,1,0,0:0:0:0:
214,32,36779,1,0,0:0:0:0:
272,69,36846,2,0,L|304:113,1,50
371,320,36981,2,0,L|339:276,1,50
229,152,37115,5,0,0:0:0:0:
166,118,37183,1,0,0:0:0:0:
97,132,37250,1,0,0:0:0:0:
56,188,37317,1,0,0:0:0:0:
60,257,37384,2,0,L|81:310,3,50
228,344,37653,5,0,0:0:0:0:
440,137,37788,1,0,0:0:0:0:
405,76,37855,1,0,0:0:0:0:
338,53,37922,2,0,L|281:39,1,50
101,146,38057,1,0,0:0:0:0:
293,302,38192,6,0,L|337:275,3,50
107,312,38461,1,0,0:0:0:0:
75,288,38528,1,0,0:0:0:0:
58,251,38595,1,0,0:0:0:0:
56,211,38662,1,0,0:0:0:0:
71,173,38730,1,0,0:0:0:0:
97,143,38797,1,0,0:0:0:0:
133,126,38864,1,0,0:0:0:0:
172,120,38931,1,0,0:0:0:0:
211,128,38999,5,0,0:0:0:0:
353,339,39133,1,0,0:0:0:0:
117,213,39268,5,0,0:0:0:0:
97,178,39335,1,0,0:0:0:0:
99,138,39402,1,0,0:0:0:0:
111,99,39470,1,0,0:0:0:0:
140,71,39537,1,0,0:0:0:0:
177,56,39604,1,0,0:0:0:0:
216,58,39671,1,0,0:0:0:0:
251,77,39739,1,0,0:0:0:0:
274,109,39806,5,0,0:0:0:0:
254,110,39873,1,0,0:0:0:0:
234,116,39940,1,0,0:0:0:0:
217,126,40007,1,0,0:0:0:0:
202,139,40075,1,0,0:0:0:0:
190,155,40142,1,0,0:0:0:0:
182,173,40209,1,0,0:0:0:0:
179,193,40276,1,0,0:0:0:0:
179,213,40344,1,0,0:0:0:0:
184,232,40411,1,0,0:0:0:0:
193,250,40478,1,0,0:0:0:0:
205,266,40545,1,0,0:0:0:0:
221,278,40613,1,0,0:0:0:0:
239,287,40680,1,0,0:0:0:0:
258,292,40747,1,0,0:0:0:0:
278,292,40814,1,0,0:0:0:0:
298,289,40882,5,0,0:0:0:0:
299,279,40949,1,0,0:0:0:0:
300,269,41016,1,0,0:0:0:0:
301,259,41083,1,0,0:0:0:0:
302,249,41151,1,0,0:0:0:0:
303,239,41218,1,0,0:0:0:0:
304,229,41285,1,0,0:0:0:0:
306,219,41352,1,0,0:0:0:0:
307,209,41420,1,0,0:0:0:0:
308,199,41487,1,0,0:0:0:0:
309,189,41554,1,0,0:0:0:0:
310,179,41621,1,0,0:0:0:0:
311,169,41689,1,0,0:0:0:0:
312,159,41756,1,0,0:0:0:0:
314,148,41824,2,0,L|320:88,1,50
140,36,41958,5,0,0:0:0:0:
201,339,42093,1,0,0:0:0:0:
201,339,42160,1,0,0:0:0:0:
201,339,42227,1,0,0:0:0:0:
418,140,42362,1,0,0:0:0:0:
102,170,42496,1,0,0:0:0:0:
102,170,42564,1,0,0:0:0:0:
102,170,42631,1,0,0:0:0:0:
102,170,42698,1,0,0:0:0:0:
102,170,42766,5,0,0:0:0:0:
387,341,42900,1,0,0:0:0:0:
201,53,43035,1,0,0:0:0:0:
201,53,43102,1,0,0:0:0:0:
201,53,43169,1,0,0:0:0:0:
201,53,43236,1,0,0:0:0:0:
201,53,43304,5,0,0:0:0:0:
272,356,43438,1,0,0:0:0:0:
440,72,43573,1,0,0:0:0:0:
440,72,43640,1,0,0:0:0:0:
440,72,43707,1,0,0:0:0:0:
440,72,43775,1,0,0:0:0:0:
440,72,43842,5,0,0:0:0:0:
45,180,43976,1,0,0:0:0:0:
385,358,44111,5,0,0:0:0:0:
258,52,44245,1,0,0:0:0:0:
258,52,44313,1,0,0:0:0:0:
258,52,44380,1,0,0:0:0:0:
153,346,44514,1,0,0:0:0:0:
440,152,44649,5,0,0:0:0:0:
119,125,44783,1,0,0:0:0:0:
119,125,44851,1,0,0:0:0:0:
119,125,44918,1,0,0:0:0:0:
338,358,45053,1,0,0:0:0:0:
189,32,45187,5,0,0:0:0:0:
144,354,45322,1,0,0:0:0:0:
425,111,45456,5,0,0:0:0:0:
36,172,45591,1,0,0:0:0:0:
424,343,45725,5,0,0:0:0:0:
189,32,45860,1,0,0:0:0:0:
189,32,45927,1,0,0:0:0:0:
189,32,45994,1,0,0:0:0:0:
128,354,46129,1,0,0:0:0:0:
420,87,46263,5,0,0:0:0:0:
77,210,46398,1,0,0:0:0:0:
364,345,46532,5,0,0:0:0:0:
189,32,46667,1,0,0:0:0:0:
218,353,46801,5,0,0:0:0:0:
440,177,46936,1,0,0:0:0:0:
440,177,47003,1,0,0:0:0:0:
440,177,47070,1,0,0:0:0:0:
84,107,47205,1,0,0:0:0:0:
381,346,47340,5,0,0:0:0:0:
189,32,47474,1,0,0:0:0:0:
90,344,47609,5,0,0:0:0:0:
386,75,47743,1,0,0:0:0:0:
42,178,47878,5,0,0:0:0:0:
442,294,48012,1,0,0:0:0:0:
442,294,48079,1,0,0:0:0:0:
442,294,48147,1,0,0:0:0:0:
169,27,48281,1,0,0:0:0:0:
193,345,48416,5,0,0:0:0:0:
436,70,48550,1,0,0:0:0:0:
32,127,48685,5,0,0:0:0:0:
387,348,48819,1,0,0:0:0:0:
224,23,48954,5,0,0:0:0:0:
100,328,49088,1,0,0:0:0:0:
100,328,49155,1,0,0:0:0:0:
100,328,49222,5,0,0:0:0:0:
456,228,49357,1,0,0:0:0:0:
112,71,49492,5,0,0:0:0:0:
264,343,49627,1,0,0:0:0:0:
347,40,49761,5,0,0:0:0:0:
61,339,49896,1,0,0:0:0:0:
420,249,50030,2,0,P|438:157|429:131,1,100
123,295,50299,2,0,L|215:352,1,100
107,81,50568,5,0,0:0:0:0:
379,301,50703,1,0,0:0:0:0:
239,38,50837,5,0,0:0:0:0:
186,356,50972,1,0,0:0:0:0:
412,169,51106,5,0,0:0:0:0:
65,201,51241,1,0,0:0:0:0:
65,201,51308,1,0,0:0:0:0:
65,201,51375,1,0,0:0:0:0:
439,336,51510,1,0,0:0:0:0:
160,29,51644,5,0,0:0:0:0:
355,365,51779,1,0,0:0:0:0:
337,17,51914,5,0,0:0:0:0:
104,361,52048,1,0,0:0:0:0:
477,116,52183,5,0,0:0:0:0:
16,253,52317,1,0,0:0:0:0:
480,323,52452,5,0,0:0:0:0:
4,94,52586,1,0,0:0:0:0:
372,384,52721,5,0,0:0:0:0:
64,80,65635,5,0,0:0:0:0:
304,320,65770,1,0,0:0:0:0:
304,320,65837,1,0,0:0:0:0:
304,320,65905,1,0,0:0:0:0:
208,32,66039,1,0,0:0:0:0:
144,320,66174,1,0,0:0:0:0:
384,176,66308,5,0,0:0:0:0:
384,176,66375,1,0,0:0:0:0:
384,176,66443,1,0,0:0:0:0:
112,64,66577,5,0,0:0:0:0:
112,64,66644,1,0,0:0:0:0:
112,64,66711,1,0,0:0:0:0:
320,304,66846,1,0,0:0:0:0:
208,48,66981,5,0,0:0:0:0:
176,320,67115,1,0,0:0:0:0:
368,160,67250,5,0,0:0:0:0:
112,112,67384,1,0,0:0:0:0:
272,336,67519,5,0,0:0:0:0:
272,32,67653,1,0,0:0:0:0:
96,320,67788,5,0,0:0:0:0:
349,64,67922,1,0,0:0:0:0:
73,135,68057,5,0,0:0:0:0:
374,286,68192,1,0,0:0:0:0:
145,23,68326,5,0,0:0:0:0:
272,336,68461,1,0,0:0:0:0:
419,108,68595,5,0,0:0:0:0:
71,274,68730,1,0,0:0:0:0:
394,257,68864,5,0,0:0:0:0:
379,188,68931,1,0,0:0:0:0:
334,132,68999,1,0,0:0:0:0:
273,97,69066,1,0,0:0:0:0:
203,97,69133,6,0,L|149:110,3,50
91,247,69402,5,0,0:0:0:0:
142,295,69470,1,0,0:0:0:0:
210,308,69537,2,0,L|267:308,1,50
409,205,69671,1,0,0:0:0:0:
393,135,69739,1,0,0:0:0:0:
340,89,69806,2,0,L|287:64,1,50
77,79,69940,1,0,0:0:0:0:
256,192,70008,12,0,70882,0:0:0:0:
250,199,71017,5,0,0:0:0:0:
261,208,71084,1,0,0:0:0:0:
275,212,71151,1,0,0:0:0:0:
289,214,71218,1,0,0:0:0:0:
314,198,71286,5,0,0:0:0:0:
321,174,71353,1,0,0:0:0:0:
314,150,71420,1,0,0:0:0:0:
295,132,71488,1,0,0:0:0:0:
266,112,71555,5,0,0:0:0:0:
231,112,71622,1,0,0:0:0:0:
189,129,71689,5,0,0:0:0:0:
172,171,71757,1,0,0:0:0:0:
172,225,71824,5,0,0:0:0:0:
207,278,71891,5,0,0:0:0:0:
279,295,71958,5,0,0:0:0:0:
359,265,72026,5,0,0:0:0:0:
412,186,72093,5,0,0:0:0:0:
113,37,72227,1,0,0:0:0:0:
113,37,72295,1,0,0:0:0:0:
113,37,72362,1,0,0:0:0:0:
212,344,72496,1,0,0:0:0:0:
347,99,72631,5,0,0:0:0:0:
59,186,72766,1,0,0:0:0:0:
342,337,72900,5,0,0:0:0:0:
188,30,73035,1,0,0:0:0:0:
120,348,73169,5,0,0:0:0:0:
430,157,73304,1,0,0:0:0:0:
430,157,73371,1,0,0:0:0:0:
430,157,73438,1,0,0:0:0:0:
81,135,73573,1,0,0:0:0:0:
297,353,73707,5,0,0:0:0:0:
188,30,73842,1,0,0:0:0:0:
62,326,73976,5,0,0:0:0:0:
388,177,74111,1,0,0:0:0:0:
66,46,74245,5,0,0:0:0:0:
206,337,74380,1,0,0:0:0:0:
206,337,74447,1,0,0:0:0:0:
206,337,74514,1,0,0:0:0:0:
320,31,74649,1,0,0:0:0:0:
66,212,74783,5,0,0:0:0:0:
407,323,74918,1,0,0:0:0:0:
196,27,75053,5,0,0:0:0:0:
288,349,75187,1,0,0:0:0:0:
441,32,75322,5,0,0:0:0:0:
107,262,75456,1,0,0:0:0:0:
107,262,75523,1,0,0:0:0:0:
107,262,75591,1,0,0:0:0:0:
470,297,75725,1,0,0:0:0:0:
137,42,75860,5,0,0:0:0:0:
378,358,75994,1,0,0:0:0:0:
337,32,76129,5,0,0:0:0:0:
101,317,76263,1,0,0:0:0:0:
451,197,76398,5,0,0:0:0:0:
75,98,76532,1,0,0:0:0:0:
75,98,76600,1,0,0:0:0:0:
75,98,76667,1,0,0:0:0:0:
313,345,76801,1,0,0:0:0:0:
237,38,76936,1,0,0:0:0:0:
171,341,77070,5,0,0:0:0:0:
436,91,77205,1,0,0:0:0:0:
436,91,77272,1,0,0:0:0:0:
436,91,77340,1,0,0:0:0:0:
89,156,77474,5,0,0:0:0:0:
433,331,77609,1,0,0:0:0:0:
433,331,77676,1,0,0:0:0:0:
433,331,77743,1,0,0:0:0:0:
200,46,77878,1,0,0:0:0:0:
229,343,78012,5,0,0:0:0:0:
408,47,78147,1,0,0:0:0:0:
107,212,78281,1,0,0:0:0:0:
107,212,78348,1,0,0:0:0:0:
107,212,78416,1,0,0:0:0:0:
406,325,78550,5,0,0:0:0:0:
217,19,78685,1,0,0:0:0:0:
217,19,78752,1,0,0:0:0:0:
217,19,78819,1,0,0:0:0:0:
221,345,78954,1,0,0:0:0:0:
456,117,79088,5,0,0:0:0:0:
72,150,79223,1,0,0:0:0:0:
364,340,79357,1,0,0:0:0:0:
364,340,79425,1,0,0:0:0:0:
364,340,79492,1,0,0:0:0:0:
156,35,79627,6,0,L|100:54,3,50
108,216,79896,2,0,L|52:235,3,50
276,262,80165,5,0,0:0:0:0:
290,259,80232,1,0,0:0:0:0:
303,251,80299,1,0,0:0:0:0:
313,240,80366,1,0,0:0:0:0:
351,168,80434,5,0,0:0:0:0:
348,88,80501,1,0,0:0:0:0:
303,21,80568,1,0,0:0:0:0:
224,5,80635,1,0,0:0:0:0:
151,41,80703,5,0,0:0:0:0:
196,342,80837,1,0,0:0:0:0:
196,342,80905,1,0,0:0:0:0:
196,342,80972,1,0,0:0:0:0:
459,138,81106,1,0,0:0:0:0:
55,140,81241,5,0,0:0:0:0:
51,159,81308,1,0,0:0:0:0:
55,178,81375,1,0,0:0:0:0:
62,196,81443,1,0,0:0:0:0:
130,237,81510,5,0,0:0:0:0:
140,253,81577,1,0,0:0:0:0:
157,262,81644,1,0,0:0:0:0:
176,268,81712,1,0,0:0:0:0:
254,254,81779,5,0,0:0:0:0:
412,21,81914,1,0,0:0:0:0:
412,21,81981,1,0,0:0:0:0:
412,21,82048,1,0,0:0:0:0:
112,142,82183,1,0,0:0:0:0:
422,344,82317,5,0,0:0:0:0:
422,344,82384,1,0,0:0:0:0:
422,344,82452,1,0,0:0:0:0:
149,40,82586,1,0,0:0:0:0:
149,40,82653,1,0,0:0:0:0:
149,40,82721,1,0,0:0:0:0:
211,346,82855,5,0,0:0:0:0:
416,43,82990,1,0,0:0:0:0:
416,43,83057,1,0,0:0:0:0:
416,43,83124,1,0,0:0:0:0:
71,186,83259,2,0,L|97:232,1,50
274,345,83393,5,0,0:0:0:0:
294,342,83461,1,0,0:0:0:0:
310,331,83528,1,0,0:0:0:0:
323,316,83595,1,0,0:0:0:0:
381,261,83662,5,0,0:0:0:0:
394,233,83730,1,0,0:0:0:0:
395,203,83797,1,0,0:0:0:0:
385,174,83864,1,0,0:0:0:0:
323,123,83931,5,0,0:0:0:0:
64,324,84066,1,0,0:0:0:0:
64,324,84133,1,0,0:0:0:0:
64,324,84201,1,0,0:0:0:0:
450,315,84335,1,0,0:0:0:0:
134,43,84470,5,0,0:0:0:0:
270,363,84604,1,0,0:0:0:0:
387,45,84739,1,0,0:0:0:0:
387,45,84806,1,0,0:0:0:0:
387,45,84873,1,0,0:0:0:0:
40,247,85008,5,0,0:0:0:0:
481,172,85142,1,0,0:0:0:0:
478,142,85209,1,0,0:0:0:0:
463,115,85277,1,0,0:0:0:0:
52,42,85411,1,0,0:0:0:0:
388,360,85546,5,0,0:0:0:0:
405,335,85613,1,0,0:0:0:0:
414,306,85680,1,0,0:0:0:0:
413,275,85748,1,0,0:0:0:0:
401,247,85815,1,0,0:0:0:0:
39,134,85949,1,0,0:0:0:0:
315,363,86084,5,0,0:0:0:0:
327,336,86151,1,0,0:0:0:0:
333,306,86218,1,0,0:0:0:0:
329,275,86286,1,0,0:0:0:0:
319,246,86353,2,0,L|300:200,1,50
71,43,86488,2,0,L|90:89,1,50,0|0,0:3|0:3,0:3:0:0:
188,293,86622,5,0,0:0:0:0:
214,306,86689,1,0,0:0:0:0:
244,308,86757,1,0,0:0:0:0:
273,302,86824,1,0,0:0:0:0:
299,288,86891,2,0,L|345:261,1,50
211,42,87026,2,0,L|165:69,1,50
66,235,87160,5,0,0:0:0:0:
102,294,87227,1,0,0:0:0:0:
163,328,87295,1,0,0:0:0:0:
232,330,87362,1,0,0:0:0:0:
297,305,87429,1,0,0:0:0:0:
337,248,87496,1,0,0:0:0:0:
346,177,87564,2,0,L|326:128,1,50
163,21,87698,5,0,0:0:0:0:
152,32,87765,1,0,0:0:0:0:
142,43,87832,1,0,0:0:0:0:
132,54,87899,1,0,0:0:0:0:
88,121,87967,5,0,0:0:0:0:
99,131,88034,1,0,0:0:0:0:
110,141,88101,1,0,0:0:0:0:
121,151,88168,1,0,0:0:0:0:
177,208,88236,6,0,L|226:234,3,50
291,142,88505,2,0,L|340:168,3,50
425,289,88775,5,0,0:0:0:0:
407,306,88842,1,0,0:0:0:0:
384,315,88909,1,0,0:0:0:0:
359,312,88976,1,0,0:0:0:0:
278,307,89044,5,0,0:0:0:0:
209,266,89111,1,0,0:0:0:0:
174,194,89178,1,0,0:0:0:0:
174,114,89245,1,0,0:0:0:0:
213,43,89313,5,0,0:0:0:0:
464,225,89447,1,0,0:0:0:0:
464,225,89514,1,0,0:0:0:0:
464,225,89582,1,0,0:0:0:0:
70,306,89716,1,0,0:0:0:0:
342,42,89851,5,0,0:0:0:0:
238,346,89985,1,0,0:0:0:0:
132,42,90120,5,0,0:0:0:0:
461,158,90254,1,0,0:0:0:0:
164,329,90389,6,0,L|107:341,1,50
15,159,90523,2,0,L|72:147,1,50
226,133,90658,1,0,0:0:0:0:
273,147,90725,1,0,0:0:0:0:
304,185,90792,1,0,0:0:0:0:
313,234,90860,1,0,0:0:0:0:
308,283,90927,6,0,L|296:333,3,50
137,222,91196,2,0,L|125:272,3,50
77,99,91465,5,0,0:0:0:0:
133,42,91532,1,0,0:0:0:0:
213,32,91600,1,0,0:0:0:0:
289,54,91667,1,0,0:0:0:0:
334,119,91734,2,0,L|356:169,1,50
395,313,91869,5,0,0:0:0:0:
321,344,91936,1,0,0:0:0:0:
245,319,92003,1,0,0:0:0:0:
192,259,92070,1,0,0:0:0:0:
160,184,92138,2,0,L|161:128,1,50
316,45,92272,5,0,0:0:0:0:
390,77,92340,1,0,0:0:0:0:
417,151,92407,1,0,0:0:0:0:
391,226,92474,1,0,0:0:0:0:
339,287,92541,2,0,L|293:313,1,50
46,245,92676,5,0,0:0:0:0:
14,171,92743,1,0,0:0:0:0:
16,96,92810,1,0,0:0:0:0:
60,34,92878,1,0,0:0:0:0:
134,27,92945,1,0,0:0:0:0:
191,75,93012,1,0,0:0:0:0:
223,142,93079,1,0,0:0:0:0:
293,170,93147,1,0,0:0:0:0:
348,119,93214,1,0,0:0:0:0:
316,45,93281,1,0,0:0:0:0:
241,40,93348,2,0,L|215:20,7,25
387,53,93618,5,0,0:0:0:0:
387,53,93685,1,0,0:0:0:0:
387,53,93752,1,0,0:0:0:0:
387,53,93819,1,0,0:0:0:0:
387,53,93887,1,0,0:0:0:0:
178,345,94021,1,0,0:0:0:0:
188,32,94156,1,0,0:0:0:0:
416,330,94290,5,0,0:0:0:0:
52,199,94425,1,0,0:0:0:0:
421,83,94559,1,0,0:0:0:0:
272,326,94693,5,0,0:0:0:0:
255,338,94761,1,0,0:0:0:0:
235,340,94828,1,0,0:0:0:0:
215,338,94895,1,0,0:0:0:0:
135,335,94962,5,0,0:0:0:0:
116,326,95030,1,0,0:0:0:0:
105,310,95097,1,0,0:0:0:0:
96,291,95164,1,0,0:0:0:0:
33,241,95231,5,0,0:0:0:0:
31,220,95299,1,0,0:0:0:0:
39,202,95366,1,0,0:0:0:0:
51,185,95433,1,0,0:0:0:0:
92,117,95500,5,0,0:0:0:0:
109,105,95568,1,0,0:0:0:0:
129,103,95635,1,0,0:0:0:0:
150,105,95702,1,0,0:0:0:0:
233,125,95770,5,0,0:0:0:0:
299,168,95837,1,0,0:0:0:0:
313,247,95905,1,0,0:0:0:0:
271,315,95972,1,0,0:0:0:0:
193,334,96039,1,0,0:0:0:0:
36,150,96174,5,0,0:3:0:0:
66,76,96241,1,0,0:3:0:0:
133,32,96308,1,0,0:3:0:0:
212,30,96375,1,0,0:3:0:0:
275,79,96443,1,0,0:3:0:0:
449,243,96577,5,0,0:0:0:0:
414,315,96644,1,0,0:0:0:0:
342,353,96712,1,0,0:0:0:0:
262,352,96779,1,0,0:0:0:0:
201,300,96846,1,0,0:0:0:0:
389,114,96981,5,0,0:0:0:0:
262,359,97115,1,0,0:0:0:0:
262,359,97183,1,0,0:0:0:0:
262,359,97250,2,0,P|194:351|159:284,1,150
210,129,97519,2,0,P|284:138|288:292,1,250
102,348,97922,5,0,0:0:0:0:
309,27,98192,1,0,0:0:0:0:
354,355,98461,2,0,P|283:353|221:225,1,200
138,47,98864,1,0,0:0:0:0:
304,50,98999,6,0,P|349:88|351:137,1,100
266,329,99268,2,0,P|221:291|219:242,1,100
74,157,99537,2,0,L|163:97,1,100
235,37,99739,2,0,P|272:70|265:121,1,100
190,195,99940,2,0,L|245:221,1,50
331,298,100075,6,0,P|391:247|376:117,1,200
267,47,100479,1,0,0:0:0:0:
100,125,100613,2,0,L|92:179,1,50
191,310,100748,2,0,L|199:256,1,50
301,138,100882,2,0,L|293:192,1,50
392,323,101017,2,0,L|400:269,1,50
442,93,101151,1,0,0:0:0:0:
101,74,101689,6,0,P|99:131|126:160,1,100
320,106,101891,2,0,P|346:150|326:200,1,100
152,326,102093,1,0,0:0:0:0:
189,104,102227,5,0,0:0:0:0:
401,341,102361,1,0,0:0:0:0:
71,262,102496,5,0,0:0:0:0:
426,77,102631,1,0,0:0:0:0:
230,348,102765,5,0,0:0:0:0:
102,16,102900,1,0,0:0:0:0:
442,192,103034,5,0,0:0:0:0:
71,262,103169,1,0,0:0:0:0:
333,17,103303,5,0,0:0:0:0:
230,348,103438,1,0,0:0:0:0:
64,48,103572,5,0,0:0:0:0:
448,323,103707,1,0,0:0:0:0:
71,262,103841,5,0,0:0:0:0:
439,31,103976,1,0,0:0:0:0:
254,354,104110,5,0,0:0:0:0:
41,26,104245,1,0,0:0:0:0:
408,135,104379,5,0,0:0:0:0:
420,209,104447,1,0,0:0:0:0:
395,279,104514,1,0,0:0:0:0:
330,316,104581,1,0,0:0:0:0:
255,307,104648,1,0,0:0:0:0:
189,269,104716,1,0,0:0:0:0:
151,204,104783,1,0,0:0:0:0:
156,129,104850,1,0,0:0:0:0:
212,78,104918,6,0,L|256:47,1,50
395,279,105052,2,0,L|351:310,1,50
127,331,105187,1,0,0:0:0:0:
55,295,105254,1,0,0:0:0:0:
21,222,105321,1,0,0:0:0:0:
26,142,105388,1,0,0:0:0:0:
77,79,105456,6,0,L|136:29,1,66.6666666666667
435,305,105635,2,0,L|376:355,1,66.6666666666667
219,28,105814,2,0,L|295:14,1,66.6666666666667
142,371,105994,6,0,L|93:312,1,66.6666666666667,0|0,0:0|0:0,0:0:0:0:
368,13,106173,2,0,L|419:72,1,66.6666666666667,0|0,0:0|0:0,0:0:0:0:
92,229,106352,2,0,L|78:152,1,66.6666666666667,0|0,0:0|0:0,0:0:0:0:
313,286,106532,5,0,0:0:0:0:
425,120,106801,1,0,0:0:0:0:
235,55,107070,5,0,0:0:0:0:
102,205,107340,1,0,0:0:0:0:
258,329,107609,5,0,0:0:0:0:
329,142,107878,1,0,0:0:0:0:
129,134,108147,5,0,0:0:0:0:
279,265,108416,1,0,0:0:0:0:
358,81,108685,5,0,0:0:0:0:
59,347,109223,1,0,0:0:0:0:
432,203,109761,1,0,0:0:0:0:
432,203,110299,5,0,0:0:0:0:
433,188,110366,1,0,0:0:0:0:
429,173,110434,1,0,0:0:0:0:
419,161,110501,1,0,0:0:0:0:
334,113,110568,5,0,0:0:0:0:
284,161,110635,1,0,0:0:0:0:
266,229,110703,1,0,0:0:0:0:
299,290,110770,1,0,0:0:0:0:
362,318,110837,5,0,0:0:0:0:
401,33,110972,1,0,0:0:0:0:
401,33,111039,1,0,0:0:0:0:
401,33,111106,1,0,0:0:0:0:
80,151,111241,5,0,0:0:0:0:
337,348,111375,1,0,0:0:0:0:
337,348,111443,1,0,0:0:0:0:
337,348,111510,1,0,0:0:0:0:
160,30,111644,5,0,0:0:0:0:
194,360,111779,1,0,0:0:0:0:
194,360,111846,1,0,0:0:0:0:
194,360,111914,1,0,0:0:0:0:
455,190,112048,5,0,0:0:0:0:
70,71,112183,1,0,0:0:0:0:
346,330,112317,1,0,0:0:0:0:
251,52,112452,5,0,0:0:0:0:
251,52,112519,1,0,0:0:0:0:
251,52,112586,1,0,0:0:0:0:
113,336,112721,1,0,0:0:0:0:
113,336,112788,1,0,0:0:0:0:
113,336,112855,1,0,0:0:0:0:
440,106,112990,5,0,0:0:0:0:
59,143,113124,1,0,0:0:0:0:
340,347,113259,2,0,P|376:299|377:258,1,100
92,34,113662,1,0,0:0:0:0:
218,351,113931,5,0,0:0:0:0:
383,53,114066,1,0,0:0:0:0:
344,62,114133,1,0,0:0:0:0:
309,83,114201,1,0,0:0:0:0:
140,252,114335,5,0,0:0:0:0:
176,268,114402,1,0,0:0:0:0:
215,274,114470,1,0,0:0:0:0:
455,112,114604,1,0,0:0:0:0:
46,46,114739,1,0,0:0:0:0:
111,90,119312,5,0,0:0:0:0:
111,90,119379,1,0,0:0:0:0:
111,90,119447,5,0,0:0:0:0:
182,203,119537,1,0,0:0:0:0:
299,266,119627,1,0,0:0:0:0:
398,213,119716,5,0,0:0:0:0:
431,105,119805,1,0,0:0:0:0:
355,19,119895,1,0,0:0:0:0:
261,18,119985,5,0,0:0:0:0:
197,84,120074,1,0,0:0:0:0:
198,177,120164,1,0,0:0:0:0:
247,231,120254,5,0,0:0:0:0:
317,253,120344,1,0,0:0:0:0:
389,247,120433,1,0,0:0:0:0:
461,235,120523,6,0,L|476:263,1,25
268,68,120725,2,0,L|250:37,1,25
127,286,120927,2,0,L|142:314,1,25
385,343,121062,5,0,0:0:0:0:
101,48,121196,1,0,0:0:0:0:
280,355,121331,1,0,0:0:0:0:
280,355,121398,1,0,0:0:0:0:
280,355,121465,1,0,0:0:0:0:
356,36,121600,5,0,0:0:0:0:
38,246,121734,1,0,0:0:0:0:
38,246,121801,1,0,0:0:0:0:
38,246,121869,1,0,0:0:0:0:
466,275,122003,1,0,0:0:0:0:
71,54,122138,5,0,0:0:0:0:
331,355,122272,1,0,0:0:0:0:
331,355,122340,1,0,0:0:0:0:
331,355,122407,1,0,0:0:0:0:
251,32,122541,1,0,0:0:0:0:
98,353,122676,5,0,0:0:0:0:
495,157,122810,1,0,0:0:0:0:
495,157,122878,1,0,0:0:0:0:
495,157,122945,1,0,0:0:0:0:
37,61,123079,1,0,0:0:0:0:
345,349,123214,5,0,0:0:0:0:
345,349,123281,1,0,0:0:0:0:
345,349,123348,1,0,0:0:0:0:
345,349,123416,1,0,0:0:0:0:
345,349,123483,1,0,0:0:0:0:
345,349,123550,1,0,0:0:0:0:
345,349,123618,1,0,0:0:0:0:
345,349,123685,1,0,0:0:0:0:
345,349,123752,5,0,0:0:0:0:
