osu file format v14

[General]
AudioFilename: Heterochromia Iridis.mp3
AudioLeadIn: 0
PreviewTime: 72026
Countdown: 0
SampleSet: Normal
StackLeniency: 0.7
Mode: 1
LetterboxInBreaks: 0
WidescreenStoryboard: 1

[Editor]
DistanceSpacing: 0.6
BeatDivisor: 4
GridSize: 8
TimelineZoom: 2.6

[Metadata]
Title:Heterochromia Iridis
TitleUnicode:Heterochromia Iridis
Artist:FOLiACETATE
ArtistUnicode:FOLiACETATE
Creator:Midnaait
Version:Inner Oni
Source:BMS
Tags:leaf/sak
BeatmapID:327937
BeatmapSetID:129869

[Difficulty]
HPDrainRate:5
CircleSize:4
OverallDifficulty:7
ApproachRate:5
SliderMultiplier:1.4
SliderTickRate:1

[Events]
//Background and Video events
0,0,"background.jpg",0,0
//Break Periods
//Storyboard Layer 0 (Background)
//Storyboard Layer 1 (Fail)
//Storyboard Layer 2 (Pass)
//Storyboard Layer 3 (Foreground)
//Storyboard Sound Samples

[TimingPoints]
1062,269.058295964126,4,1,0,100,1,0
53124,-114.942528735632,4,1,0,100,0,0
53797,-133.333333333333,4,1,0,100,0,0
65366,-125,4,1,0,100,0,0
65501,-117.647058823529,4,1,0,100,0,0
65635,-111.111111111111,4,1,0,100,0,0
71017,-105.263157894737,4,1,0,100,0,0
72093,-100,4,1,0,100,0,0
89313,-93.4579439252336,4,1,0,100,0,1
106532,-100,4,1,0,100,0,0
107609,-114.942528735632,4,1,0,100,0,0
108685,-133.333333333333,4,1,0,100,0,0
110299,-111.111111111111,4,1,0,100,0,0
110837,-100,4,1,0,100,0,0

[Colours]
Combo1 : 18,124,255
Combo2 : 255,128,0

[HitObjects]
176,96,3214,5,0,0:0:0:0:
176,96,3348,1,0,0:0:0:0:
176,96,3416,1,0,0:0:0:0:
176,96,3483,1,0,0:0:0:0:
176,96,3618,1,8,0:0:0:0:
176,96,3685,1,8,0:0:0:0:
176,96,3752,1,0,0:0:0:0:
176,96,3887,1,0,0:0:0:0:
176,96,3954,1,0,0:0:0:0:
176,96,4021,1,0,0:0:0:0:
176,96,4156,1,8,0:0:0:0:
176,96,4290,1,0,0:0:0:0:
176,96,4425,1,0,0:0:0:0:
176,96,4492,1,0,0:0:0:0:
176,96,4559,1,0,0:0:0:0:
176,96,4694,1,8,0:0:0:0:
176,96,4828,1,4,0:0:0:0:
176,96,5097,1,12,0:0:0:0:
176,96,5366,1,4,0:0:0:0:
176,96,5501,1,0,0:0:0:0:
176,96,5635,1,8,0:0:0:0:
176,96,5770,1,0,0:0:0:0:
176,96,5905,1,0,0:0:0:0:
176,96,6039,1,8,0:0:0:0:
176,96,6174,1,8,0:0:0:0:
176,96,6241,1,8,0:0:0:0:
176,96,6308,1,8,0:0:0:0:
176,96,6375,1,8,0:0:0:0:
176,96,6443,1,0,0:0:0:0:
176,96,6577,1,8,0:0:0:0:
176,96,6644,1,8,0:0:0:0:
176,96,6712,1,8,0:0:0:0:
176,96,6846,1,0,0:0:0:0:
176,96,6914,1,8,0:0:0:0:
176,96,6981,1,0,0:0:0:0:
176,96,7115,1,8,0:0:0:0:
176,96,7250,1,4,0:0:0:0:
176,96,7519,1,0,0:0:0:0:
176,96,7586,1,0,0:0:0:0:
176,96,7653,1,0,0:0:0:0:
176,96,7721,1,0,0:0:0:0:
176,96,7788,1,8,0:0:0:0:
176,96,7922,1,8,0:0:0:0:
176,96,7990,1,8,0:0:0:0:
176,96,8057,1,0,0:0:0:0:
176,96,8124,1,0,0:0:0:0:
176,96,8192,1,0,0:0:0:0:
176,96,8259,1,0,0:0:0:0:
176,96,8326,1,8,0:0:0:0:
176,96,8393,1,0,0:0:0:0:
176,96,8461,1,8,0:0:0:0:
176,96,8595,1,0,0:0:0:0:
176,96,8662,1,0,0:0:0:0:
176,96,8730,1,8,0:0:0:0:
176,96,8864,1,8,0:0:0:0:
176,96,8931,1,8,0:0:0:0:
176,96,8999,1,0,0:0:0:0:
176,96,9066,1,8,0:0:0:0:
176,96,9133,1,0,0:0:0:0:
176,96,9268,1,0,0:0:0:0:
176,96,9335,1,0,0:0:0:0:
176,96,9402,1,8,0:0:0:0:
176,96,9671,1,0,0:0:0:0:
176,96,9806,1,0,0:0:0:0:
176,96,9940,1,8,0:0:0:0:
176,96,10075,1,0,0:0:0:0:
176,96,10209,1,0,0:0:0:0:
176,96,10277,1,0,0:0:0:0:
176,96,10344,1,8,0:0:0:0:
176,96,10479,1,0,0:0:0:0:
176,96,10748,1,0,0:0:0:0:
176,96,10882,1,0,0:0:0:0:
176,96,10949,1,0,0:0:0:0:
176,96,11017,1,8,0:0:0:0:
176,96,11151,1,0,0:0:0:0:
176,96,11286,1,0,0:0:0:0:
176,96,11420,1,8,0:0:0:0:
176,96,11555,1,0,0:0:0:0:
176,96,11824,1,0,0:0:0:0:
176,96,11958,1,0,0:0:0:0:
176,96,12093,1,8,0:0:0:0:
176,96,12227,1,0,0:0:0:0:
176,96,12362,1,0,0:0:0:0:
176,96,12429,1,0,0:0:0:0:
176,96,12496,1,8,0:0:0:0:
176,96,12631,1,0,0:0:0:0:
176,96,12900,1,0,0:0:0:0:
176,96,13035,1,0,0:0:0:0:
176,96,13102,1,0,0:0:0:0:
176,96,13169,1,8,0:0:0:0:
176,96,13304,1,0,0:0:0:0:
176,96,13438,1,0,0:0:0:0:
176,96,13573,1,8,0:0:0:0:
176,96,13707,1,0,0:0:0:0:
168,96,13976,1,0,0:0:0:0:
184,96,14111,1,8,0:0:0:0:
184,96,14245,1,0,0:0:0:0:
184,96,14514,1,8,0:0:0:0:
184,96,14649,1,0,0:0:0:0:
184,96,14918,1,8,0:0:0:0:
184,96,15053,1,0,0:0:0:0:
184,96,15322,1,8,0:0:0:0:
184,96,15456,1,8,0:0:0:0:
184,96,15725,1,8,0:0:0:0:
184,96,15860,1,8,0:0:0:0:
176,96,15994,1,0,0:0:0:0:
176,96,16062,1,0,0:0:0:0:
176,96,16129,1,8,0:0:0:0:
176,96,16218,1,0,0:0:0:0:
176,96,16308,1,8,0:0:0:0:
176,96,16398,1,0,0:0:0:0:
176,96,16488,1,8,0:0:0:0:
176,96,16577,1,0,0:0:0:0:
176,96,16667,1,8,0:0:0:0:
176,96,16757,1,0,0:0:0:0:
176,96,16846,1,8,0:0:0:0:
176,96,16936,1,0,0:0:0:0:
176,96,17026,1,8,0:0:0:0:
176,96,17115,1,8,0:0:0:0:
176,96,17205,1,4,0:0:0:0:
176,96,17384,1,4,0:0:0:0:
176,96,17564,1,4,0:0:0:0:
256,192,17743,12,0,18147,0:0:0:0:
176,96,18281,5,0,0:0:0:0:
176,96,18416,1,0,0:0:0:0:
176,96,18483,1,0,0:0:0:0:
176,96,18550,1,8,0:0:0:0:
176,96,18685,1,0,0:0:0:0:
176,96,18819,1,0,0:0:0:0:
176,96,18954,1,0,0:0:0:0:
176,96,19088,1,8,0:0:0:0:
176,96,19223,1,0,0:0:0:0:
176,96,19357,1,0,0:0:0:0:
176,96,19559,1,0,0:0:0:0:
176,96,19627,1,8,0:0:0:0:
176,96,19761,1,0,0:0:0:0:
176,96,19896,1,0,0:0:0:0:
176,96,19963,1,0,0:0:0:0:
176,96,20030,1,8,0:0:0:0:
176,96,20097,1,0,0:0:0:0:
176,96,20165,1,8,0:0:0:0:
176,96,20299,1,0,0:0:0:0:
176,96,20434,1,0,0:0:0:0:
176,96,20568,1,0,0:0:0:0:
176,96,20635,1,0,0:0:0:0:
176,96,20703,1,8,0:0:0:0:
176,96,20837,1,0,0:0:0:0:
176,96,20972,1,8,0:0:0:0:
176,96,21106,1,0,0:0:0:0:
176,96,21174,1,0,0:0:0:0:
176,96,21241,1,8,0:0:0:0:
176,96,21375,1,0,0:0:0:0:
176,96,21510,1,0,0:0:0:0:
176,96,21712,1,0,0:0:0:0:
176,96,21779,1,8,0:0:0:0:
176,96,21914,1,0,0:0:0:0:
176,96,22048,1,0,0:0:0:0:
176,96,22183,1,0,0:0:0:0:
176,96,22250,1,0,0:0:0:0:
176,96,22317,1,8,0:0:0:0:
176,96,22452,1,0,0:0:0:0:
176,96,22519,1,8,0:0:0:0:
176,96,22586,1,0,0:0:0:0:
176,96,22721,1,0,0:0:0:0:
176,96,22788,1,0,0:0:0:0:
176,96,22855,1,8,0:0:0:0:
176,96,22990,1,0,0:0:0:0:
176,96,23124,1,0,0:0:0:0:
176,96,23192,1,0,0:0:0:0:
176,96,23259,1,0,0:0:0:0:
176,96,23393,1,8,0:0:0:0:
176,96,23528,1,0,0:0:0:0:
176,96,23662,1,0,0:0:0:0:
176,96,23864,1,0,0:0:0:0:
176,96,23931,1,8,0:0:0:0:
176,96,24066,1,0,0:0:0:0:
176,96,24133,1,0,0:0:0:0:
176,96,24201,1,8,0:0:0:0:
176,96,24268,1,8,0:0:0:0:
176,96,24335,1,0,0:0:0:0:
176,96,24470,1,8,0:0:0:0:
176,96,24604,1,0,0:0:0:0:
176,96,24739,1,0,0:0:0:0:
176,96,24873,1,0,0:0:0:0:
176,96,24940,1,0,0:0:0:0:
176,96,25008,1,8,0:0:0:0:
176,96,25142,1,0,0:0:0:0:
176,96,25277,1,8,0:0:0:0:
176,96,25411,1,8,0:0:0:0:
176,96,25479,1,8,0:0:0:0:
176,96,25546,1,0,0:0:0:0:
176,96,25680,1,0,0:0:0:0:
176,96,25815,1,0,0:0:0:0:
176,96,25949,1,0,0:0:0:0:
176,96,26017,1,0,0:0:0:0:
176,96,26084,1,8,0:0:0:0:
176,96,26218,1,0,0:0:0:0:
176,96,26286,1,8,0:0:0:0:
176,96,26353,1,0,0:0:0:0:
176,96,26488,1,0,0:0:0:0:
176,96,26555,1,0,0:0:0:0:
176,96,26622,1,8,0:0:0:0:
176,96,26689,1,8,0:0:0:0:
176,96,26757,1,0,0:0:0:0:
176,96,26891,1,4,0:0:0:0:
176,96,27026,1,0,0:0:0:0:
176,96,27093,1,0,0:0:0:0:
176,96,27160,1,8,0:0:0:0:
176,96,27227,1,0,0:0:0:0:
176,96,27295,1,0,0:0:0:0:
176,96,27429,1,8,0:0:0:0:
176,96,27564,1,0,0:0:0:0:
176,96,27698,1,0,0:0:0:0:
176,96,27833,1,12,0:0:0:0:
176,96,28102,1,0,0:0:0:0:
176,96,28236,1,8,0:0:0:0:
176,96,28371,1,8,0:0:0:0:
176,96,28438,1,8,0:0:0:0:
176,96,28505,1,0,0:0:0:0:
176,96,28775,1,8,0:0:0:0:
176,96,28842,1,8,0:0:0:0:
176,96,28909,1,0,0:0:0:0:
176,96,28976,1,0,0:0:0:0:
176,96,29044,1,0,0:0:0:0:
176,96,29178,1,0,0:0:0:0:
176,96,29313,1,12,0:0:0:0:
176,96,29582,1,12,0:0:0:0:
176,96,29716,1,0,0:0:0:0:
176,96,29784,1,8,0:0:0:0:
176,96,29918,1,0,0:0:0:0:
176,96,29985,1,8,0:0:0:0:
176,96,30120,1,8,0:0:0:0:
176,96,30187,1,0,0:0:0:0:
176,96,30254,1,0,0:0:0:0:
176,96,30322,1,0,0:0:0:0:
176,96,30389,1,8,0:0:0:0:
176,96,30456,1,8,0:0:0:0:
176,96,30523,1,0,0:0:0:0:
176,96,30591,1,0,0:0:0:0:
176,96,30658,1,8,0:0:0:0:
176,96,30725,1,0,0:0:0:0:
176,96,30792,1,0,0:0:0:0:
176,96,30860,1,0,0:0:0:0:
176,96,30927,1,8,0:0:0:0:
176,96,30994,1,8,0:0:0:0:
176,96,31061,1,0,0:0:0:0:
176,96,31196,1,4,0:0:0:0:
176,96,31398,1,0,0:0:0:0:
176,96,31465,1,8,0:0:0:0:
176,96,31600,1,0,0:0:0:0:
176,96,31734,1,0,0:0:0:0:
176,96,32003,1,0,0:0:0:0:
176,96,32138,1,8,0:0:0:0:
176,96,32205,1,8,0:0:0:0:
176,96,32272,1,0,0:0:0:0:
176,96,32407,1,0,0:0:0:0:
176,96,32541,1,8,0:0:0:0:
176,96,32676,1,0,0:0:0:0:
176,96,32743,1,0,0:0:0:0:
176,96,32810,1,8,0:0:0:0:
176,96,32945,1,0,0:0:0:0:
176,96,33012,1,0,0:0:0:0:
176,96,33079,1,8,0:0:0:0:
176,96,33147,1,8,0:0:0:0:
176,96,33214,1,0,0:0:0:0:
176,96,33348,1,0,0:0:0:0:
176,96,33483,1,12,0:0:0:0:
176,96,33618,1,12,0:0:0:0:
176,96,33887,1,8,0:0:0:0:
176,96,34021,1,0,0:0:0:0:
176,96,34088,1,8,0:0:0:0:
176,96,34223,1,0,0:0:0:0:
176,96,34290,1,8,0:0:0:0:
176,96,34425,1,8,0:0:0:0:
176,96,34559,1,0,0:0:0:0:
176,96,34627,1,8,0:0:0:0:
176,96,34761,1,0,0:0:0:0:
176,96,34828,1,8,0:0:0:0:
176,96,34963,1,4,0:0:0:0:
176,96,35232,1,12,0:0:0:0:
176,96,35501,1,4,0:0:0:0:
176,96,35635,1,0,0:0:0:0:
176,96,35703,1,0,0:0:0:0:
176,96,35770,1,8,0:0:0:0:
176,96,35905,1,0,0:0:0:0:
176,96,36039,1,0,0:0:0:0:
176,96,36106,1,0,0:0:0:0:
176,96,36174,1,8,0:0:0:0:
176,96,36308,1,0,0:0:0:0:
176,96,36353,1,0,0:0:0:0:
176,96,36398,1,0,0:0:0:0:
176,96,36443,1,8,0:0:0:0:
176,96,36577,1,0,0:0:0:0:
176,96,36644,1,0,0:0:0:0:
176,96,36712,1,8,0:0:0:0:
176,96,36779,1,0,0:0:0:0:
176,96,36846,1,8,0:0:0:0:
176,96,36981,1,0,0:0:0:0:
176,96,37048,1,8,0:0:0:0:
176,96,37115,1,0,0:0:0:0:
176,96,37183,1,0,0:0:0:0:
176,96,37250,1,0,0:0:0:0:
176,96,37317,1,0,0:0:0:0:
176,96,37384,1,8,0:0:0:0:
176,96,37452,1,8,0:0:0:0:
176,96,37519,1,8,0:0:0:0:
176,96,37653,1,8,0:0:0:0:
176,96,37788,1,8,0:0:0:0:
176,96,37833,1,8,0:0:0:0:
176,96,37878,1,8,0:0:0:0:
176,96,37922,1,8,0:0:0:0:
176,96,38057,1,8,0:0:0:0:
176,96,38124,1,8,0:0:0:0:
176,96,38192,1,0,0:0:0:0:
176,96,38259,1,0,0:0:0:0:
176,96,38326,1,8,0:0:0:0:
176,96,38393,1,8,0:0:0:0:
176,96,38461,1,0,0:0:0:0:
176,96,38528,1,0,0:0:0:0:
176,96,38595,1,8,0:0:0:0:
176,96,38662,1,8,0:0:0:0:
176,96,38730,1,0,0:0:0:0:
176,96,38797,1,0,0:0:0:0:
176,96,38864,1,0,0:0:0:0:
176,96,38931,1,0,0:0:0:0:
176,96,38999,1,8,0:0:0:0:
176,96,39133,1,0,0:0:0:0:
176,96,39201,1,8,0:0:0:0:
176,96,39268,1,0,0:0:0:0:
176,96,39335,1,0,0:0:0:0:
176,96,39402,1,0,0:0:0:0:
176,96,39470,1,0,0:0:0:0:
176,96,39537,1,8,0:0:0:0:
176,96,39604,1,8,0:0:0:0:
176,96,39671,1,8,0:0:0:0:
176,96,39739,1,8,0:0:0:0:
176,96,39806,1,0,0:0:0:0:
176,96,40008,1,0,0:0:0:0:
176,96,40075,1,8,0:0:0:0:
176,96,40209,1,0,0:0:0:0:
176,96,40344,1,0,0:0:0:0:
176,96,40411,1,0,0:0:0:0:
176,96,40479,1,8,0:0:0:0:
176,96,40613,1,0,0:0:0:0:
176,96,40658,1,0,0:0:0:0:
176,96,40703,1,0,0:0:0:0:
176,96,40748,1,8,0:0:0:0:
176,96,40882,1,8,0:0:0:0:
176,96,40949,1,8,0:0:0:0:
176,96,41017,1,8,0:0:0:0:
176,96,41084,1,8,0:0:0:0:
176,96,41151,1,0,0:0:0:0:
176,96,41286,1,0,0:0:0:0:
176,96,41353,1,0,0:0:0:0:
176,96,41420,1,8,0:0:0:0:
176,96,41488,1,8,0:0:0:0:
176,96,41555,1,8,0:0:0:0:
176,96,41622,1,8,0:0:0:0:
176,96,41689,1,0,0:0:0:0:
176,96,41958,1,8,0:0:0:0:
176,96,42093,1,8,0:0:0:0:
176,96,42160,1,8,0:0:0:0:
176,96,42227,1,8,0:0:0:0:
176,96,42362,1,8,0:0:0:0:
176,96,42496,2,0,L|192:96,16,8.75
176,96,42900,1,8,0:0:0:0:
176,96,43035,2,0,L|192:96,17,8.75
176,96,43438,1,8,0:0:0:0:
176,96,43573,1,12,0:0:0:0:
176,96,43842,1,4,0:0:0:0:
176,96,43976,1,4,0:0:0:0:
176,96,44111,1,12,0:0:0:0:
176,96,44245,1,0,0:0:0:0:
176,96,44313,1,0,0:0:0:0:
176,96,44380,1,8,0:0:0:0:
176,96,44514,1,0,0:0:0:0:
176,96,44649,1,0,0:0:0:0:
176,96,44783,1,8,0:0:0:0:
176,96,44851,1,8,0:0:0:0:
176,96,44918,1,0,0:0:0:0:
176,96,45053,1,0,0:0:0:0:
176,96,45187,1,0,0:0:0:0:
176,96,45389,1,0,0:0:0:0:
176,96,45456,1,8,0:0:0:0:
176,96,45591,1,0,0:0:0:0:
176,96,45658,1,0,0:0:0:0:
176,96,45725,1,8,0:0:0:0:
176,96,45860,1,0,0:0:0:0:
176,96,45994,1,8,0:0:0:0:
176,96,46129,1,8,0:0:0:0:
176,96,46263,1,0,0:0:0:0:
176,96,46398,1,0,0:0:0:0:
176,96,46443,1,0,0:0:0:0:
176,96,46488,1,0,0:0:0:0:
176,96,46532,1,8,0:0:0:0:
176,96,46667,1,0,0:0:0:0:
176,96,46801,1,0,0:0:0:0:
176,96,46936,1,0,0:0:0:0:
176,96,47003,1,8,0:0:0:0:
176,96,47070,1,0,0:0:0:0:
176,96,47205,1,0,0:0:0:0:
176,96,47340,1,0,0:0:0:0:
176,96,47407,1,0,0:0:0:0:
176,96,47474,1,8,0:0:0:0:
176,96,47541,1,0,0:0:0:0:
176,96,47609,1,8,0:0:0:0:
176,96,47743,1,0,0:0:0:0:
176,96,47810,1,0,0:0:0:0:
176,96,47878,1,8,0:0:0:0:
176,96,48012,1,0,0:0:0:0:
176,96,48079,1,8,0:0:0:0:
176,96,48147,1,0,0:0:0:0:
176,96,48281,1,0,0:0:0:0:
176,96,48416,1,8,0:0:0:0:
176,96,48618,1,0,0:0:0:0:
176,96,48685,1,8,0:0:0:0:
176,96,48819,1,0,0:0:0:0:
176,96,48954,1,0,0:0:0:0:
176,96,49021,1,0,0:0:0:0:
176,96,49088,1,8,0:0:0:0:
176,96,49156,1,8,0:0:0:0:
176,96,49223,1,0,0:0:0:0:
176,96,49357,1,8,0:0:0:0:
176,96,49492,1,0,0:0:0:0:
176,96,49627,1,0,0:0:0:0:
176,96,49671,1,0,0:0:0:0:
176,96,49716,1,0,0:0:0:0:
176,96,49761,1,8,0:0:0:0:
176,96,49896,1,0,0:0:0:0:
176,96,50030,1,8,0:0:0:0:
176,96,50097,1,8,0:0:0:0:
176,96,50165,1,0,0:0:0:0:
176,96,50232,1,0,0:0:0:0:
176,96,50299,1,8,0:0:0:0:
176,96,50434,1,0,0:0:0:0:
176,96,50568,1,4,0:0:0:0:
176,96,50837,1,12,0:0:0:0:
176,96,51106,1,4,0:0:0:0:
176,96,51241,1,8,0:0:0:0:
176,96,51308,1,8,0:0:0:0:
176,96,51375,1,0,0:0:0:0:
176,96,51510,1,0,0:0:0:0:
176,96,51644,1,0,0:0:0:0:
176,96,51712,1,0,0:0:0:0:
176,96,51779,1,8,0:0:0:0:
176,96,51846,1,0,0:0:0:0:
176,96,51914,1,8,0:0:0:0:
176,96,51981,1,8,0:0:0:0:
176,96,52048,1,0,0:0:0:0:
176,96,52183,1,8,0:0:0:0:
176,96,52250,1,8,0:0:0:0:
176,96,52317,1,8,0:0:0:0:
176,96,52384,1,8,0:0:0:0:
176,96,52452,1,0,0:0:0:0:
176,96,52519,1,0,0:0:0:0:
176,96,52586,1,0,0:0:0:0:
176,96,52721,1,4,0:0:0:0:
168,88,53124,1,8,0:0:0:0:
168,88,53797,1,8,0:0:0:0:
160,88,54201,1,8,0:0:0:0:
160,88,54604,1,8,0:0:0:0:
160,88,54873,1,0,0:0:0:0:
160,80,57026,1,0,0:0:0:0:
160,80,57429,1,8,0:0:0:0:
160,80,58102,1,0,0:0:0:0:
160,80,58371,1,8,0:0:0:0:
160,80,58640,1,8,0:0:0:0:
160,80,58909,1,0,0:0:0:0:
160,80,59178,1,0,0:0:0:0:
168,96,60254,1,0,0:0:0:0:
168,96,60792,1,0,0:0:0:0:
168,96,61331,1,0,0:0:0:0:
168,96,61600,1,0,0:0:0:0:
168,96,61869,1,8,0:0:0:0:
168,96,62138,1,0,0:0:0:0:
168,96,62272,1,8,0:0:0:0:
168,96,62407,1,0,0:0:0:0:
168,96,62541,1,8,0:0:0:0:
168,96,62676,1,0,0:0:0:0:
168,96,62945,1,8,0:0:0:0:
168,96,63214,1,0,0:0:0:0:
168,96,63348,1,8,0:0:0:0:
168,96,63483,1,0,0:0:0:0:
168,96,63618,1,8,0:0:0:0:
168,96,63752,1,0,0:0:0:0:
168,96,63887,1,0,0:0:0:0:
168,96,64021,1,8,0:0:0:0:
168,96,64290,1,0,0:0:0:0:
168,96,64425,1,8,0:0:0:0:
168,96,64492,1,8,0:0:0:0:
168,96,64559,1,0,0:0:0:0:
168,96,64828,1,0,0:0:0:0:
168,96,64963,1,0,0:0:0:0:
168,96,65097,1,8,0:0:0:0:
168,96,65366,1,8,0:0:0:0:
168,96,65501,1,8,0:0:0:0:
168,96,65635,1,4,0:0:0:0:
168,96,65905,1,8,0:0:0:0:
168,96,66039,1,0,0:0:0:0:
168,96,66106,1,0,0:0:0:0:
168,96,66174,1,0,0:0:0:0:
168,96,66308,1,8,0:0:0:0:
168,96,66375,1,8,0:0:0:0:
168,96,66443,1,0,0:0:0:0:
168,96,66577,1,8,0:0:0:0:
168,96,66644,1,0,0:0:0:0:
168,96,66712,1,0,0:0:0:0:
168,96,66846,1,0,0:0:0:0:
168,96,66981,1,8,0:0:0:0:
168,96,67115,1,0,0:0:0:0:
168,96,67183,1,8,0:0:0:0:
168,96,67250,1,0,0:0:0:0:
168,96,67384,1,0,0:0:0:0:
168,96,67452,1,0,0:0:0:0:
168,96,67519,1,8,0:0:0:0:
168,96,67653,1,8,0:0:0:0:
168,96,67788,1,0,0:0:0:0:
168,96,67922,1,0,0:0:0:0:
168,96,68057,1,8,0:0:0:0:
168,96,68192,1,0,0:0:0:0:
168,96,68259,1,0,0:0:0:0:
168,96,68326,1,8,0:0:0:0:
168,96,68461,1,0,0:0:0:0:
168,96,68595,1,8,0:0:0:0:
168,96,68730,1,0,0:0:0:0:
168,96,68797,1,8,0:0:0:0:
168,96,68864,1,0,0:0:0:0:
168,96,68931,1,0,0:0:0:0:
168,96,68999,1,0,0:0:0:0:
168,96,69066,1,0,0:0:0:0:
168,96,69133,1,8,0:0:0:0:
168,96,69200,1,8,0:0:0:0:
168,96,69268,1,8,0:0:0:0:
168,96,69335,1,8,0:0:0:0:
168,96,69402,1,0,0:0:0:0:
168,96,69469,1,0,0:0:0:0:
168,96,69537,1,8,0:0:0:0:
168,96,69671,1,12,0:0:0:0:
168,96,69940,1,4,0:0:0:0:
168,96,71017,1,0,0:0:0:0:
168,96,71084,1,0,0:0:0:0:
168,96,71152,1,0,0:0:0:0:
168,96,71219,1,0,0:0:0:0:
168,96,71286,1,8,0:0:0:0:
168,96,71353,1,8,0:0:0:0:
168,96,71421,1,8,0:0:0:0:
168,96,71488,1,8,0:0:0:0:
168,96,71555,1,0,0:0:0:0:
168,96,71622,1,0,0:0:0:0:
168,96,71690,1,0,0:0:0:0:
168,96,71757,1,0,0:0:0:0:
168,96,71824,1,8,0:0:0:0:
168,104,71891,1,8,0:0:0:0:
176,96,71958,1,8,0:0:0:0:
168,96,72093,1,4,0:0:0:0:
168,96,72227,1,0,0:0:0:0:
168,96,72295,1,0,0:0:0:0:
168,96,72362,1,8,0:0:0:0:
168,96,72496,1,0,0:0:0:0:
168,96,72631,1,0,0:0:0:0:
168,96,72766,1,0,0:0:0:0:
168,96,72833,1,0,0:0:0:0:
168,96,72900,1,8,0:0:0:0:
168,96,73035,1,0,0:0:0:0:
168,96,73102,1,8,0:0:0:0:
168,96,73169,1,0,0:0:0:0:
168,96,73304,1,0,0:0:0:0:
168,96,73371,1,0,0:0:0:0:
168,96,73438,1,8,0:0:0:0:
168,96,73573,1,0,0:0:0:0:
168,96,73640,1,0,0:0:0:0:
168,96,73707,1,8,0:0:0:0:
168,96,73775,1,8,0:0:0:0:
168,96,73842,1,0,0:0:0:0:
168,96,73976,1,8,0:0:0:0:
168,96,74111,1,0,0:0:0:0:
168,96,74178,1,8,0:0:0:0:
168,96,74245,1,0,0:0:0:0:
168,96,74380,1,0,0:0:0:0:
168,96,74447,1,0,0:0:0:0:
168,96,74514,1,8,0:0:0:0:
168,96,74649,1,0,0:0:0:0:
168,96,74716,1,0,0:0:0:0:
168,96,74783,1,0,0:0:0:0:
168,96,74851,1,8,0:0:0:0:
168,96,74918,1,0,0:0:0:0:
168,96,75053,1,8,0:0:0:0:
168,96,75187,1,0,0:0:0:0:
168,96,75322,1,0,0:0:0:0:
168,96,75456,1,0,0:0:0:0:
168,96,75523,1,0,0:0:0:0:
168,96,75591,1,8,0:0:0:0:
168,96,75725,1,0,0:0:0:0:
168,96,75792,1,8,0:0:0:0:
168,96,75860,1,0,0:0:0:0:
168,96,75927,1,0,0:0:0:0:
168,96,75994,1,0,0:0:0:0:
168,96,76129,1,8,0:0:0:0:
168,96,76196,1,8,0:0:0:0:
168,96,76263,1,8,0:0:0:0:
168,96,76331,1,8,0:0:0:0:
168,96,76398,1,0,0:0:0:0:
168,96,76600,1,0,0:0:0:0:
168,96,76667,1,8,0:0:0:0:
168,96,76801,1,0,0:0:0:0:
168,96,76869,1,0,0:0:0:0:
168,96,77003,1,8,0:0:0:0:
168,96,77070,1,0,0:0:0:0:
168,96,77205,1,8,0:0:0:0:
168,96,77340,1,0,0:0:0:0:
168,96,77407,1,8,0:0:0:0:
168,96,77474,1,0,0:0:0:0:
168,96,77609,1,0,0:0:0:0:
168,96,77676,1,0,0:0:0:0:
168,96,77743,1,8,0:0:0:0:
168,96,77878,1,0,0:0:0:0:
168,96,77945,1,0,0:0:0:0:
168,96,78012,1,8,0:0:0:0:
168,96,78079,1,0,0:0:0:0:
168,96,78147,1,0,0:0:0:0:
168,96,78281,1,8,0:0:0:0:
168,96,78416,1,0,0:0:0:0:
168,96,78550,1,0,0:0:0:0:
168,96,78618,1,0,0:0:0:0:
168,96,78685,1,0,0:0:0:0:
168,96,78752,1,0,0:0:0:0:
168,96,78819,1,8,0:0:0:0:
168,96,78954,1,0,0:0:0:0:
168,96,79021,1,0,0:0:0:0:
168,96,79088,1,0,0:0:0:0:
168,96,79156,1,8,0:0:0:0:
168,96,79223,1,0,0:0:0:0:
168,96,79357,1,8,0:0:0:0:
168,96,79492,1,0,0:0:0:0:
168,96,79627,1,0,0:0:0:0:
168,96,79694,1,0,0:0:0:0:
168,96,79761,1,0,0:0:0:0:
168,96,79828,1,0,0:0:0:0:
168,96,79896,1,8,0:0:0:0:
168,96,80030,1,0,0:0:0:0:
168,96,80097,1,8,0:0:0:0:
168,96,80165,1,0,0:0:0:0:
168,96,80232,1,8,0:0:0:0:
168,96,80299,1,0,0:0:0:0:
168,96,80434,1,8,0:0:0:0:
168,96,80501,1,8,0:0:0:0:
168,96,80568,1,8,0:0:0:0:
168,96,80703,1,4,0:0:0:0:
168,96,80837,1,0,0:0:0:0:
168,96,80905,1,0,0:0:0:0:
168,96,80972,1,8,0:0:0:0:
168,96,81106,1,0,0:0:0:0:
168,96,81174,1,0,0:0:0:0:
168,96,81241,1,0,0:0:0:0:
168,96,81308,1,0,0:0:0:0:
168,96,81375,1,0,0:0:0:0:
168,96,81510,1,8,0:0:0:0:
168,96,81644,1,0,0:0:0:0:
168,96,81712,1,8,0:0:0:0:
168,96,81779,1,0,0:0:0:0:
168,96,81981,1,0,0:0:0:0:
168,96,82048,1,8,0:0:0:0:
168,96,82183,1,0,0:0:0:0:
168,96,82317,1,0,0:0:0:0:
168,96,82384,1,8,0:0:0:0:
168,96,82452,1,0,0:0:0:0:
168,96,82586,1,8,0:0:0:0:
168,96,82721,1,0,0:0:0:0:
168,96,82855,1,0,0:0:0:0:
168,96,82922,1,0,0:0:0:0:
168,96,82990,1,0,0:0:0:0:
168,96,83057,1,0,0:0:0:0:
168,96,83124,1,8,0:0:0:0:
168,96,83259,1,0,0:0:0:0:
168,96,83327,1,0,0:0:0:0:
168,96,83394,1,8,0:0:0:0:
168,96,83528,1,0,0:0:0:0:
168,96,83662,1,8,0:0:0:0:
168,96,83730,1,8,0:0:0:0:
168,96,83797,1,0,0:0:0:0:
168,96,83864,1,0,0:0:0:0:
168,96,83931,1,0,0:0:0:0:
168,96,84066,1,0,0:0:0:0:
168,96,84133,1,0,0:0:0:0:
168,96,84201,1,8,0:0:0:0:
168,96,84335,1,0,0:0:0:0:
168,96,84604,1,0,0:0:0:0:
168,96,84739,1,8,0:0:0:0:
168,96,84873,1,8,0:0:0:0:
168,96,85008,1,4,0:0:0:0:
168,96,85142,1,0,0:0:0:0:
168,96,85209,1,0,0:0:0:0:
168,96,85277,1,8,0:0:0:0:
168,96,85411,1,0,0:0:0:0:
168,96,85479,1,0,0:0:0:0:
168,96,85546,1,8,0:0:0:0:
168,96,85680,1,0,0:0:0:0:
168,96,85748,1,8,0:0:0:0:
168,96,85815,1,0,0:0:0:0:
168,96,85949,1,0,0:0:0:0:
168,96,86084,1,0,0:0:0:0:
168,96,86151,1,0,0:0:0:0:
168,96,86218,1,8,0:0:0:0:
168,96,86353,1,8,0:0:0:0:
168,96,86488,1,0,0:0:0:0:
168,96,86622,1,8,0:0:0:0:
168,96,86757,1,0,0:0:0:0:
168,96,86824,1,8,0:0:0:0:
168,96,86891,1,0,0:0:0:0:
168,96,87026,1,0,0:0:0:0:
168,96,87160,1,0,0:0:0:0:
168,96,87228,1,0,0:0:0:0:
168,96,87295,1,8,0:0:0:0:
168,96,87362,1,0,0:0:0:0:
168,96,87429,1,8,0:0:0:0:
168,96,87564,1,0,0:0:0:0:
168,96,87698,1,0,0:0:0:0:
168,96,87833,1,8,0:0:0:0:
168,96,87967,1,0,0:0:0:0:
168,96,88035,1,0,0:0:0:0:
168,96,88102,1,8,0:0:0:0:
168,96,88236,1,0,0:0:0:0:
168,96,88304,1,0,0:0:0:0:
168,96,88371,1,8,0:0:0:0:
168,96,88438,1,0,0:0:0:0:
168,96,88505,1,0,0:0:0:0:
168,96,88573,1,0,0:0:0:0:
168,96,88641,1,8,0:0:0:0:
168,96,88708,1,0,0:0:0:0:
168,96,88775,1,0,0:0:0:0:
168,96,88842,1,0,0:0:0:0:
168,96,88909,1,0,0:0:0:0:
168,96,88976,1,0,0:0:0:0:
168,96,89044,1,8,0:0:0:0:
168,96,89111,1,8,0:0:0:0:
168,96,89178,1,8,0:0:0:0:
168,96,89313,1,4,0:0:0:0:
168,96,89514,1,0,0:0:0:0:
168,96,89582,1,8,0:0:0:0:
168,96,89716,1,0,0:0:0:0:
168,96,89783,1,0,0:0:0:0:
168,96,89851,1,0,0:0:0:0:
168,96,89985,1,0,0:0:0:0:
168,96,90120,1,8,0:0:0:0:
168,96,90254,1,0,0:0:0:0:
168,96,90389,1,0,0:0:0:0:
168,96,90456,1,0,0:0:0:0:
168,96,90523,1,8,0:0:0:0:
168,96,90591,1,0,0:0:0:0:
168,96,90658,1,8,0:0:0:0:
168,96,90792,1,8,0:0:0:0:
168,96,90860,1,8,0:0:0:0:
168,96,90927,1,0,0:0:0:0:
168,96,90994,1,8,0:0:0:0:
168,96,91062,1,0,0:0:0:0:
168,96,91196,1,8,0:0:0:0:
168,96,91331,1,0,0:0:0:0:
168,96,91465,1,8,0:0:0:0:
168,96,91532,1,8,0:0:0:0:
168,96,91600,1,8,0:0:0:0:
168,96,91667,1,8,0:0:0:0:
168,96,91734,1,0,0:0:0:0:
168,96,91869,1,8,0:0:0:0:
168,96,91936,1,8,0:0:0:0:
168,96,92003,1,8,0:0:0:0:
168,96,92070,1,0,0:0:0:0:
168,96,92138,1,0,0:0:0:0:
168,96,92272,1,8,0:0:0:0:
168,96,92340,1,8,0:0:0:0:
168,96,92407,1,0,0:0:0:0:
168,96,92474,1,0,0:0:0:0:
168,96,92541,1,0,0:0:0:0:
168,96,92676,1,8,0:0:0:0:
168,96,92743,1,0,0:0:0:0:
168,96,92810,1,0,0:0:0:0:
168,96,92878,1,0,0:0:0:0:
168,96,92945,1,0,0:0:0:0:
168,96,93079,1,8,0:0:0:0:
168,96,93147,1,8,0:0:0:0:
168,96,93214,1,0,0:0:0:0:
168,96,93281,1,0,0:0:0:0:
168,96,93348,1,8,0:0:0:0:
168,96,93416,1,8,0:0:0:0:
168,96,93483,1,0,0:0:0:0:
168,96,93618,1,0,0:0:0:0:
168,96,93685,1,0,0:0:0:0:
168,96,93752,1,0,0:0:0:0:
168,96,93819,1,0,0:0:0:0:
168,96,93887,1,8,0:0:0:0:
168,96,94021,1,0,0:0:0:0:
168,96,94156,1,0,0:0:0:0:
168,96,94223,1,8,0:0:0:0:
168,96,94290,1,8,0:0:0:0:
168,96,94425,1,0,0:0:0:0:
168,96,94492,1,8,0:0:0:0:
168,96,94559,1,0,0:0:0:0:
168,96,94694,1,0,0:0:0:0:
168,96,94828,1,0,0:0:0:0:
168,96,94963,1,8,0:0:0:0:
168,96,95165,1,8,0:0:0:0:
168,96,95232,1,0,0:0:0:0:
168,96,95366,1,8,0:0:0:0:
168,96,95501,1,8,0:0:0:0:
168,96,95635,1,8,0:0:0:0:
168,96,95703,1,8,0:0:0:0:
168,96,95770,1,0,0:0:0:0:
168,96,95837,1,0,0:0:0:0:
168,96,95905,1,0,0:0:0:0:
168,96,95972,1,0,0:0:0:0:
168,96,96039,1,8,0:0:0:0:
168,96,96174,1,0,0:0:0:0:
168,96,96241,1,0,0:0:0:0:
168,96,96308,1,0,0:0:0:0:
168,96,96375,1,8,0:0:0:0:
168,96,96443,1,8,0:0:0:0:
168,96,96577,1,0,0:0:0:0:
168,96,96644,1,0,0:0:0:0:
168,96,96712,1,8,0:0:0:0:
168,96,96779,1,8,0:0:0:0:
168,96,96846,1,8,0:0:0:0:
168,96,96981,1,0,0:0:0:0:
168,96,97048,1,8,0:0:0:0:
168,96,97115,1,0,0:0:0:0:
168,96,97250,1,4,0:0:0:0:
168,96,97519,1,12,0:0:0:0:
168,96,97922,1,0,0:0:0:0:
168,96,98057,1,8,0:0:0:0:
168,96,98192,1,0,0:0:0:0:
168,96,98461,1,0,0:0:0:0:
168,96,98595,1,8,0:0:0:0:
168,96,98730,1,0,0:0:0:0:
168,96,98864,1,8,0:0:0:0:
168,96,99133,1,0,0:0:0:0:
168,96,99268,1,8,0:0:0:0:
168,96,99537,1,12,0:0:0:0:
168,96,99716,1,12,0:0:0:0:
168,96,99896,1,12,0:0:0:0:
168,96,100075,1,4,0:0:0:0:
168,96,100344,1,0,0:0:0:0:
168,96,100411,1,0,0:0:0:0:
168,96,100479,1,0,0:0:0:0:
168,96,100546,1,0,0:0:0:0:
168,96,100613,1,8,0:0:0:0:
168,96,100748,1,0,0:0:0:0:
168,96,100815,1,0,0:0:0:0:
168,96,100882,1,8,0:0:0:0:
168,96,101017,1,4,0:0:0:0:
168,96,101689,1,4,0:0:0:0:
168,96,101869,1,4,0:0:0:0:
168,96,102048,1,12,0:0:0:0:
168,96,102227,1,12,0:0:0:0:
168,96,102362,1,0,0:0:0:0:
168,96,102496,1,0,0:0:0:0:
168,96,102631,1,0,0:0:0:0:
168,96,102766,1,0,0:0:0:0:
168,96,102900,1,0,0:0:0:0:
168,96,103035,1,0,0:0:0:0:
168,96,103169,1,0,0:0:0:0:
168,96,103304,1,0,0:0:0:0:
168,96,103438,1,0,0:0:0:0:
168,96,103573,1,0,0:0:0:0:
168,96,103707,1,0,0:0:0:0:
168,96,103842,1,0,0:0:0:0:
168,96,103976,1,0,0:0:0:0:
168,96,104111,1,0,0:0:0:0:
168,96,104245,1,0,0:0:0:0:
168,96,104380,1,8,0:0:0:0:
168,96,104447,1,8,0:0:0:0:
168,96,104515,1,0,0:0:0:0:
168,96,104582,1,0,0:0:0:0:
168,96,104649,1,8,0:0:0:0:
168,96,104716,1,8,0:0:0:0:
168,96,104784,1,0,0:0:0:0:
168,96,104851,1,0,0:0:0:0:
168,96,104918,1,8,0:0:0:0:
168,96,104985,1,8,0:0:0:0:
168,96,105053,1,0,0:0:0:0:
168,96,105120,1,0,0:0:0:0:
168,96,105187,1,8,0:0:0:0:
168,96,105277,1,8,0:0:0:0:
168,96,105366,1,8,0:0:0:0:
168,96,105456,1,4,0:0:0:0:
168,96,105635,1,4,0:0:0:0:
168,96,105815,1,4,0:0:0:0:
168,96,105994,1,4,0:0:0:0:
168,96,106174,1,4,0:0:0:0:
168,96,106353,1,4,0:0:0:0:
168,96,106532,1,4,0:0:0:0:
168,96,106801,1,0,0:0:0:0:
168,96,107070,1,0,0:0:0:0:
168,96,107340,1,0,0:0:0:0:
168,96,107609,1,0,0:0:0:0:
168,96,107878,1,0,0:0:0:0:
168,96,108147,1,0,0:0:0:0:
168,96,108416,1,0,0:0:0:0:
168,96,108685,1,0,0:0:0:0:
168,96,109223,1,0,0:0:0:0:
168,96,109761,1,0,0:0:0:0:
168,96,110299,1,0,0:0:0:0:
168,96,110366,1,0,0:0:0:0:
168,96,110434,1,0,0:0:0:0:
168,96,110501,1,0,0:0:0:0:
168,96,110568,1,8,0:0:0:0:
168,96,110635,1,8,0:0:0:0:
168,96,110703,1,8,0:0:0:0:
168,96,110837,1,12,0:0:0:0:
168,96,110972,1,12,0:0:0:0:
168,96,111241,1,4,0:0:0:0:
168,96,111375,1,4,0:0:0:0:
168,96,111644,1,12,0:0:0:0:
168,96,111779,1,12,0:0:0:0:
168,96,112048,1,12,0:0:0:0:
168,96,112183,1,12,0:0:0:0:
168,96,112317,1,12,0:0:0:0:
168,96,112452,1,4,0:0:0:0:
168,96,112721,1,0,0:0:0:0:
168,96,112788,1,0,0:0:0:0:
168,96,112855,1,0,0:0:0:0:
168,96,112922,1,0,0:0:0:0:
168,96,112990,1,8,0:0:0:0:
168,96,113057,1,8,0:0:0:0:
168,96,113124,1,8,0:0:0:0:
168,96,113192,1,8,0:0:0:0:
168,96,113259,1,0,0:0:0:0:
168,96,113662,1,4,0:0:0:0:
168,96,113931,1,12,0:0:0:0:
168,96,114066,1,0,0:0:0:0:
168,96,114201,1,0,0:0:0:0:
168,96,114268,1,8,0:0:0:0:
168,96,114335,1,0,0:0:0:0:
168,96,114402,1,8,0:0:0:0:
168,96,114470,1,0,0:0:0:0:
168,96,114604,1,0,0:0:0:0:
168,96,114649,1,0,0:0:0:0:
168,96,114694,1,0,0:0:0:0:
168,96,114739,1,8,0:0:0:0:
168,96,115142,1,0,0:0:0:0:
168,96,115277,1,8,0:0:0:0:
168,96,115411,1,0,0:0:0:0:
168,96,115680,1,8,0:0:0:0:
168,96,115814,1,0,0:0:0:0:
168,96,116084,1,8,0:0:0:0:
168,96,116219,1,0,0:0:0:0:
168,96,116488,1,8,0:0:0:0:
168,96,116622,1,8,0:0:0:0:
168,96,116891,1,8,0:0:0:0:
168,96,117026,1,8,0:0:0:0:
168,96,117295,1,0,0:0:0:0:
168,96,117430,1,8,0:0:0:0:
168,96,117496,1,8,0:0:0:0:
168,96,117564,1,0,0:0:0:0:
168,96,117833,1,8,0:0:0:0:
168,96,117967,1,0,0:0:0:0:
168,96,118236,1,8,0:0:0:0:
168,96,118370,1,0,0:0:0:0:
168,96,118640,1,8,0:0:0:0:
168,96,118774,1,8,0:0:0:0:
168,96,119044,1,8,0:0:0:0:
168,96,119178,1,8,0:0:0:0:
152,96,119313,1,0,0:0:0:0:
152,96,119380,1,0,0:0:0:0:
152,96,119447,1,8,0:0:0:0:
168,96,119537,1,0,0:0:0:0:
168,96,119627,1,8,0:0:0:0:
168,96,119716,1,0,0:0:0:0:
168,96,119806,1,8,0:0:0:0:
168,96,119896,1,0,0:0:0:0:
168,96,119985,1,8,0:0:0:0:
168,96,120075,1,0,0:0:0:0:
168,96,120165,1,8,0:0:0:0:
168,96,120254,1,0,0:0:0:0:
168,96,120344,1,8,0:0:0:0:
168,96,120434,1,8,0:0:0:0:
168,96,120523,1,4,0:0:0:0:
152,96,120703,1,4,0:0:0:0:
152,96,120882,1,4,0:0:0:0:
256,192,121062,12,0,121465,0:0:0:0:
176,96,121600,5,0,0:0:0:0:
176,96,121734,1,0,0:0:0:0:
176,96,121802,1,0,0:0:0:0:
176,96,121869,1,0,0:0:0:0:
176,96,122004,1,8,0:0:0:0:
176,96,122071,1,8,0:0:0:0:
176,96,122138,1,0,0:0:0:0:
176,96,122273,1,0,0:0:0:0:
176,96,122340,1,0,0:0:0:0:
176,96,122407,1,0,0:0:0:0:
176,96,122542,1,8,0:0:0:0:
176,96,122676,1,0,0:0:0:0:
176,96,122811,1,0,0:0:0:0:
176,96,122878,1,0,0:0:0:0:
176,96,122945,1,0,0:0:0:0:
176,96,123080,1,8,0:0:0:0:
176,96,123214,1,8,0:0:0:0:
176,96,123281,1,8,0:0:0:0:
176,96,123348,1,8,0:0:0:0:
176,96,123416,1,8,0:0:0:0:
176,96,123483,1,0,0:0:0:0:
176,96,123550,1,0,0:0:0:0:
176,96,123618,1,0,0:0:0:0:
176,96,123752,1,4,0:0:0:0:
