osu file format v14

[General]
AudioFilename: audio.mp3
AudioLeadIn: 0
PreviewTime: 71027
Countdown: 0
SampleSet: Normal
StackLeniency: 0.7
Mode: 2
LetterboxInBreaks: 0
WidescreenStoryboard: 0

[Editor]
DistanceSpacing: 1
BeatDivisor: 4
GridSize: 16
TimelineZoom: 2.140001

[Metadata]
Title:Heterochromia Iridis
TitleUnicode:Heterochromia Iridis
Artist:FOLiACETATE
ArtistUnicode:FOLiACETATE
Creator:Deif
Version:Rain
Source:osu!
Tags:Featured Artist BMS LeaF sak t+mugen CHOiX To7 COALENSCENT BREAKCORE ノンジャンル2 Non Genre 2 Unlimited Fighters Electronic Instrumental
BeatmapID:2170653
BeatmapSetID:833719

[Difficulty]
HPDrainRate:5
CircleSize:4
OverallDifficulty:9.2
ApproachRate:9.2
SliderMultiplier:1.6
SliderTickRate:2

[Events]
//Background and Video events
0,0,"BG.jpg",0,0
//Break Periods
2,52931,59680
//Storyboard Layer 0 (Background)
//Storyboard Layer 1 (Fail)
//Storyboard Layer 2 (Pass)
//Storyboard Layer 3 (Foreground)
//Storyboard Layer 4 (Overlay)
//Storyboard Sound Samples

[TimingPoints]
1072,269.058295964126,4,1,0,60,1,0
3695,-100,4,1,0,30,0,0
3762,-100,4,1,0,60,0,0
4838,-100,4,1,1,50,0,0
5040,-100,4,1,1,25,0,0
5107,-100,4,1,1,60,0,0
5309,-100,4,1,1,30,0,0
5376,-100,4,1,1,50,0,0
6453,-100,4,1,1,45,0,0
6991,-100,4,1,1,40,0,0
7125,-100,4,1,1,50,0,0
7260,-100,4,1,1,55,0,0
7293,-100,4,1,1,35,0,0
7529,-100,4,1,1,50,0,0
8336,-100,4,1,1,55,0,0
8605,-100,4,1,1,60,0,0
9143,-100,4,1,1,50,0,0
9412,-100,4,1,1,60,0,0
9614,-100,4,1,1,30,0,0
9681,-100,4,1,1,60,0,0
13986,-133.333333333333,4,2,0,50,0,0
14255,-133.333333333333,4,2,0,55,0,0
14659,-133.333333333333,4,2,0,60,0,0
15063,-133.333333333333,4,2,0,65,0,0
15466,-133.333333333333,4,2,0,70,0,0
15870,-133.333333333333,4,2,0,75,0,0
16139,-100,4,1,1,60,0,0
17215,-100,4,1,1,50,0,0
17350,-100,4,1,1,25,0,0
17394,-100,4,1,1,50,0,0
17529,-100,4,1,1,25,0,0
17574,-100,4,1,1,50,0,0
17708,-100,4,1,1,25,0,0
17753,-100,4,1,1,60,0,0
17787,-100,4,1,1,30,0,0
18291,-100,4,1,1,60,0,0
35511,-100,4,1,1,50,0,0
36049,-100,4,1,0,50,0,0
36083,-100,4,1,0,25,0,0
36318,-100,4,1,0,50,0,0
36352,-100,4,1,0,25,0,0
36453,-100,4,1,0,50,0,0
36587,-100,4,1,1,50,0,0
37428,-100,4,1,0,25,0,0
37663,-100,4,1,0,50,0,0
38202,-100,4,1,1,50,0,0
38807,-100,4,1,1,25,0,0
39009,-100,4,1,1,50,0,0
39143,-100,4,1,1,25,0,0
39278,-100,4,1,0,50,0,0
39446,-100,4,1,0,25,0,0
39547,-100,4,1,0,50,0,0
39816,-100,4,1,1,50,0,0
40354,-100,4,1,0,50,0,0
40657,-100,4,1,0,25,0,0
40758,-100,4,1,0,50,0,0
40892,-100,4,1,1,50,0,0
41430,-100,4,1,0,50,0,0
41475,-100,4,1,0,25,0,0
41699,-100,4,1,0,25,0,0
41733,-100,4,1,0,50,0,0
41968,-100,4,1,0,50,0,0
42137,-100,4,1,0,25,0,0
42372,-100,4,1,0,50,0,0
42540,-100,4,1,0,25,0,0
42910,-100,4,1,0,50,0,0
43078,-100,4,1,0,25,0,0
43616,-100,4,1,0,25,0,0
43852,-100,4,1,0,50,0,0
43986,-100,4,1,0,55,0,0
44121,-100,4,1,0,60,0,0
45466,-100,4,1,0,65,0,0
45735,-100,4,1,0,70,0,0
46004,-100,4,1,0,65,0,0
46273,-100,4,1,0,60,0,0
47619,-100,4,1,0,65,0,0
47888,-100,4,1,0,70,0,0
48157,-100,4,1,0,60,0,0
49771,-100,4,1,0,70,0,0
50040,-100,4,1,0,65,0,0
50578,-100,4,1,0,60,0,0
52193,-100,4,1,0,70,0,0
52226,-100,4,1,0,35,0,0
52327,-100,4,1,0,60,0,0
52361,-100,4,1,0,30,0,0
52462,-100,4,1,0,50,0,0
52495,-100,4,1,0,25,0,0
52596,-100,4,1,0,40,0,0
52630,-100,4,1,0,20,0,0
52731,-200,4,2,0,50,0,0
61341,-133.333333333333,4,3,0,50,0,0
65645,-100,4,1,1,50,0,0
67798,-100,4,1,0,50,0,0
68874,-100,4,1,0,60,0,0
69143,-100,4,1,0,50,0,0
69412,-100,4,1,0,60,0,0
69681,-100,4,1,0,70,0,0
69715,-100,4,1,0,70,0,0
69950,-100,4,2,0,60,0,0
70623,-100,4,2,0,50,0,0
71027,-100,4,1,0,50,0,0
71565,-100,4,1,0,60,0,0
72103,-100,4,1,1,60,0,1
89054,-100,4,1,0,60,0,0
89087,-100,4,1,0,30,0,0
89323,-100,4,1,1,60,0,1
99547,-80,4,1,1,60,0,1
100085,-100,4,1,1,60,0,1
101027,-100,4,1,1,50,0,0
101699,-100,4,1,1,40,0,0
101879,-100,4,1,1,46,0,0
102058,-100,4,1,1,53,0,0
102237,-100,4,1,1,60,0,1
104390,-100,4,1,0,60,0,1
106542,-100,4,1,0,50,0,0
107080,-100,4,1,0,49,0,0
107619,-100,4,1,0,48,0,0
108157,-100,4,1,0,47,0,0
108695,-100,4,1,0,46,0,0
109233,-100,4,1,0,44,0,0
109771,-100,4,1,0,42,0,0
110309,-100,4,1,0,40,0,0
110444,-100,4,1,0,45,0,0
110578,-100,4,1,0,50,0,0
110713,-100,4,1,0,55,0,0
110847,-100,4,1,0,60,0,0
112764,-100,4,1,0,30,0,0
112865,-100,4,1,0,60,0,0
112899,-100,4,1,0,30,0,0
113000,-100,4,1,0,60,0,0
113033,-100,4,1,0,30,0,0
113134,-100,4,1,0,60,0,0
113168,-100,4,1,0,30,0,0
113269,-100,4,1,0,60,0,0
114076,-100,4,3,0,60,0,0
115152,-133.333333333333,4,2,0,30,0,0
115421,-133.333333333333,4,2,0,35,0,0
115825,-133.333333333333,4,2,0,40,0,0
116228,-133.333333333333,4,2,0,45,0,0
116632,-133.333333333333,4,2,0,50,0,0
117036,-133.333333333333,4,2,0,55,0,0
117305,-133.333333333333,4,2,0,50,0,0
117574,-133.333333333333,4,2,0,55,0,0
117977,-133.333333333333,4,2,0,60,0,0
118381,-133.333333333333,4,2,0,65,0,0
118785,-133.333333333333,4,2,0,70,0,0
119188,-133.333333333333,4,2,0,75,0,0
119457,-100,4,1,1,60,0,0
120533,-100,4,1,1,50,0,0
120668,-100,4,1,1,25,0,0
120713,-100,4,1,1,50,0,0
120847,-100,4,1,1,25,0,0
120892,-100,4,1,1,50,0,0
121027,-100,4,1,1,25,0,0
121072,-100,4,1,1,60,0,0
121105,-100,4,1,1,30,0,0
121341,-100,4,2,0,60,0,0
121610,-100,4,1,0,60,0,0
122686,-100,4,3,0,60,0,0
123224,-100,4,1,1,50,0,0
123650,-100,4,1,1,25,0,0
123762,-100,4,2,1,50,0,0

[Colours]
Combo1 : 255,255,0
Combo2 : 243,89,34
Combo3 : 112,196,193
Combo4 : 128,255,0

[HitObjects]
192,192,3224,5,8,0:0:0:0:
304,272,3358,1,8,0:0:0:0:
336,224,3403,1,0,0:0:0:0:
336,160,3448,1,0,0:0:0:0:
304,112,3493,1,0,0:0:0:0:
192,128,3628,1,8,0:0:0:0:
256,128,3695,1,0,0:0:0:0:
320,128,3762,1,8,0:0:0:0:
208,272,3897,1,8,0:0:0:0:
176,224,3941,1,0,0:0:0:0:
176,160,3986,1,0,0:0:0:0:
208,112,4031,1,0,0:0:0:0:
320,192,4166,1,8,0:0:0:0:
192,192,4300,5,8,0:0:0:0:
320,192,4435,2,0,L|368:192,2,40,8|0|0,0:0|0:0|0:0,0:0:0:0:
192,192,4704,2,0,L|176:240,1,40,8|0,0:0|0:0,0:0:0:0:
320,192,4838,2,0,P|352:144|352:80,1,120,8|0,0:0|0:0,0:0:0:0:
192,192,5107,2,0,P|160:144|160:80,1,120,10|0,0:0|0:0,0:0:0:0:
320,192,5376,6,0,L|336:272,1,80,6|0,0:0|0:0,0:0:0:0:
208,272,5645,1,8,0:0:0:0:
304,272,5780,1,2,0:0:0:0:
176,270,5915,2,0,L|192:192,1,80,10|2,2:0|0:0,0:0:0:0:
304,80,6184,1,8,0:0:0:0:
352,80,6251,1,0,0:0:0:0:
368,128,6318,1,0,0:0:0:0:
352,176,6385,1,0,0:0:0:0:
304,176,6453,6,0,L|224:176,1,80,2|0,0:0|0:0,0:0:0:0:
336,256,6722,2,0,L|256:256,1,80,8|2,0:0|0:0,0:0:0:0:
368,176,6991,1,2,2:0:0:0:
240,128,7125,1,8,2:0:0:0:
464,64,7260,2,0,L|464:112,1,40,8|0,0:0|0:0,0:0:0:0:
432,144,7394,2,0,L|368:144,1,40,0|0,0:0|0:0,0:0:0:0:
224,192,7529,6,0,L|208:112,1,80,2|0,0:0|0:0,0:0:0:0:
336,112,7798,1,8,0:0:0:0:
240,112,7932,1,2,0:0:0:0:
368,208,8067,1,10,2:0:0:0:
384,256,8134,1,0,0:0:0:0:
368,304,8202,1,2,0:0:0:0:
320,304,8269,1,0,0:0:0:0:
240,304,8336,2,0,L|224:256,1,40,8|0,0:0|0:0,0:0:0:0:
304,240,8471,2,0,L|320:192,1,40,0|0,0:0|0:0,0:0:0:0:
160,192,8605,6,0,L|112:192,2,40,8|0|8,2:0|0:0|2:0,0:0:0:0:
304,192,8874,1,8,2:0:0:0:
192,192,9009,1,8,2:0:0:0:
336,192,9143,1,8,2:0:0:0:
416,192,9211,2,0,P|432:160|432:112,1,80,8|8,2:0|2:0,0:0:0:0:
224,112,9412,1,8,3:0:0:0:
64,192,9681,6,0,L|80:272,1,80,6|0,0:0|0:0,0:0:0:0:
304,192,9950,1,8,0:0:0:0:
80,192,10085,2,0,L|96:112,1,80,2|0,3:0|0:0,0:0:0:0:
320,192,10354,1,2,0:0:0:0:
96,192,10489,2,0,L|112:272,1,80,8|0,3:0|0:0,0:0:0:0:
336,192,10758,5,2,0:0:0:0:
112,192,10892,2,0,L|64:192,2,40,0|0|8,0:0|0:0|0:0,0:0:0:0:
336,192,11161,2,0,L|416:192,2,80,2|0|2,0:0|0:0|0:0,0:0:0:0:
80,48,11565,2,0,L|160:48,1,80,8|0,0:0|0:0,0:0:0:0:
448,192,11834,6,0,L|432:112,1,80,2|0,0:0|0:0,0:0:0:0:
208,192,12103,1,8,0:0:0:0:
432,192,12237,2,0,L|416:272,1,80,2|0,3:0|0:0,0:0:0:0:
192,192,12506,1,2,0:0:0:0:
416,192,12641,2,0,L|400:112,1,80,8|0,3:0|0:0,0:0:0:0:
176,192,12910,5,2,0:0:0:0:
400,192,13045,2,0,L|448:192,2,40,0|0|8,0:0|0:0|0:0,0:0:0:0:
176,192,13314,2,0,L|96:192,2,80,2|0|2,0:0|0:0|0:0,0:0:0:0:
432,336,13717,2,0,L|336:336,1,80,8|0,0:0|0:0,0:0:0:0:
160,336,13986,6,0,L|96:336,1,60.0000022888184,2|0,0:0|0:0,0:0:0:0:
192,288,14255,2,0,P|240:240|256:192,1,120.000004577637,2|0,0:0|0:0,0:0:0:0:
160,288,14659,2,0,P|112:240|96:192,1,120.000004577637,2|0,0:0|0:0,0:0:0:0:
224,288,15063,6,0,P|256:240|224:192,1,120.000004577637,2|0,0:0|0:0,0:0:0:0:
64,288,15466,2,0,P|32:240|64:192,1,120.000004577637,2|0,0:0|0:0,0:0:0:0:
224,288,15870,1,2,0:0:0:0:
128,192,16004,1,8,3:0:0:0:
192,192,16072,1,2,3:0:0:0:
352,192,16139,6,0,L|416:192,2,53.3333333333333,4|0|2,3:0|0:0|3:0,0:0:0:0:
256,192,16408,2,0,L|192:192,2,53.3333333333333,0|2|0,0:0|3:0|0:0,0:0:0:0:
352,192,16677,2,0,L|400:144,2,53.3333333333333,4|0|2,3:0|0:0|3:0,0:0:0:0:
256,192,16946,2,0,L|208:144,2,53.3333333333333,0|2|0,0:0|3:0|0:0,0:0:0:0:
352,192,17215,5,10,0:0:0:0:
160,192,17394,1,10,0:0:0:0:
352,192,17574,1,10,0:0:0:0:
64,288,17753,5,12,0:0:0:0:
63,237,17820,1,0,0:0:0:0:
77,189,17887,1,0,0:0:0:0:
103,146,17954,1,0,0:0:0:0:
139,112,18022,1,0,0:0:0:0:
184,89,18089,1,0,0:0:0:0:
232,79,18156,1,0,0:0:0:0:
288,80,18223,1,0,0:0:0:0:
128,192,18291,6,0,P|96:160|80:80,1,120,6|0,0:0|0:0,0:0:0:0:
160,80,18560,2,0,L|80:80,1,80,8|2,0:0|0:0,0:0:0:0:
224,80,18829,2,0,L|240:160,1,80,2|2,2:0|0:0,0:0:0:0:
128,80,19098,2,0,L|144:160,1,80,8|0,0:0|0:0,0:0:0:0:
368,192,19367,6,0,P|400:224|416:304,1,120,2|0,0:0|0:0,0:0:0:0:
336,304,19637,2,0,L|416:304,1,80,8|2,0:0|0:0,0:0:0:0:
272,304,19906,2,0,L|256:224,1,80,2|2,2:0|0:0,0:0:0:0:
368,304,20175,2,0,L|384:224,1,80,8|0,0:0|0:0,0:0:0:0:
144,192,20444,5,2,0:0:0:0:
96,192,20511,1,0,0:0:0:0:
72,144,20578,1,0,0:0:0:0:
96,96,20645,1,0,0:0:0:0:
176,80,20713,2,0,L|96:80,1,80,8|2,0:0|0:0,0:0:0:0:
240,80,20982,2,0,L|256:160,1,80,2|2,2:0|0:0,0:0:0:0:
144,80,21251,2,0,L|128:160,1,80,8|0,0:0|0:0,0:0:0:0:
368,80,21520,6,0,P|384:112|368:192,1,120,2|0,0:0|0:0,0:0:0:0:
288,192,21789,1,8,0:0:0:0:
400,192,21924,2,0,L|416:112,1,80,2|2,0:0|2:0,0:0:0:0:
288,32,22193,1,2,0:0:0:0:
400,32,22327,2,0,L|416:112,1,80,8|0,0:0|0:0,0:0:0:0:
176,192,22596,6,0,P|96:160|80:128,1,120,2|0,0:0|0:0,0:0:0:0:
160,128,22865,2,0,L|240:128,1,80,8|2,0:0|0:0,0:0:0:0:
112,208,23134,2,0,L|192:208,1,80,2|2,2:0|0:0,0:0:0:0:
80,128,23403,2,0,L|96:48,1,80,8|0,0:0|0:0,0:0:0:0:
336,192,23672,6,0,P|416:160|432:128,1,120,2|0,0:0|0:0,0:0:0:0:
352,128,23941,2,0,L|272:128,1,80,8|2,0:0|0:0,0:0:0:0:
400,208,24211,2,0,L|320:208,1,80,2|2,2:0|0:0,0:0:0:0:
432,128,24480,2,0,L|352:128,1,80,8|0,0:0|0:0,0:0:0:0:
112,128,24749,5,2,0:0:0:0:
64,128,24816,1,0,0:0:0:0:
40,192,24883,1,0,0:0:0:0:
64,232,24950,1,0,0:0:0:0:
144,240,25018,2,0,L|64:240,1,80,8|2,0:0|0:0,0:0:0:0:
208,240,25287,2,0,L|224:160,1,80,2|2,2:0|0:0,0:0:0:0:
112,240,25556,2,0,L|96:160,1,80,8|0,0:0|0:0,0:0:0:0:
336,192,25825,6,0,P|416:160|432:128,1,120,2|0,0:0|0:0,0:0:0:0:
352,128,26094,2,0,L|432:128,1,80,8|2,0:0|0:0,0:0:0:0:
304,208,26363,2,0,L|224:208,1,80,2|2,2:0|0:0,0:0:0:0:
352,128,26632,1,8,0:0:0:0:
352,80,26699,1,0,0:0:0:0:
304,48,26767,1,0,0:0:0:0:
64,128,26901,6,0,P|48:176|80:240,1,120,6|0,0:0|0:0,0:0:0:0:
144,128,27170,1,8,0:0:0:0:
48,128,27305,1,2,0:0:0:0:
144,128,27439,1,2,2:0:0:0:
368,128,27708,1,8,0:0:0:0:
96,128,27843,1,10,0:0:0:0:
256,128,28112,5,0,0:0:0:0:
368,128,28246,1,8,0:0:0:0:
272,128,28381,1,2,0:0:0:0:
384,128,28515,1,2,2:0:0:0:
128,128,28785,1,8,0:0:0:0:
80,128,28852,1,0,0:0:0:0:
80,192,28919,1,0,0:0:0:0:
128,192,28986,1,0,0:0:0:0:
288,192,29054,6,0,L|368:192,1,80,6|8,0:0|0:0,0:0:0:0:
128,64,29323,1,6,0:0:0:0:
320,64,29592,1,6,0:0:0:0:
128,64,29793,1,6,0:0:0:0:
320,64,29995,1,6,0:0:0:0:
80,192,30130,5,2,0:0:0:0:
192,192,30264,2,0,L|240:192,2,40,0|0|8,0:0|0:0|0:0,0:0:0:0:
80,192,30533,1,2,0:0:0:0:
192,192,30668,1,2,2:0:0:0:
208,144,30735,1,0,0:0:0:0:
192,96,30802,1,2,0:0:0:0:
144,96,30870,1,0,0:0:0:0:
304,96,30937,2,0,L|384:96,1,80,8|0,0:0|0:0,0:0:0:0:
144,288,31206,6,0,P|144:240|192:192,1,120,6|0,0:0|0:0,0:0:0:0:
256,288,31475,1,8,0:0:0:0:
160,288,31610,1,2,0:0:0:0:
256,288,31744,1,2,2:0:0:0:
480,288,32013,1,8,0:0:0:0:
208,288,32148,2,0,L|192:240,1,40,4|0,0:0|0:0,0:0:0:0:
272,240,32282,6,0,L|288:160,1,80,2|0,0:0|0:0,0:0:0:0:
160,144,32551,1,8,0:0:0:0:
256,144,32686,1,2,0:0:0:0:
128,80,32820,1,2,2:0:0:0:
224,80,32955,1,2,0:0:0:0:
96,144,33089,2,0,P|96:176|112:224,1,80,8|0,0:0|0:0,0:0:0:0:
160,224,33291,1,0,0:0:0:0:
320,192,33358,5,2,0:0:0:0:
448,192,33493,1,0,0:0:0:0:
320,192,33628,1,12,0:0:0:0:
160,192,33897,2,0,L|288:192,2,120,12|12|2,0:0|0:0|0:0,0:0:0:0:
384,192,34435,6,0,L|256:192,2,120,14|12|2,0:0|0:0|0:0,0:0:0:0:
160,192,34973,1,12,0:0:0:0:
384,192,35242,1,12,0:0:0:0:
48,192,35511,5,4,0:0:0:0:
48,128,35578,1,0,0:0:0:0:
80,80,35645,1,0,0:0:0:0:
144,64,35713,1,2,0:0:0:0:
224,128,35780,2,0,L|240:48,1,80,8|0,0:0|0:0,0:0:0:0:
112,192,36049,5,8,0:0:0:0:
80,240,36116,1,0,0:0:0:0:
112,288,36184,1,0,0:0:0:0:
80,336,36251,1,0,0:0:0:0:
160,336,36318,2,0,L|80:336,1,80,8|8,0:0|0:0,0:0:0:0:
336,192,36587,5,8,0:0:0:0:
384,192,36654,1,0,0:0:0:0:
400,144,36722,1,2,0:0:0:0:
272,80,36856,2,0,L|352:80,1,80,8|2,0:0|0:0,0:0:0:0:
304,128,37058,1,0,0:0:0:0:
224,128,37125,5,8,0:0:0:0:
192,176,37193,1,0,0:0:0:0:
224,224,37260,1,2,0:0:0:0:
192,272,37327,1,0,0:0:0:0:
352,272,37394,2,0,L|368:240,6,20,8|0|0|0|0|0|0,0:0|0:0|0:0|0:0|0:0|0:0|0:0,0:0:0:0:
192,272,37663,5,8,0:0:0:0:
304,192,37798,1,8,0:0:0:0:
256,192,37865,1,0,0:0:0:0:
208,192,37932,1,2,0:0:0:0:
320,272,38067,1,0,0:0:0:0:
80,192,38202,6,0,L|32:192,2,40,8|8|8,0:0|0:0|0:0,0:0:0:0:
224,192,38471,1,2,0:0:0:0:
256,144,38538,1,0,0:0:0:0:
256,96,38605,1,2,0:0:0:0:
224,48,38672,1,0,0:0:0:0:
144,48,38740,5,2,0:0:0:0:
192,48,38807,1,8,0:2:0:0:
192,96,38874,1,8,0:2:0:0:
144,96,38941,1,8,0:2:0:0:
64,192,39009,2,0,P|48:208|64:256,1,80,2|8,0:0|0:0,0:0:0:0:
112,272,39211,1,8,0:0:0:0:
272,272,39278,5,8,0:0:0:0:
304,224,39345,1,0,0:0:0:0:
304,176,39412,1,8,0:0:0:0:
256,176,39480,1,0,0:0:0:0:
304,176,39547,1,8,0:0:0:0:
256,176,39614,1,0,0:0:0:0:
256,128,39681,1,8,0:0:0:0:
288,80,39749,1,0,0:0:0:0:
448,80,39816,6,0,P|464:112|448:192,1,120,8|2,0:0|0:0,0:0:0:0:
368,192,40085,2,0,L|384:272,1,80,8|0,0:0|0:0,0:0:0:0:
256,192,40354,6,0,L|336:192,1,80,8|8,0:0|0:0,0:0:0:0:
96,192,40623,2,0,L|80:112,1,80,8|8,0:0|0:0,0:0:0:0:
208,192,40892,5,8,0:0:0:0:
240,240,40959,1,0,0:0:0:0:
240,288,41027,1,0,0:0:0:0:
208,336,41094,1,2,0:0:0:0:
128,336,41161,2,0,L|208:336,1,80,8|0,0:0|0:0,0:0:0:0:
320,192,41430,5,8,0:0:0:0:
320,144,41498,1,0,0:0:0:0:
288,96,41565,1,0,0:0:0:0:
224,96,41632,1,0,0:0:0:0:
384,96,41699,2,0,L|400:64,6,20,8|0|0|0|0|0|0,0:0|0:0|0:0|0:0|0:0|0:0|0:0,0:0:0:0:
224,192,41968,5,8,0:0:0:0:
112,192,42103,2,0,L|96:160,4,20,8|0|0|0|0,0:0|0:0|0:0|0:0|0:0,0:0:0:0:
304,192,42372,5,8,0:0:0:0:
192,192,42506,2,0,L|176:160,8,20,8|0|0|0|0|0|0|0|0,0:0|0:0|0:0|0:0|0:0|0:0|0:0|0:0|0:0,0:0:0:0:
384,192,42910,5,8,0:0:0:0:
272,192,43045,2,0,L|256:160,8,20,8|0|0|0|0|0|0|0|0,0:0|0:0|0:0|0:0|0:0|0:0|0:0|0:0|0:0,0:0:0:0:
464,192,43448,5,8,0:0:0:0:
144,192,43583,2,0,L|128:160,2,20,8|0|0,0:0|0:0|0:0,0:0:0:0:
192,128,43852,1,0,0:0:0:0:
336,128,43986,1,0,0:0:0:0:
80,224,44121,6,0,L|64:144,1,80,4|0,0:0|0:0,0:0:0:0:
96,96,44323,1,0,0:0:0:0:
256,96,44390,2,0,L|336:96,1,80,10|0,0:2|0:0,0:0:0:0:
208,160,44659,2,0,P|192:192|192:240,1,80,8|0,0:0|0:0,0:0:0:0:
256,256,44861,1,0,0:0:0:0:
321,235,44928,2,0,P|320:195|304:160,1,80,10|0,0:2|0:0,0:0:0:0:
208,160,45197,6,0,L|128:160,1,80,8|0,0:0|0:0,0:0:0:0:
384,160,45466,2,0,L|400:240,1,80,12|0,0:2|0:0,0:0:0:0:
128,160,45735,2,0,L|112:240,1,80,12|0,0:2|0:0,0:0:0:0:
384,160,46004,2,0,L|464:160,1,80,8|8,0:0|0:2,0:0:0:0:
208,160,46273,6,0,L|192:240,1,80,8|0,0:0|0:0,0:0:0:0:
256,256,46475,1,0,0:0:0:0:
319,238,46542,2,0,L|304:160,1,80,10|0,0:2|0:0,0:0:0:0:
176,96,46811,2,0,L|96:96,1,80,8|0,0:0|0:0,0:0:0:0:
160,96,47013,1,0,0:0:0:0:
224,96,47080,2,0,L|240:176,1,80,10|0,0:2|0:0,0:0:0:0:
144,192,47350,6,0,L|128:272,1,80,8|0,0:0|0:0,0:0:0:0:
368,272,47619,2,0,L|448:272,1,80,12|0,0:2|0:0,0:0:0:0:
176,272,47888,2,0,L|192:192,1,80,12|0,0:2|0:0,0:0:0:0:
320,160,48157,1,8,0:0:0:0:
176,160,48291,1,8,0:2:0:0:
432,160,48426,6,0,L|448:240,1,80,0|0,0:0|0:0,0:0:0:0:
416,288,48628,1,0,0:0:0:0:
256,288,48695,2,0,L|176:288,1,80,10|0,0:2|0:0,0:0:0:0:
304,224,48964,2,0,P|320:192|320:144,1,80,8|0,0:0|0:0,0:0:0:0:
256,128,49166,1,0,0:0:0:0:
191,149,49233,2,0,P|192:189|208:224,1,80,10|0,0:2|0:0,0:0:0:0:
304,224,49502,6,0,L|384:224,1,80,8|0,0:0|0:0,0:0:0:0:
320,192,49704,1,0,0:0:0:0:
192,144,49771,2,0,L|112:144,1,80,10|10,0:2|0:2,0:0:0:0:
384,224,50040,2,8,P|400:144|384:112,1,120,12|0,0:2|0:0,0:0:0:0:
304,112,50309,2,0,L|384:112,1,80,0|8,0:0|0:2,0:0:0:0:
128,224,50578,6,0,L|112:144,1,80,8|0,0:0|0:0,0:0:0:0:
256,112,50847,2,0,L|176:112,1,80,8|0,0:0|0:0,0:0:0:0:
320,224,51116,2,0,L|400:224,1,80,8|8,0:0|0:0,0:0:0:0:
400,80,51318,1,8,0:0:0:0:
304,80,51385,2,0,L|288:160,1,80,8|8,0:0|0:0,0:0:0:0:
416,208,51654,5,8,0:0:0:0:
464,256,51722,1,8,3:0:0:0:
416,304,51789,1,0,0:0:0:0:
304,192,51924,1,8,0:0:0:0:
304,128,51991,1,8,3:0:0:0:
352,80,52058,1,0,0:0:0:0:
112,80,52193,6,0,L|96:128,1,40,8|0,0:2|0:0,0:0:0:0:
160,128,52327,2,0,L|176:176,1,40,8|0,0:2|0:0,0:0:0:0:
112,192,52462,2,0,L|128:240,1,40,8|0,0:2|0:0,0:0:0:0:
192,240,52596,2,0,L|176:288,1,40,8|0,0:2|0:0,0:0:0:0:
48,272,52731,5,12,1:2:0:0:
336,192,60264,6,0,P|352:160|352:112,1,80,8|0,0:0|0:0,0:0:0:0:
176,192,60802,2,0,P|160:160|160:112,1,80,8|0,0:0|0:0,0:0:0:0:
432,80,61341,6,0,P|448:112|432:192,1,120.000004577637,4|0,0:0|1:0,0:0:0:0:
256,192,61879,1,8,0:2:0:0:
400,192,62148,2,0,L|416:128,1,60.0000022888184,4|0,0:0|1:0,0:0:0:0:
304,80,62417,6,0,L|368:80,1,60.0000022888184,8|0,0:0|1:0,0:0:0:0:
256,192,62686,2,0,L|128:192,2,120.000004577637,4|8|4,0:0|0:2|0:0,0:0:0:0:
320,192,63358,1,0,1:0:0:0:
208,192,63493,6,0,L|192:128,1,60.0000022888184,8|0,0:0|1:0,0:0:0:0:
304,80,63762,2,0,L|240:80,1,60.0000022888184,4|0,0:0|1:0,0:0:0:0:
352,192,64031,2,0,P|368:240|368:320,1,120.000004577637,8|4,0:2|0:0,0:0:0:0:
256,352,64435,1,0,0:0:0:0:
142,308,64569,6,0,P|142:249|160:192,1,120.000004577637,8|4,0:0|0:0,0:0:0:0:
256,128,64973,1,0,1:0:0:0:
144,64,65107,2,0,P|126:121|126:180,1,120.000004577637,8|4,0:2|0:0,0:0:0:0:
224,192,65511,1,0,1:0:0:0:
464,64,65645,6,0,L|304:64,1,160,4|8,0:0|0:0,0:0:0:0:
448,192,66116,1,8,0:0:0:0:
384,192,66184,2,0,P|368:240|368:272,1,80,2|0,0:0|0:0,0:0:0:0:
400,304,66385,1,8,0:0:0:0:
464,304,66453,1,2,0:0:0:0:
336,304,66587,1,0,0:0:0:0:
272,304,66654,1,8,0:0:0:0:
239,269,66722,6,0,P|241:229|255:191,1,80,2|0,0:0|0:0,0:0:0:0:
352,192,66991,2,0,P|352:144|320:80,1,120,2|8,0:0|0:0,0:0:0:0:
256,80,67260,2,0,L|336:80,1,80,2|0,0:0|0:0,0:0:0:0:
208,192,67529,1,2,0:0:0:0:
336,192,67663,1,0,0:0:0:0:
80,192,67798,6,0,L|64:112,1,80,8|0,0:2|0:0,0:0:0:0:
208,192,68067,2,0,L|192:272,1,80,8|0,0:2|0:0,0:0:0:0:
336,192,68336,2,0,L|320:112,1,80,8|0,0:2|0:0,0:0:0:0:
464,192,68605,2,0,L|448:272,1,80,8|0,0:2|0:0,0:0:0:0:
304,272,68874,5,8,0:2:0:0:
272,224,68941,1,0,0:0:0:0:
304,176,69009,1,0,0:0:0:0:
352,176,69076,1,0,0:0:0:0:
272,64,69143,1,8,0:2:0:0:
224,112,69211,1,0,0:0:0:0:
224,176,69278,1,0,0:0:0:0:
272,224,69345,1,0,0:0:0:0:
352,112,69412,1,8,0:2:0:0:
384,160,69480,1,0,0:0:0:0:
352,208,69547,1,0,0:0:0:0:
304,208,69614,1,0,0:0:0:0:
144,208,69681,5,12,0:2:0:0:
256,192,69950,12,2,70623,0:0:0:0:
144,96,71027,5,8,0:2:0:0:
108,113,71094,1,0,0:0:0:0:
80,141,71161,1,0,0:0:0:0:
65,178,71228,1,0,0:0:0:0:
65,218,71296,1,8,0:2:0:0:
79,255,71363,1,0,0:0:0:0:
105,285,71430,1,0,0:0:0:0:
141,303,71498,1,0,0:0:0:0:
304,192,71565,5,8,0:2:0:0:
368,192,71632,1,0,0:0:0:0:
400,192,71699,1,0,0:0:0:0:
368,192,71767,1,0,0:0:0:0:
144,192,71834,1,8,0:2:0:0:
112,192,71901,1,0,0:0:0:0:
144,192,71968,1,0,0:0:0:0:
208,192,72036,1,0,0:0:0:0:
416,192,72103,6,0,P|432:128|432:64,1,120,6|0,0:0|0:0,0:0:0:0:
352,64,72372,2,0,L|432:64,1,80,8|2,0:0|0:0,0:0:0:0:
208,64,72776,1,2,0:0:0:0:
448,192,72910,2,0,L|432:272,1,80,8|0,0:0|0:0,0:0:0:0:
192,192,73179,6,0,P|176:128|176:64,1,120,2|0,0:0|0:0,0:0:0:0:
256,64,73448,2,0,L|176:64,2,80,8|2|2,0:0|0:0|2:0,0:0:0:0:
400,64,73852,1,2,0:0:0:0:
176,192,73986,2,0,L|192:272,1,80,8|0,0:0|0:0,0:0:0:0:
416,192,74255,6,0,P|432:128|432:64,1,120,2|0,0:0|0:0,0:0:0:0:
352,64,74524,2,0,L|432:64,1,80,8|2,0:0|0:0,0:0:0:0:
208,64,74928,1,2,0:0:0:0:
448,192,75063,1,8,0:0:0:0:
480,256,75130,1,0,0:0:0:0:
448,320,75197,1,0,0:0:0:0:
400,320,75264,1,0,0:0:0:0:
240,320,75332,6,0,P|192:320|144:272,1,120,2|0,0:0|0:0,0:0:0:0:
224,256,75601,2,0,L|144:256,1,80,8|2,0:0|0:0,0:0:0:0:
256,192,75870,2,0,L|304:192,2,40,2|0|2,2:0|0:0|0:0,0:0:0:0:
48,96,76139,1,8,0:0:0:0:
48,160,76206,1,0,0:0:0:0:
80,208,76273,1,0,0:0:0:0:
128,208,76341,1,0,0:0:0:0:
288,192,76408,6,0,P|304:256|304:320,1,120,2|0,0:0|0:0,0:0:0:0:
224,320,76677,2,0,L|304:320,1,80,8|2,0:0|0:0,0:0:0:0:
80,320,77080,1,2,0:0:0:0:
320,192,77215,1,8,0:0:0:0:
352,128,77282,1,0,0:0:0:0:
320,64,77350,1,0,0:0:0:0:
272,64,77417,1,0,0:0:0:0:
112,64,77484,6,0,P|96:128|96:192,1,120,2|0,0:0|0:0,0:0:0:0:
176,192,77753,2,0,L|96:192,1,80,8|2,0:0|0:0,0:0:0:0:
208,256,78022,1,2,2:0:0:0:
96,256,78157,1,2,0:0:0:0:
304,256,78291,2,0,L|320:176,1,80,8|0,0:0|0:0,0:0:0:0:
112,96,78560,5,2,0:0:0:0:
64,144,78628,1,0,0:0:0:0:
64,208,78695,1,0,0:0:0:0:
112,256,78762,1,0,0:0:0:0:
272,96,78829,2,0,L|256:176,1,80,8|2,0:0|0:0,0:0:0:0:
96,192,79233,1,2,0:0:0:0:
320,192,79367,1,8,0:0:0:0:
352,256,79435,1,0,0:0:0:0:
320,320,79502,1,0,0:0:0:0:
272,320,79569,1,0,0:0:0:0:
112,320,79637,6,0,P|96:256|112:192,1,120,2|0,0:0|0:0,0:0:0:0:
192,192,79906,2,0,P|208:144|208:112,1,80,8|2,0:0|0:0,0:0:0:0:
176,96,80107,1,0,0:0:0:0:
96,96,80175,1,2,2:0:0:0:
432,192,80444,2,0,L|496:192,2,40,8|0|8,0:0|0:0|0:0,0:0:0:0:
144,192,80713,6,0,P|96:160|80:96,1,120,6|0,0:0|0:0,0:0:0:0:
160,96,80982,2,0,P|176:48|176:16,1,80,8|0,0:0|0:0,0:0:0:0:
144,16,81184,1,0,0:0:0:0:
64,192,81251,2,0,L|80:240,1,40,2|0,0:0|0:0,0:0:0:0:
144,192,81385,2,0,L|160:240,1,40,2|0,2:0|0:0,0:0:0:0:
96,192,81520,2,0,P|80:224|80:272,1,80,8|0,0:0|0:0,0:0:0:0:
112,288,81722,1,0,0:0:0:0:
272,288,81789,6,0,P|320:272|368:224,1,120,2|0,0:0|0:0,0:0:0:0:
288,192,82058,2,0,L|368:192,1,80,8|0,0:0|0:0,0:0:0:0:
256,128,82327,2,0,L|336:128,1,80,2|2,0:0|2:0,0:0:0:0:
224,192,82596,2,0,L|144:192,1,80,8|0,0:0|0:0,0:0:0:0:
368,192,82865,6,0,P|416:160|432:96,1,120,2|0,0:0|0:0,0:0:0:0:
352,96,83134,2,0,P|336:48|336:16,1,80,8|0,0:0|0:0,0:0:0:0:
368,16,83336,1,0,0:0:0:0:
448,192,83403,2,0,L|432:240,1,40,2|0,0:0|0:0,0:0:0:0:
368,192,83538,2,0,L|352:240,1,40,2|0,2:0|0:0,0:0:0:0:
416,192,83672,2,0,P|432:224|432:272,1,80,8|0,0:0|0:0,0:0:0:0:
400,288,83874,1,0,0:0:0:0:
240,288,83941,6,0,P|192:272|144:224,1,120,2|0,0:0|0:0,0:0:0:0:
224,192,84211,2,0,L|144:192,1,80,8|0,0:0|0:0,0:0:0:0:
256,128,84480,2,0,L|176:128,1,80,2|2,0:0|2:0,0:0:0:0:
400,192,84749,2,0,L|416:112,1,80,8|0,0:0|0:0,0:0:0:0:
160,112,85018,6,0,P|128:160|128:224,1,120,6|0,0:0|0:0,0:0:0:0:
208,272,85287,2,0,L|288:272,1,80,8|2,0:0|0:0,0:0:0:0:
96,64,85556,1,2,0:0:0:0:
192,64,85690,1,2,0:0:0:0:
240,64,85758,1,0,0:0:0:0:
192,64,85825,1,8,0:0:0:0:
96,64,85959,1,2,0:0:0:0:
336,192,86094,6,0,L|384:192,2,40,2|0|0,0:0|0:0|0:0,0:0:0:0:
192,192,86363,2,0,L|176:112,1,80,8|2,0:0|0:0,0:0:0:0:
416,112,86632,2,0,L|400:192,1,80,2|2,0:0|0:0,0:0:0:0:
336,192,86834,1,0,0:0:0:0:
176,192,86901,2,0,L|192:112,1,80,8|2,0:0|2:0,0:0:0:0:
432,96,87170,5,2,0:0:0:0:
448,144,87237,1,0,0:0:0:0:
432,192,87305,1,2,2:0:0:0:
384,192,87372,1,0,0:0:0:0:
224,192,87439,2,0,L|144:192,1,80,8|2,0:0|2:0,0:0:0:0:
256,128,87708,1,2,0:0:0:0:
48,192,87843,1,2,0:0:0:0:
160,192,87977,1,8,0:0:0:0:
112,192,88045,1,0,0:0:0:0:
48,192,88112,1,0,0:0:0:0:
288,192,88246,5,2,0:0:0:0:
320,144,88314,1,0,0:0:0:0:
320,96,88381,1,0,0:0:0:0:
192,96,88515,1,8,0:0:0:0:
240,80,88583,1,0,0:0:0:0:
288,64,88650,1,2,0:0:0:0:
192,32,88785,1,2,0:0:0:0:
304,144,88919,1,2,2:0:0:0:
64,192,89054,2,0,L|48:176,6,20,8|0|0|0|0|0|0,0:0|0:0|0:0|0:0|0:0|0:0|0:0,0:0:0:0:
256,192,89323,5,6,0:0:0:0:
448,192,89592,1,8,0:0:0:0:
304,192,89793,1,0,0:0:0:0:
384,192,89861,2,0,L|400:112,1,80,2|2,2:0|0:0,0:0:0:0:
272,96,90130,2,0,L|352:96,1,80,8|0,0:0|0:0,0:0:0:0:
304,64,90332,1,0,0:0:0:0:
144,64,90399,5,2,0:0:0:0:
96,112,90466,1,0,0:0:0:0:
96,176,90533,1,0,0:0:0:0:
144,224,90601,1,0,0:0:0:0:
224,64,90668,1,8,0:0:0:0:
272,112,90735,1,0,0:0:0:0:
272,176,90802,1,2,0:0:0:0:
224,224,90870,1,0,0:0:0:0:
144,224,90937,1,2,2:0:0:0:
240,272,91072,1,2,0:0:0:0:
112,288,91206,1,8,0:0:0:0:
208,336,91341,1,0,0:0:0:0:
448,80,91475,5,6,0:0:0:0:
448,144,91542,1,0,0:0:0:0:
400,192,91610,1,2,2:0:0:0:
448,240,91677,1,0,0:0:0:0:
464,288,91744,1,8,0:0:0:0:
448,336,91811,1,0,0:0:0:0:
288,304,91879,5,6,0:0:0:0:
240,272,91946,1,0,0:0:0:0:
240,208,92013,1,2,2:0:0:0:
272,176,92080,1,0,0:0:0:0:
272,112,92148,1,2,0:0:0:0:
224,80,92215,1,0,0:0:0:0:
64,80,92282,5,6,0:0:0:0:
64,144,92350,1,0,0:0:0:0:
112,192,92417,1,2,2:0:0:0:
64,240,92484,1,0,0:0:0:0:
48,288,92551,1,8,0:0:0:0:
64,336,92619,1,0,0:0:0:0:
224,80,92686,5,6,0:0:0:0:
272,112,92753,1,0,0:0:0:0:
272,176,92820,1,2,2:0:0:0:
240,208,92888,1,0,0:0:0:0:
240,272,92955,1,8,0:0:0:0:
288,304,93022,1,0,0:0:0:0:
448,304,93089,6,0,L|496:304,2,40,6|0|2,0:0|0:0|2:0,0:0:0:0:
352,192,93358,1,8,0:0:0:0:
400,192,93426,1,0,0:0:0:0:
448,192,93493,1,2,2:0:0:0:
336,48,93628,5,8,0:0:0:0:
320,96,93672,1,0,3:0:0:0:
336,144,93717,1,0,3:0:0:0:
352,192,93762,1,0,3:0:0:0:
336,240,93807,1,0,3:0:0:0:
160,192,93897,2,0,L|144:272,1,80,12|2,0:0|0:0,0:0:0:0:
256,192,94166,2,0,L|272:272,1,80,2|2,2:0|0:0,0:0:0:0:
160,192,94435,1,8,0:0:0:0:
272,192,94569,1,0,0:0:0:0:
32,192,94704,5,2,0:0:0:0:
32,144,94771,1,0,0:0:0:0:
64,96,94838,1,0,0:0:0:0:
176,192,94973,1,8,0:0:0:0:
80,192,95107,1,2,0:0:0:0:
128,192,95175,1,0,0:0:0:0:
192,192,95242,2,0,L|208:112,1,80,2|2,2:0|0:0,0:0:0:0:
96,128,95511,2,0,L|112:48,1,80,8|0,0:0|0:0,0:0:0:0:
176,48,95713,1,0,0:0:0:0:
336,48,95780,5,2,0:0:0:0:
384,48,95847,1,0,0:0:0:0:
400,96,95915,1,8,2:0:0:0:
384,144,95982,1,0,0:0:0:0:
336,144,96049,1,8,0:0:0:0:
96,144,96184,1,2,0:0:0:0:
48,144,96251,1,0,0:0:0:0:
32,192,96318,1,8,2:0:0:0:
48,240,96385,1,0,0:0:0:0:
96,240,96453,1,8,0:0:0:0:
336,240,96587,1,2,0:0:0:0:
352,288,96654,1,0,0:0:0:0:
336,336,96722,1,8,2:0:0:0:
288,336,96789,1,0,0:0:0:0:
128,336,96856,6,0,L|112:256,1,80,2|0,0:0|0:0,0:0:0:0:
160,224,97058,1,0,0:0:0:0:
208,192,97125,1,8,0:0:0:0:
64,192,97260,1,2,0:0:0:0:
448,192,97529,2,0,P|464:112|400:32,1,186.666666666667,2|2,0:0|0:2,0:0:0:0:
208,32,97932,5,4,0:0:0:0:
368,192,98202,1,8,0:0:0:0:
128,192,98471,1,4,0:0:0:0:
240,192,98605,1,2,0:0:0:0:
128,192,98740,1,0,0:0:0:0:
384,192,98874,6,0,P|416:272|384:336,1,160,4|0,0:0|0:0,0:0:0:0:
128,192,99278,1,4,0:0:0:0:
384,192,99547,2,0,L|240:192,2,133.333333333333,12|8|8,0:0|0:0|0:0,0:0:0:0:
128,192,100085,6,0,P|96:112|128:48,1,160,4|2,0:0|0:0,0:0:0:0:
384,192,100623,2,0,P|416:112|384:48,1,160,4|0,0:0|0:0,0:0:0:0:
128,192,101027,1,4,0:0:0:0:
384,192,101699,5,4,0:0:0:0:
224,192,101879,1,4,0:0:0:0:
384,192,102058,1,4,0:0:0:0:
128,192,102237,6,0,L|112:112,1,80,12|0,0:0|0:0,0:0:0:0:
240,192,102506,2,0,L|224:112,1,80,8|0,0:0|0:0,0:0:0:0:
352,192,102776,2,0,L|336:112,1,80,8|0,0:0|0:0,0:0:0:0:
96,272,103045,6,0,L|80:192,1,80,10|0,0:0|0:0,0:0:0:0:
208,272,103314,2,0,L|192:192,1,80,8|0,0:0|0:0,0:0:0:0:
320,272,103583,2,0,L|304:192,1,80,8|0,0:0|0:0,0:0:0:0:
432,272,103852,2,0,L|416:192,1,80,8|0,0:0|0:0,0:0:0:0:
288,96,104121,1,10,0:0:0:0:
400,96,104255,1,0,0:0:0:0:
144,112,104390,5,6,0:2:0:0:
96,160,104457,1,0,0:0:0:0:
96,224,104524,1,0,0:0:0:0:
144,272,104592,1,0,0:0:0:0:
224,112,104659,1,2,0:2:0:0:
272,160,104726,1,0,0:0:0:0:
272,224,104793,1,0,0:0:0:0:
224,272,104861,1,0,0:0:0:0:
144,112,104928,1,2,0:2:0:0:
96,160,104995,1,0,0:0:0:0:
96,224,105063,1,0,0:0:0:0:
144,272,105130,1,0,0:0:0:0:
224,272,105197,2,0,L|288:272,2,53.3333333333333,10|8|8,0:2|0:2|0:2,0:0:0:0:
64,80,105466,6,0,L|176:80,2,106.666666666667,8|8|8,0:2|0:2|0:2,0:0:0:0:
384,192,106004,2,0,L|272:192,2,106.666666666667,8|8|8,0:2|0:2|0:2,0:0:0:0:
64,304,106542,6,0,P|64:224|80:144,1,160,4|0,0:0|0:0,0:0:0:0:
304,145,107080,2,0,P|320:224|320:304,1,160,0|0,0:0|0:0,0:0:0:0:
80,80,107619,6,0,P|80:160|96:240,1,160,0|0,0:0|0:0,0:0:0:0:
320,239,108157,2,0,P|335:160|335:80,1,160,0|0,0:0|0:0,0:0:0:0:
96,304,108695,5,0,0:0:0:0:
416,304,109233,1,0,0:0:0:0:
128,304,109771,5,0,0:0:0:0:
384,304,110309,1,8,0:2:0:0:
400,245,110376,1,0,0:0:0:0:
401,185,110444,1,8,0:2:0:0:
383,127,110511,1,0,0:0:0:0:
351,77,110578,1,8,0:2:0:0:
305,38,110645,1,0,0:0:0:0:
256,32,110713,1,8,0:2:0:0:
208,32,110780,1,0,0:0:0:0:
368,56,110847,5,12,0:0:0:0:
464,96,110982,2,0,L|448:176,1,80,8|2,0:0|0:2,0:0:0:0:
208,128,111251,1,12,0:0:0:0:
112,168,111385,2,0,L|128:248,1,80,8|2,0:0|0:2,0:0:0:0:
368,328,111654,5,12,0:0:0:0:
464,288,111789,2,0,L|448:208,1,80,8|2,0:0|0:2,0:0:0:0:
208,256,112058,1,12,0:0:0:0:
304,192,112193,2,0,L|288:112,1,80,8|2,0:0|0:2,0:0:0:0:
144,192,112462,2,0,L|160:112,1,80,8|0,0:0|0:0,0:0:0:0:
400,112,112731,5,8,0:2:0:0:
416,160,112798,1,0,0:0:0:0:
400,208,112865,1,8,0:2:0:0:
352,208,112932,1,0,0:0:0:0:
192,192,113000,1,8,0:2:0:0:
144,192,113067,1,0,0:0:0:0:
304,144,113134,1,8,0:2:0:0:
352,144,113202,1,0,0:0:0:0:
192,96,113269,5,8,0:2:0:0:
48,96,113672,1,8,0:0:0:0:
464,96,113941,1,10,0:0:0:0:
384,96,114076,6,0,L|384:176,1,80,8|2,0:2|0:0,0:0:0:0:
432,176,114278,1,0,0:0:0:0:
384,176,114345,1,8,0:2:0:0:
336,176,114412,1,2,0:0:0:0:
304,224,114480,1,8,0:2:0:0:
400,224,114614,1,2,0:0:0:0:
112,224,114749,1,12,0:2:0:0:
192,336,115152,6,0,L|256:336,1,60.0000022888184,2|2,0:0|0:0,0:0:0:0:
160,288,115421,2,0,P|112:240|96:192,1,120.000004577637,2|0,0:0|0:0,0:0:0:0:
192,288,115825,2,0,P|240:240|256:192,1,120.000004577637,2|0,0:0|0:0,0:0:0:0:
128,288,116228,6,0,P|96:240|128:192,1,120.000004577637,2|0,0:0|0:0,0:0:0:0:
288,288,116632,2,0,P|320:240|288:192,1,120.000004577637,2|0,0:0|0:0,0:0:0:0:
128,288,117036,1,2,0:0:0:0:
352,48,117305,6,0,L|416:48,1,60.0000022888184,2|2,0:0|0:0,0:0:0:0:
320,96,117574,2,0,P|272:144|256:192,1,120.000004577637,2|0,0:0|0:0,0:0:0:0:
352,96,117977,2,0,P|400:144|416:192,1,120.000004577637,2|0,0:0|0:0,0:0:0:0:
288,96,118381,6,0,P|256:144|288:192,1,120.000004577637,2|0,0:0|0:0,0:0:0:0:
448,96,118785,2,0,P|480:144|448:192,1,120.000004577637,2|0,0:0|0:0,0:0:0:0:
288,96,119188,1,2,0:0:0:0:
384,192,119323,1,8,3:0:0:0:
320,192,119390,1,2,3:0:0:0:
160,192,119457,6,0,L|96:192,2,53.3333333333333,4|0|2,3:0|0:0|3:0,0:0:0:0:
256,192,119726,2,0,L|320:192,2,53.3333333333333,0|2|0,0:0|3:0|0:0,0:0:0:0:
160,192,119995,2,0,L|112:240,2,53.3333333333333,4|0|2,3:0|0:0|3:0,0:0:0:0:
256,192,120264,2,0,L|304:240,2,53.3333333333333,0|2|0,0:0|3:0|0:0,0:0:0:0:
160,192,120533,5,10,0:0:0:0:
352,192,120713,1,10,0:0:0:0:
160,192,120892,1,10,0:0:0:0:
448,96,121072,5,12,0:0:0:0:
464,160,121139,1,0,0:0:0:0:
464,224,121206,1,0,0:0:0:0:
448,288,121273,1,0,0:0:0:0:
384,288,121341,1,2,0:0:0:0:
336,288,121408,1,2,0:0:0:0:
384,288,121475,1,2,0:0:0:0:
336,288,121542,1,2,0:0:0:0:
192,192,121610,5,8,0:0:0:0:
304,272,121744,1,8,0:0:0:0:
336,224,121789,1,0,0:0:0:0:
336,160,121834,1,0,0:0:0:0:
304,112,121879,1,0,0:0:0:0:
192,128,122013,1,8,0:0:0:0:
256,128,122080,1,0,0:0:0:0:
320,128,122148,1,8,0:0:0:0:
208,272,122282,1,8,0:0:0:0:
176,224,122327,1,0,0:0:0:0:
176,160,122372,1,0,0:0:0:0:
208,112,122417,1,0,0:0:0:0:
320,192,122551,1,8,0:0:0:0:
208,192,122686,5,8,0:2:0:0:
304,192,122820,2,0,L|352:192,2,40,8|0|8,0:2|0:0|0:2,0:0:0:0:
208,192,123089,1,8,0:2:0:0:
320,192,123224,2,0,P|352:176|384:144,1,80,8|2,0:0|0:0,0:0:0:0:
384,80,123426,1,0,0:0:0:0:
192,192,123493,2,0,P|160:176|128:144,1,80,8|2,0:0|0:0,0:0:0:0:
128,80,123695,1,0,0:0:0:0:
384,80,123762,5,4,0:0:0:0:
