osu file format v14

[General]
AudioFilename: audio.mp3
AudioLeadIn: 0
PreviewTime: 71027
Countdown: 0
SampleSet: Soft
StackLeniency: 0.7
Mode: 2
LetterboxInBreaks: 0
WidescreenStoryboard: 0

[Editor]
DistanceSpacing: 1.1
BeatDivisor: 4
GridSize: 16
TimelineZoom: 0.7400018

[Metadata]
Title:Heterochromia Iridis
TitleUnicode:Heterochromia Iridis
Artist:FOLiACETATE
ArtistUnicode:FOLiACETATE
Creator:Deif
Version:Cup
Source:osu!
Tags:Featured Artist BMS LeaF sak t+mugen CHOiX To7 COALENSCENT BREAKCORE ノンジャンル2 Non Genre 2 Unlimited Fighters Electronic Instrumental
BeatmapID:2170651
BeatmapSetID:833719

[Difficulty]
HPDrainRate:3
CircleSize:2.5
OverallDifficulty:6
ApproachRate:6
SliderMultiplier:0.999999999999999
SliderTickRate:1

[Events]
//Background and Video events
0,0,"BG.jpg",0,0
//Break Periods
2,52931,59214
//Storyboard Layer 0 (Background)
//Storyboard Layer 1 (Fail)
//Storyboard Layer 2 (Pass)
//Storyboard Layer 3 (Foreground)
//Storyboard Layer 4 (Overlay)
//Storyboard Sound Samples

[TimingPoints]
1072,269.058295964126,4,1,0,60,1,0
3695,-100,4,1,0,30,0,0
3762,-100,4,1,0,60,0,0
4838,-100,4,1,1,50,0,0
5040,-100,4,1,1,25,0,0
5107,-100,4,1,1,60,0,0
5309,-100,4,1,1,30,0,0
5376,-100,4,1,1,50,0,0
6453,-100,4,1,1,45,0,0
6991,-100,4,1,1,40,0,0
7125,-100,4,1,1,50,0,0
7260,-100,4,1,1,55,0,0
7293,-100,4,1,1,35,0,0
7529,-100,4,1,1,50,0,0
8336,-100,4,1,1,55,0,0
8605,-100,4,1,1,60,0,0
9143,-100,4,1,1,50,0,0
9412,-100,4,1,1,60,0,0
9614,-100,4,1,1,30,0,0
9681,-100,4,1,1,60,0,0
13986,-133.333333333333,4,2,0,50,0,0
14255,-133.333333333333,4,2,0,55,0,0
14659,-133.333333333333,4,2,0,60,0,0
15063,-133.333333333333,4,2,0,65,0,0
15466,-133.333333333333,4,2,0,70,0,0
15870,-133.333333333333,4,2,0,75,0,0
16139,-100,4,1,1,60,0,0
17215,-100,4,1,1,50,0,0
17350,-100,4,1,1,25,0,0
17394,-100,4,1,1,50,0,0
17529,-100,4,1,1,25,0,0
17574,-100,4,1,1,50,0,0
17708,-100,4,1,1,25,0,0
17753,-100,4,1,1,60,0,0
17787,-100,4,1,1,30,0,0
18291,-100,4,1,1,60,0,0
35511,-100,4,1,1,50,0,0
36049,-100,4,1,0,50,0,0
36083,-100,4,1,0,25,0,0
36318,-100,4,1,0,50,0,0
36352,-100,4,1,0,25,0,0
36453,-100,4,1,0,50,0,0
36587,-100,4,1,1,50,0,0
37428,-100,4,1,0,25,0,0
37663,-100,4,1,0,50,0,0
38202,-100,4,1,1,50,0,0
38807,-100,4,1,1,25,0,0
39009,-100,4,1,1,50,0,0
39143,-100,4,1,1,25,0,0
39278,-100,4,1,0,50,0,0
39446,-100,4,1,0,25,0,0
39547,-100,4,1,0,50,0,0
39816,-100,4,1,1,50,0,0
40354,-100,4,1,0,50,0,0
40657,-100,4,1,0,25,0,0
40758,-100,4,1,0,50,0,0
40892,-100,4,1,1,50,0,0
41430,-100,4,1,0,50,0,0
41475,-100,4,1,0,25,0,0
41699,-100,4,1,0,25,0,0
41733,-100,4,1,0,50,0,0
41968,-100,4,1,0,50,0,0
42137,-100,4,1,0,25,0,0
42372,-100,4,1,0,50,0,0
42540,-100,4,1,0,25,0,0
42910,-100,4,1,0,50,0,0
43078,-100,4,1,0,25,0,0
43616,-100,4,1,0,25,0,0
43852,-100,4,1,0,50,0,0
43986,-100,4,1,0,55,0,0
44121,-100,4,1,0,60,0,0
45466,-100,4,1,0,65,0,0
45735,-100,4,1,0,70,0,0
46004,-100,4,1,0,65,0,0
46273,-100,4,1,0,60,0,0
47619,-100,4,1,0,65,0,0
47888,-100,4,1,0,70,0,0
48157,-100,4,1,0,60,0,0
49771,-100,4,1,0,70,0,0
50040,-100,4,1,0,65,0,0
50578,-100,4,1,0,60,0,0
52193,-100,4,1,0,70,0,0
52226,-100,4,1,0,35,0,0
52327,-100,4,1,0,60,0,0
52361,-100,4,1,0,30,0,0
52462,-100,4,1,0,50,0,0
52495,-100,4,1,0,25,0,0
52596,-100,4,1,0,40,0,0
52630,-100,4,1,0,20,0,0
52731,-200,4,2,0,50,0,0
61341,-133.333333333333,4,3,0,50,0,0
65645,-100,4,1,1,50,0,0
67798,-100,4,1,0,50,0,0
68874,-100,4,1,0,60,0,0
69143,-100,4,1,0,50,0,0
69412,-100,4,1,0,60,0,0
69681,-100,4,1,0,70,0,0
69715,-100,4,1,0,70,0,0
69950,-100,4,2,0,60,0,0
70623,-100,4,2,0,50,0,0
71027,-100,4,1,0,50,0,0
71565,-100,4,1,0,60,0,0
72103,-100,4,1,1,60,0,1
89054,-100,4,1,0,60,0,0
89087,-100,4,1,0,30,0,0
89323,-100,4,1,1,60,0,1
101027,-100,4,1,1,50,0,0
101699,-100,4,1,1,40,0,0
101879,-100,4,1,1,46,0,0
102058,-100,4,1,1,53,0,0
102237,-100,4,1,1,60,0,1
104390,-100,4,1,0,60,0,1
106542,-100,4,1,0,50,0,0
107080,-100,4,1,0,49,0,0
107619,-100,4,1,0,48,0,0
108157,-100,4,1,0,47,0,0
108695,-100,4,1,0,46,0,0
109233,-100,4,1,0,44,0,0
109771,-100,4,1,0,42,0,0
110309,-100,4,1,0,40,0,0
110444,-100,4,1,0,45,0,0
110578,-100,4,1,0,50,0,0
110713,-100,4,1,0,55,0,0
110847,-100,4,1,0,60,0,0
112764,-100,4,1,0,30,0,0
112865,-100,4,1,0,60,0,0
112899,-100,4,1,0,30,0,0
113000,-100,4,1,0,60,0,0
113033,-100,4,1,0,30,0,0
113134,-100,4,1,0,60,0,0
113168,-100,4,1,0,30,0,0
113269,-100,4,1,0,60,0,0
114076,-100,4,3,0,60,0,0
115152,-133.333333333333,4,2,0,30,0,0
115421,-133.333333333333,4,2,0,35,0,0
115825,-133.333333333333,4,2,0,40,0,0
116228,-133.333333333333,4,2,0,45,0,0
116632,-133.333333333333,4,2,0,50,0,0
117036,-133.333333333333,4,2,0,55,0,0
117305,-133.333333333333,4,2,0,50,0,0
117574,-133.333333333333,4,2,0,55,0,0
117977,-133.333333333333,4,2,0,60,0,0
118381,-133.333333333333,4,2,0,65,0,0
118785,-133.333333333333,4,2,0,70,0,0
119188,-133.333333333333,4,2,0,75,0,0
119457,-100,4,1,1,60,0,0
120533,-100,4,1,1,50,0,0
120668,-100,4,1,1,25,0,0
120713,-100,4,1,1,50,0,0
120847,-100,4,1,1,25,0,0
120892,-100,4,1,1,50,0,0
121027,-100,4,1,1,25,0,0
121072,-100,4,1,1,60,0,0
121105,-100,4,1,1,30,0,0
121341,-100,4,2,0,60,0,0
121610,-100,4,1,0,60,0,0
122686,-100,4,3,0,60,0,0
123224,-100,4,1,1,50,0,0
123650,-100,4,1,1,25,0,0
123762,-100,4,2,1,50,0,0

[Colours]
Combo1 : 255,255,0
Combo2 : 243,89,34
Combo3 : 112,196,193
Combo4 : 128,255,0

[HitObjects]
176,192,3224,6,0,L|176:128,1,50,8|8,0:0|0:0,0:0:0:0:
256,80,3628,1,8,0:0:0:0:
336,192,3762,2,0,L|336:128,1,50,8|8,0:0|0:0,0:0:0:0:
256,80,4166,1,8,0:0:0:0:
176,192,4300,6,0,L|176:128,1,50,8|8,0:0|0:0,0:0:0:0:
256,192,4569,2,0,L|256:128,1,50,0|8,0:0|0:0,0:0:0:0:
176,192,4838,2,0,L|64:192,1,99.9999999999999,8|10,0:0|0:0,0:0:0:0:
224,192,5376,6,0,L|288:192,2,50,6|0|8,0:0|0:0|0:0,0:0:0:0:
96,192,5915,2,0,L|80:144,1,50,10|2,2:0|0:0,0:0:0:0:
256,144,6453,6,0,L|368:144,2,99.9999999999999,2|8|2,0:0|0:0|2:0,0:0:0:0:
192,192,7125,1,8,2:0:0:0:
256,240,7260,1,8,0:0:0:0:
400,192,7529,6,0,P|432:144|432:96,1,99.9999999999999,2|8,0:0|0:0,0:0:0:0:
368,64,7932,2,0,P|304:128|368:256,1,250,2|8,0:0|2:0,0:0:0:0:
240,272,8874,5,8,2:0:0:0:
368,288,9143,2,0,L|432:288,2,50,8|0|8,2:0|0:0|3:0,0:0:0:0:
224,192,9681,5,6,0:0:0:0:
352,192,9950,2,0,P|432:144|432:96,1,150,8|2,0:0|0:0,0:0:0:0:
240,192,10758,6,0,P|160:144|160:96,1,150,8|2,0:0|0:0,0:0:0:0:
352,192,11565,1,8,0:0:0:0:
160,192,12103,6,0,P|80:144|80:96,1,150,8|2,0:0|0:0,0:0:0:0:
272,192,12910,6,0,P|352:144|352:96,1,150,8|2,0:0|0:0,0:0:0:0:
160,192,13717,1,8,0:0:0:0:
256,192,13986,12,0,15735,0:0:0:0:
288,192,16004,5,8,3:0:0:0:
224,192,16139,6,0,L|144:192,2,66.6666666666666,4|2|2,3:0|3:0|3:0,0:0:0:0:
288,192,16677,2,0,L|368:192,2,66.6666666666666,4|2|2,3:0|3:0|3:0,0:0:0:0:
224,96,17215,6,0,L|208:176,1,66.6666666666666,10|10,0:0|0:0,0:0:0:0:
288,96,17574,2,0,L|304:176,1,66.6666666666666,10|12,0:0|0:0,0:0:0:0:
64,96,18291,6,0,P|48:160|64:192,1,99.9999999999999,6|8,0:0|0:0,0:0:0:0:
128,192,18695,1,2,0:0:0:0:
128,192,18964,1,2,0:0:0:0:
64,192,19098,1,8,0:0:0:0:
64,96,19367,6,0,L|160:64,1,99.9999999999999,2|8,0:0|0:0,0:0:0:0:
158,64,19771,1,2,0:0:0:0:
256,192,20040,1,2,0:0:0:0:
256,192,20175,1,8,0:0:0:0:
400,96,20444,6,0,P|416:160|400:192,1,99.9999999999999,2|8,0:0|0:0,0:0:0:0:
336,192,20847,1,2,0:0:0:0:
336,192,21116,1,2,0:0:0:0:
400,192,21251,1,8,0:0:0:0:
400,304,21520,6,0,L|304:272,1,99.9999999999999,2|8,0:0|0:0,0:0:0:0:
305,272,21924,1,2,0:0:0:0:
416,192,22193,1,2,0:0:0:0:
416,144,22327,1,8,0:0:0:0:
272,144,22596,6,0,L|160:144,1,99.9999999999999,2|8,0:0|0:0,0:0:0:0:
144,96,23000,1,2,0:0:0:0:
192,48,23134,1,2,2:0:0:0:
304,48,23403,1,8,0:0:0:0:
160,192,23672,6,0,L|272:192,1,99.9999999999999,2|8,0:0|0:0,0:0:0:0:
288,240,24076,1,2,0:0:0:0:
240,288,24211,1,2,2:0:0:0:
128,288,24480,1,8,0:0:0:0:
272,288,24749,6,0,P|304:256|304:192,1,99.9999999999999,2|8,0:0|0:0,0:0:0:0:
256,192,25152,2,0,P|224:160|224:96,1,99.9999999999999,2|2,0:0|0:0,0:0:0:0:
272,96,25556,1,8,0:0:0:0:
416,256,25825,6,0,P|380:222|331:219,1,99.9999999999999,2|8,0:0|0:0,0:0:0:0:
280,176,26228,2,0,P|315:142|364:139,1,99.9999999999999,2|8,0:0|0:0,0:0:0:0:
416,96,26632,1,8,0:0:0:0:
288,96,26901,6,0,L|176:96,2,99.9999999999999,6|8|2,0:0|0:0|2:0,0:0:0:0:
416,256,27708,1,8,0:0:0:0:
352,256,27843,1,10,0:0:0:0:
224,256,28112,5,0,0:0:0:0:
176,256,28246,1,8,0:0:0:0:
144,208,28381,1,2,0:0:0:0:
176,160,28515,1,2,2:0:0:0:
320,160,28785,1,8,0:0:0:0:
176,160,29054,5,6,0:0:0:0:
112,160,29188,1,8,0:0:0:0:
176,160,29323,1,6,0:0:0:0:
320,160,29592,2,0,L|400:160,2,74.9999999999999,6|6|6,0:0|0:0|0:0,0:0:0:0:
240,160,30130,6,0,P|208:208|320:320,1,250,2|2,0:0|0:0,0:0:0:0:
384,320,30937,1,8,0:0:0:0:
400,256,31072,1,0,0:0:0:0:
320,256,31206,6,0,P|288:208|288:160,1,99.9999999999999,6|8,0:0|0:0,0:0:0:0:
384,96,31744,1,2,2:0:0:0:
240,96,32013,1,8,0:0:0:0:
192,96,32148,1,4,0:0:0:0:
336,96,32417,5,0,0:0:0:0:
384,96,32551,1,4,0:0:0:0:
240,288,32820,2,0,L|176:288,1,50,2|2,2:0|0:0,0:0:0:0:
240,240,33089,2,0,L|256:192,1,50,8|0,0:0|0:0,0:0:0:0:
142,192,33493,6,0,L|192:192,1,50,0|12,0:0|0:0,0:0:0:0:
320,192,33897,2,0,L|400:192,2,74.9999999999999,12|12|2,0:0|0:0|0:0,0:0:0:0:
256,128,34435,6,0,L|176:128,2,74.9999999999999,14|12|2,0:0|0:0|0:0,0:0:0:0:
320,64,34973,2,0,L|432:64,1,99.9999999999999,12|12,0:0|0:0,0:0:0:0:
272,64,35511,6,0,P|240:96|256:144,1,99.9999999999999,4|8,0:0|0:0,0:0:0:0:
384,192,36049,2,0,P|400:256|336:304,1,150,8|8,0:0|0:0,0:0:0:0:
256,304,36587,6,0,P|240:256|256:208,1,99.9999999999999,8|8,0:0|0:0,0:0:0:0:
368,80,37125,1,8,0:0:0:0:
368,128,37260,1,2,0:0:0:0:
320,176,37394,1,8,0:0:0:0:
176,192,37663,5,8,0:0:0:0:
128,192,37798,1,8,0:0:0:0:
128,96,38067,1,0,0:0:0:0:
176,96,38202,2,0,P|224:96|256:144,1,99.9999999999999,8|2,0:0|0:0,0:0:0:0:
256,192,38605,1,2,0:0:0:0:
192,224,38740,6,0,L|192:288,1,50,2|8,0:0|0:2,0:0:0:0:
256,304,39009,1,2,0:0:0:0:
384,192,39278,1,8,0:0:0:0:
432,192,39412,1,8,0:0:0:0:
384,192,39547,1,8,0:0:0:0:
336,192,39681,1,8,0:0:0:0:
384,192,39816,6,0,P|400:144|400:96,1,99.9999999999999,8|8,0:0|0:0,0:0:0:0:
272,96,40354,2,0,L|384:96,1,99.9999999999999,8|8,0:0|0:0,0:0:0:0:
224,192,40892,6,0,P|208:240|208:288,1,99.9999999999999,8|8,0:0|0:0,0:0:0:0:
336,288,41430,2,0,L|224:288,1,99.9999999999999,8|8,0:0|0:0,0:0:0:0:
384,192,41968,5,8,0:0:0:0:
432,160,42103,2,0,P|448:128|432:64,1,99.9999999999999,8|8,0:0|0:0,0:0:0:0:
384,64,42506,2,0,P|336:112|336:192,1,150,8|8,0:0|0:0,0:0:0:0:
384,192,43045,6,0,P|432:240|432:320,1,150,8|8,0:0|0:0,0:0:0:0:
384,320,43583,1,8,0:0:0:0:
240,320,43852,1,0,0:0:0:0:
192,320,43986,1,0,0:0:0:0:
272,192,44121,5,4,0:0:0:0:
400,192,44390,1,10,0:2:0:0:
272,192,44659,2,0,P|240:176|224:112,1,99.9999999999999,8|10,0:0|0:2,0:0:0:0:
224,64,45063,1,0,0:0:0:0:
272,64,45197,5,8,0:0:0:0:
144,192,45466,1,12,0:2:0:0:
288,192,45735,1,12,0:2:0:0:
160,192,46004,1,8,0:0:0:0:
224,192,46139,1,8,0:2:0:0:
288,192,46273,6,0,P|304:144|304:96,1,99.9999999999999,8|10,0:0|0:2,0:0:0:0:
176,96,46811,2,0,P|112:96|80:128,1,99.9999999999999,8|10,0:0|0:2,0:0:0:0:
80,160,47215,1,0,0:0:0:0:
128,208,47350,5,8,0:0:0:0:
272,144,47619,1,12,0:2:0:0:
128,144,47888,1,12,0:2:0:0:
272,64,48157,1,8,0:0:0:0:
320,64,48291,1,8,0:2:0:0:
240,192,48426,5,0,0:0:0:0:
112,192,48695,1,10,0:2:0:0:
240,192,48964,2,0,P|288:208|304:256,1,99.9999999999999,8|10,0:0|0:2,0:0:0:0:
304,320,49367,1,0,0:0:0:0:
240,320,49502,6,0,P|208:272|208:224,1,99.9999999999999,8|10,0:0|0:2,0:0:0:0:
350,216,50040,2,8,P|379:177|384:128,1,99.9999999999999,12|0,0:2|0:0,0:0:0:0:
320,128,50444,1,8,0:2:0:0:
256,128,50578,5,8,0:0:0:0:
384,192,50847,1,8,0:0:0:0:
256,256,51116,2,0,L|176:256,2,74.9999999999999,8|8|8,0:0|0:0|0:0,0:0:0:0:
320,256,51654,5,8,0:0:0:0:
192,192,51924,1,8,0:0:0:0:
320,128,52193,2,0,P|384:144|400:176,1,99.9999999999999,8|8,0:2|0:2,0:0:0:0:
256,192,52731,5,12,1:2:0:0:
208,192,60264,5,8,0:0:0:0:
304,192,60802,1,8,0:0:0:0:
144,192,61341,6,0,L|128:112,1,75.000002861023,4|0,0:0|1:0,0:0:0:0:
224,96,61879,1,8,0:2:0:0:
288,96,62282,1,0,1:0:0:0:
224,160,62417,6,0,L|224:208,1,37.5000014305115,8|0,0:0|1:0,0:0:0:0:
288,256,62686,1,4,0:0:0:0:
192,256,62955,1,8,0:2:0:0:
288,256,63224,2,0,L|288:208,1,37.5000014305115,4|0,0:0|1:0,0:0:0:0:
224,160,63493,5,8,0:0:0:0:
192,128,63628,1,0,1:0:0:0:
192,96,63762,1,4,0:0:0:0:
224,64,63897,1,0,1:0:0:0:
288,64,64031,1,8,0:2:0:0:
416,144,64435,1,0,0:0:0:0:
336,192,64569,6,0,P|320:224|336:256,1,75.000002861023,8|4,0:0|0:0,0:0:0:0:
224,192,65107,2,0,L|304:192,1,75.000002861023,8|4,0:2|0:0,0:0:0:0:
144,96,65645,6,0,L|32:96,2,99.9999999999999,4|8|2,0:0|0:0|0:0,0:0:0:0:
208,96,66318,1,0,0:0:0:0:
240,192,66453,1,2,0:0:0:0:
208,288,66587,1,0,0:0:0:0:
144,288,66722,6,0,L|32:288,2,99.9999999999999,2|2|2,0:0|0:0|0:0,0:0:0:0:
256,192,67529,1,2,0:0:0:0:
192,192,67663,1,0,0:0:0:0:
256,192,67798,6,0,L|368:192,1,99.9999999999999,8|8,0:2|0:2,0:0:0:0:
208,304,68336,2,0,L|320:304,1,99.9999999999999,8|8,0:2|0:2,0:0:0:0:
160,192,68874,6,0,L|144:80,1,99.9999999999999,8|8,0:2|0:2,0:0:0:0:
270,93,69412,2,0,L|256:192,1,99.9999999999999,8|12,0:2|0:2,0:0:0:0:
256,192,69950,12,2,70623,0:0:0:0:
272,192,71027,6,0,P|336:128|272:64,1,200,8|8,0:2|0:2,0:0:0:0:
160,192,71834,1,8,0:2:0:0:
320,192,72103,6,0,P|384:176|400:96,1,150,6|2,0:0|0:0,0:0:0:0:
256,96,72776,2,0,L|256:160,1,50,2|8,0:0|0:0,0:0:0:0:
400,192,73179,6,0,L|240:192,2,150,2|2|8,0:0|0:0|0:0,0:0:0:0:
240,192,74255,6,0,L|128:192,1,99.9999999999999,2|8,0:0|0:0,0:0:0:0:
140,192,74659,1,2,0:0:0:0:
288,128,74928,2,0,L|288:192,1,50,2|8,0:0|0:0,0:0:0:0:
128,288,75332,6,0,L|240:288,1,99.9999999999999,2|8,0:0|0:0,0:0:0:0:
228,288,75735,1,2,0:0:0:0:
368,288,76004,2,0,L|368:224,1,50,2|8,0:0|0:0,0:0:0:0:
208,192,76408,6,0,P|144:208|128:288,1,150,2|2,0:0|0:0,0:0:0:0:
272,288,77080,2,0,L|272:224,1,50,2|8,0:0|0:0,0:0:0:0:
128,192,77484,6,0,L|240:192,1,99.9999999999999,2|8,0:0|0:0,0:0:0:0:
96,112,78022,2,0,L|208:112,1,99.9999999999999,2|8,2:0|0:0,0:0:0:0:
352,112,78560,6,0,L|240:112,1,99.9999999999999,2|8,0:0|0:0,0:0:0:0:
252,112,78964,1,2,0:0:0:0:
400,176,79233,2,0,L|400:112,1,50,2|8,0:0|0:0,0:0:0:0:
240,192,79637,6,0,L|128:192,1,99.9999999999999,2|8,0:0|0:0,0:0:0:0:
272,272,80175,2,0,L|160:272,1,99.9999999999999,2|8,2:0|0:0,0:0:0:0:
320,272,80713,6,0,P|352:224|352:176,1,99.9999999999999,6|8,0:0|0:0,0:0:0:0:
208,176,81251,2,0,L|144:176,2,50,2|2|8,0:0|2:0|0:0,0:0:0:0:
368,112,81789,6,0,P|384:176|384:224,1,99.9999999999999,2|8,0:0|0:0,0:0:0:0:
240,208,82327,2,0,L|352:208,1,99.9999999999999,2|8,0:0|0:0,0:0:0:0:
176,112,82865,6,0,P|160:176|160:224,1,99.9999999999999,2|8,0:0|0:0,0:0:0:0:
304,208,83403,2,0,L|368:208,2,50,2|2|8,0:0|2:0|0:0,0:0:0:0:
144,272,83941,6,0,P|128:224|144:176,1,99.9999999999999,2|8,0:0|0:0,0:0:0:0:
288,176,84480,2,0,L|176:176,1,99.9999999999999,2|8,0:0|0:0,0:0:0:0:
336,224,85018,6,0,L|224:224,2,99.9999999999999,6|8|2,0:0|0:0|0:0,0:0:0:0:
416,112,85825,1,8,0:0:0:0:
256,112,86094,6,0,L|256:176,1,50,2|0,0:0|0:0,0:0:0:0:
336,192,86363,1,8,0:0:0:0:
192,192,86632,2,0,P|192:256|208:288,1,99.9999999999999,2|8,0:0|0:0,0:0:0:0:
256,192,87036,1,2,2:0:0:0:
192,192,87170,5,2,0:0:0:0:
144,192,87305,1,2,2:0:0:0:
112,144,87439,1,8,0:0:0:0:
256,128,87708,2,0,L|256:64,1,50,2|2,0:0|0:0,0:0:0:0:
176,64,87977,2,0,L|176:128,1,50,8|0,0:0|0:0,0:0:0:0:
256,128,88246,6,0,L|368:128,1,99.9999999999999,2|8,0:0|0:0,0:0:0:0:
208,224,88785,2,0,L|320:224,1,99.9999999999999,2|8,0:0|0:0,0:0:0:0:
160,192,89323,6,0,P|128:144|128:96,1,99.9999999999999,6|8,0:0|0:0,0:0:0:0:
272,144,89861,2,0,L|272:94,1,50,2|2,2:0|0:0,0:0:0:0:
208,94,90130,1,8,0:0:0:0:
64,192,90399,6,0,L|224:192,2,150,2|2|8,0:0|0:0|0:0,0:0:0:0:
214,192,91475,5,6,0:0:0:0:
352,192,91744,2,0,L|368:144,1,50,8|6,0:0|0:0,0:0:0:0:
224,112,92148,2,0,L|202:64,1,50,2|6,0:0|0:0,0:0:0:0:
352,192,92551,6,0,L|336:240,1,50,8|6,0:0|0:0,0:0:0:0:
192,192,92955,2,0,L|208:240,1,50,8|6,0:0|0:0,0:0:0:0:
336,239,93358,1,8,0:0:0:0:
193,237,93628,6,0,P|177:189|193:141,1,99.9999999999999,8|12,0:0|0:0,0:0:0:0:
320,240,94166,2,0,P|336:192|320:144,1,99.9999999999999,2|8,2:0|0:0,0:0:0:0:
192,144,94704,6,0,L|128:144,2,50,2|0|8,0:0|0:0|0:0,0:0:0:0:
320,144,95242,2,0,L|384:144,2,50,2|2|8,2:0|0:0|0:0,0:0:0:0:
160,192,95780,5,2,0:0:0:0:
304,192,96049,2,0,L|288:240,1,50,8|2,0:0|0:0,0:0:0:0:
144,192,96453,2,0,L|160:240,1,50,8|2,0:0|0:0,0:0:0:0:
304,192,96856,6,0,P|320:240|304:288,1,99.9999999999999,2|8,0:0|0:0,0:0:0:0:
272,288,97260,1,2,0:0:0:0:
128,192,97529,1,2,0:0:0:0:
352,192,97932,6,0,P|368:128|368:80,1,99.9999999999999,4|8,0:0|0:0,0:0:0:0:
224,96,98471,1,4,0:0:0:0:
176,144,98605,1,2,0:0:0:0:
176,208,98740,1,0,0:0:0:0:
224,256,98874,1,4,0:0:0:0:
368,208,99143,5,0,0:0:0:0:
320,256,99278,1,4,0:0:0:0:
176,208,99547,2,0,L|96:208,2,66.6666666666666,12|8|8,0:0|0:0|0:0,0:0:0:0:
272,208,100085,6,0,P|272:160|256:112,1,99.9999999999999,4|2,0:0|0:0,0:0:0:0:
112,112,100623,1,4,0:0:0:0:
256,112,100892,2,0,L|240:160,1,50,0|4,0:0|0:0,0:0:0:0:
112,192,101699,6,0,L|32:192,2,66.6666666666666,4|4|4,0:0|0:0|0:0,0:0:0:0:
208,192,102237,6,0,L|320:192,2,99.9999999999999,12|8|8,0:0|0:0|0:0,0:0:0:0:
352,96,103045,2,0,L|464:96,1,99.9999999999999,10|8,0:0|0:0,0:0:0:0:
352,192,103583,6,0,L|240:192,1,99.9999999999999,8|8,0:0|0:0,0:0:0:0:
400,192,104121,1,10,0:0:0:0:
256,192,104390,12,4,106542,0:0:0:0:
144,144,106811,5,0,0:0:0:0:
144,240,107080,1,0,0:0:0:0:
192,320,107350,1,0,0:0:0:0:
320,320,107619,5,0,0:0:0:0:
368,240,107888,1,0,0:0:0:0:
368,144,108157,1,0,0:0:0:0:
320,64,108426,1,0,0:0:0:0:
192,64,108695,5,0,0:0:0:0:
368,192,109233,1,0,0:0:0:0:
144,192,109771,5,0,0:0:0:0:
176,192,110847,5,12,0:0:0:0:
208,192,110982,1,8,0:0:0:0:
336,192,111251,1,12,0:0:0:0:
304,192,111385,1,8,0:0:0:0:
144,192,111654,1,12,0:0:0:0:
176,192,111789,1,8,0:0:0:0:
336,192,112058,6,0,L|400:192,2,50,12|8|2,0:0|0:0|0:2,0:0:0:0:
288,192,112462,2,0,L|176:192,1,99.9999999999999,8|8,0:0|0:2,0:0:0:0:
304,96,113000,6,0,L|368:96,2,50,8|8|8,0:2|0:2|0:2,0:0:0:0:
144,192,113672,1,8,0:0:0:0:
304,192,113941,1,10,0:0:0:0:
368,192,114076,6,0,L|448:192,2,74.9999999999999,8|0|8,0:2|0:0|0:2,0:0:0:0:
304,192,114614,1,2,0:0:0:0:
368,192,114749,1,12,0:2:0:0:
256,192,115152,12,2,117036,0:0:0:0:
256,192,117305,12,0,119054,0:0:0:0:
288,192,119323,5,8,3:0:0:0:
224,192,119457,6,0,L|144:192,2,66.6666666666666,4|2|2,3:0|3:0|3:0,0:0:0:0:
288,192,119995,2,0,L|368:192,2,66.6666666666666,4|2|2,3:0|3:0|3:0,0:0:0:0:
224,288,120533,6,0,L|208:208,1,66.6666666666666,10|10,0:0|0:0,0:0:0:0:
288,288,120892,2,0,L|304:208,1,66.6666666666666,10|12,0:0|0:0,0:0:0:0:
192,192,121341,1,2,0:0:0:0:
336,192,121610,6,0,L|336:128,1,50,8|8,0:0|0:0,0:0:0:0:
256,80,122013,1,8,0:0:0:0:
176,192,122148,2,0,L|176:128,1,50,8|8,0:0|0:0,0:0:0:0:
256,80,122551,1,8,0:0:0:0:
336,192,122686,6,0,L|336:128,1,50,8|8,0:2|0:2,0:0:0:0:
256,192,122955,2,0,L|256:128,1,50,8|8,0:2|0:2,0:0:0:0:
336,192,123224,2,0,P|352:144|336:96,1,99.9999999999999,8|8,0:0|0:0,0:0:0:0:
176,192,123762,5,4,0:0:0:0:
