osu file format v14

[General]
AudioFilename: audio.mp3
AudioLeadIn: 0
PreviewTime: 72059
Countdown: 0
SampleSet: Normal
StackLeniency: 0.7
Mode: 1
LetterboxInBreaks: 0
WidescreenStoryboard: 0

[Editor]
Bookmarks: 122541
DistanceSpacing: 1
BeatDivisor: 4
GridSize: 32
TimelineZoom: 2.1

[Metadata]
Title:Heterochromia Iridis
TitleUnicode:Heterochromia Iridis
Artist:FOLiACETATE
ArtistUnicode:FOLiACETATE
Creator:DakeDekaane
Version:Futsuu
Source:BMS
Tags:LeaF sak Coalenscent Breakcore flash flash revolution
BeatmapID:960949
BeatmapSetID:432303

[Difficulty]
HPDrainRate:6
CircleSize:5
OverallDifficulty:4
ApproachRate:5
SliderMultiplier:1.4
SliderTickRate:1

[Events]
//Background and Video events
0,0,"BG.jpg",0,0
//Break Periods
//Storyboard Layer 0 (Background)
//Storyboard Layer 1 (Fail)
//Storyboard Layer 2 (Pass)
//Storyboard Layer 3 (Foreground)
//Storyboard Sound Samples

[TimingPoints]
1062,269.058295964126,4,1,0,90,1,0
13976,-100,4,1,0,75,0,0
15994,-100,4,1,0,90,0,0
72093,269.058295964126,4,1,0,90,1,1
106532,-100,4,1,0,90,0,0
115142,-100,4,1,0,60,0,0
117294,-100,4,1,0,75,0,0
119312,-100,4,1,0,90,0,0

[HitObjects]
256,192,3214,5,8,0:0:0:0:
256,192,3752,1,8,0:0:0:0:
256,192,4290,1,8,0:0:0:0:
256,192,4559,1,8,0:0:0:0:
256,192,4828,1,0,0:0:0:0:
256,192,5366,1,12,0:0:0:0:
256,192,5635,1,0,0:0:0:0:
256,192,5905,1,8,0:0:0:0:
256,192,6174,1,0,0:0:0:0:
256,192,6308,1,0,0:0:0:0:
256,192,6443,1,0,0:0:0:0:
256,192,6981,1,8,0:0:0:0:
256,192,7115,1,8,0:0:0:0:
256,192,7250,1,0,0:0:0:0:
256,192,7519,1,0,0:0:0:0:
256,192,7788,1,8,0:0:0:0:
256,192,8057,1,0,0:0:0:0:
256,192,8192,1,8,0:0:0:0:
256,192,8326,1,0,0:0:0:0:
256,192,8595,1,0,0:0:0:0:
256,192,8864,1,0,0:0:0:0:
256,192,8999,1,0,0:0:0:0:
256,192,9133,1,0,0:0:0:0:
256,192,9671,1,4,0:0:0:0:
256,192,9940,1,8,0:0:0:0:
256,192,10344,1,8,0:0:0:0:
256,192,10748,1,8,0:0:0:0:
256,192,11151,1,8,0:0:0:0:
256,192,11555,1,8,0:0:0:0:
256,192,11824,1,0,0:0:0:0:
256,192,12093,1,8,0:0:0:0:
256,192,12496,1,8,0:0:0:0:
256,192,12900,1,8,0:0:0:0:
224,192,13304,1,8,0:0:0:0:
224,192,13707,1,8,0:0:0:0:
224,192,13976,1,0,0:0:0:0:
224,192,14111,1,0,0:0:0:0:
224,192,14245,1,0,0:0:0:0:
224,192,14514,1,8,0:0:0:0:
224,192,14649,1,8,0:0:0:0:
224,192,14918,1,0,0:0:0:0:
224,192,15053,1,0,0:0:0:0:
224,192,15322,1,8,0:0:0:0:
224,192,15456,1,8,0:0:0:0:
224,192,15725,1,0,0:0:0:0:
224,192,15860,1,0,0:0:0:0:
256,192,16129,12,0,17743,0:0:0:0:
256,192,18281,5,0,0:0:0:0:
256,192,18550,1,8,0:0:0:0:
256,192,19088,1,8,0:0:0:0:
256,192,19357,1,0,0:0:0:0:
256,192,19627,1,8,0:0:0:0:
256,192,19761,1,0,0:0:0:0:
256,192,20030,1,0,0:0:0:0:
256,192,20165,1,8,0:0:0:0:
256,192,20434,5,0,0:0:0:0:
256,192,20703,1,8,0:0:0:0:
256,192,21241,1,8,0:0:0:0:
256,192,21510,1,0,0:0:0:0:
256,192,21780,1,8,0:0:0:0:
256,192,21914,1,0,0:0:0:0:
256,192,22183,1,0,0:0:0:0:
256,192,22318,1,8,0:0:0:0:
256,192,22586,5,0,0:0:0:0:
256,192,22855,1,8,0:0:0:0:
256,192,23393,1,8,0:0:0:0:
256,192,23662,1,0,0:0:0:0:
256,192,23932,1,8,0:0:0:0:
256,192,24066,1,0,0:0:0:0:
256,192,24335,1,0,0:0:0:0:
256,192,24470,1,8,0:0:0:0:
256,192,24739,5,0,0:0:0:0:
256,192,25008,1,8,0:0:0:0:
256,192,25546,1,8,0:0:0:0:
256,192,25815,1,0,0:0:0:0:
256,192,26085,1,8,0:0:0:0:
256,192,26219,1,0,0:0:0:0:
256,192,26353,1,8,0:0:0:0:
256,192,26623,1,8,0:0:0:0:
256,192,26891,1,0,0:0:0:0:
256,192,27160,1,0,0:0:0:0:
256,192,27295,1,0,0:0:0:0:
256,192,27429,1,0,0:0:0:0:
256,192,27833,1,8,0:0:0:0:
256,192,28236,1,0,0:0:0:0:
256,192,28371,1,0,0:0:0:0:
256,192,28505,1,0,0:0:0:0:
256,192,29178,1,0,0:0:0:0:
256,192,29313,1,0,0:0:0:0:
256,192,29582,1,8,0:0:0:0:
256,192,29783,1,8,0:0:0:0:
256,192,29985,1,8,0:0:0:0:
256,192,30120,12,0,30927,0:0:0:0:
256,192,31196,5,0,0:0:0:0:
256,192,31465,1,0,0:0:0:0:
256,192,31600,1,0,0:0:0:0:
256,192,31734,1,0,0:0:0:0:
256,192,32138,1,8,0:0:0:0:
256,192,32541,1,0,0:0:0:0:
256,192,32676,1,0,0:0:0:0:
256,192,32810,1,0,0:0:0:0:
256,192,33483,1,8,0:0:0:0:
256,192,33618,1,8,0:0:0:0:
256,192,33887,12,0,35232,0:0:0:0:
256,192,35501,5,4,0:0:0:0:
256,192,35770,1,8,0:0:0:0:
256,192,36039,1,8,0:0:0:0:
256,192,36174,1,8,0:0:0:0:
256,192,36443,1,0,0:0:0:0:
256,192,36846,1,8,0:0:0:0:
256,192,37115,1,8,0:0:0:0:
256,192,37250,1,0,0:0:0:0:
256,192,37384,1,8,0:0:0:0:
256,192,37653,1,8,0:0:0:0:
256,192,38192,1,8,0:0:0:0:
256,192,38461,1,0,0:0:0:0:
256,192,38730,1,0,0:0:0:0:
256,192,38864,1,0,0:0:0:0:
256,192,38999,1,8,0:0:0:0:
256,192,39268,1,0,0:0:0:0:
256,192,39537,1,8,0:0:0:0:
256,192,39806,1,0,0:0:0:0:
256,192,40075,1,8,0:0:0:0:
256,192,40479,1,8,0:0:0:0:
256,192,40882,1,8,0:0:0:0:
256,192,41151,1,8,0:0:0:0:
256,192,41286,1,0,0:0:0:0:
256,192,41420,1,0,0:0:0:0:
256,192,41689,5,0,0:0:0:0:
256,192,41958,5,8,0:0:0:0:
256,192,42093,1,0,0:0:0:0:
256,192,42362,1,8,0:0:0:0:
256,192,42496,1,0,0:0:0:0:
256,192,42900,1,8,0:0:0:0:
256,192,43035,1,0,0:0:0:0:
256,192,43438,1,8,0:0:0:0:
256,192,43573,1,0,0:0:0:0:
256,192,44111,1,4,0:0:0:0:
256,192,44380,1,0,0:0:0:0:
256,192,44649,1,0,0:0:0:0:
256,192,44918,1,0,0:0:0:0:
256,192,45052,1,0,0:0:0:0:
256,192,45187,1,0,0:0:0:0:
256,192,45456,1,8,0:0:0:0:
256,192,45725,1,8,0:0:0:0:
256,192,46263,1,0,0:0:0:0:
256,192,46532,1,0,0:0:0:0:
256,192,46801,1,8,0:0:0:0:
256,192,47070,1,0,0:0:0:0:
256,192,47205,1,0,0:0:0:0:
256,192,47340,1,0,0:0:0:0:
256,192,47609,1,8,0:0:0:0:
256,192,47878,1,8,0:0:0:0:
256,192,48416,1,4,0:0:0:0:
256,192,48685,1,0,0:0:0:0:
256,192,48954,1,0,0:0:0:0:
256,192,49222,1,0,0:0:0:0:
256,192,49357,1,0,0:0:0:0:
256,192,49491,1,0,0:0:0:0:
256,192,49761,1,8,0:0:0:0:
256,192,49896,1,8,0:0:0:0:
256,192,50030,1,8,0:0:0:0:
256,192,50568,1,0,0:0:0:0:
256,192,50837,1,0,0:0:0:0:
256,192,51106,1,0,0:0:0:0:
256,192,51375,1,0,0:0:0:0:
256,192,51644,1,8,0:0:0:0:
256,192,51914,1,8,0:0:0:0:
256,192,52183,1,8,0:0:0:0:
256,192,52317,1,8,0:0:0:0:
256,192,52452,1,8,0:0:0:0:
256,192,52586,1,8,0:0:0:0:
256,192,52721,1,0,0:0:0:0:
256,192,54873,1,0,0:0:0:0:
256,192,57026,1,8,0:0:0:0:
256,192,59178,1,0,0:0:0:0:
256,192,60254,1,0,0:0:0:0:
256,192,60792,1,0,0:0:0:0:
256,192,61331,1,0,0:0:0:0:
256,192,61869,1,8,0:0:0:0:
256,192,62945,1,8,0:0:0:0:
256,192,63483,1,0,0:0:0:0:
256,192,63752,1,0,0:0:0:0:
256,192,64021,1,8,0:0:0:0:
256,192,64559,1,0,0:0:0:0:
256,192,65097,1,8,0:0:0:0:
256,192,65366,1,0,0:0:0:0:
256,192,65635,1,0,0:0:0:0:
256,192,65905,1,8,0:0:0:0:
256,192,66443,1,8,0:0:0:0:
256,192,66577,1,0,0:0:0:0:
256,192,66712,1,0,0:0:0:0:
256,192,66981,1,8,0:0:0:0:
256,192,67519,1,8,0:0:0:0:
256,192,67653,1,8,0:0:0:0:
256,192,67788,1,0,0:0:0:0:
256,192,68057,1,0,0:0:0:0:
256,192,68326,1,0,0:0:0:0:
256,192,68595,1,0,0:0:0:0:
256,192,68864,2,0,B|512:192|512:192|512:0,1,420
256,192,69940,1,4,0:0:0:0:
256,192,71017,12,0,71824,0:0:0:0:
256,192,72093,5,4,0:0:0:0:
256,192,72362,1,8,0:0:0:0:
256,192,72496,1,0,0:0:0:0:
256,192,72765,1,0,0:0:0:0:
256,192,72900,1,8,0:0:0:0:
256,192,73169,1,0,0:0:0:0:
256,192,73438,1,8,0:0:0:0:
256,192,73572,1,8,0:0:0:0:
256,192,73841,1,0,0:0:0:0:
256,192,73976,1,8,0:0:0:0:
256,192,74245,2,0,B|512:192|512:192|512:0|512:0|96:0,1,840
256,192,76397,5,0,0:0:0:0:
256,192,76666,1,8,0:0:0:0:
256,192,76800,1,0,0:0:0:0:
256,192,77069,1,0,0:0:0:0:
256,192,77204,1,8,0:0:0:0:
256,192,77473,1,0,0:0:0:0:
256,192,77742,1,8,0:0:0:0:
256,192,77877,1,8,0:0:0:0:
256,192,78012,1,0,0:0:0:0:
256,192,78280,1,8,0:0:0:0:
256,192,78549,1,0,0:0:0:0:
256,192,78819,1,8,0:0:0:0:
256,192,79357,1,8,0:0:0:0:
256,192,79626,1,0,0:0:0:0:
256,192,79894,1,8,0:0:0:0:
256,192,80030,1,0,0:0:0:0:
256,192,80164,1,0,0:0:0:0:
256,192,80432,1,8,0:0:0:0:
256,192,80702,5,4,0:0:0:0:
256,192,81240,1,0,0:0:0:0:
256,192,81509,1,8,0:0:0:0:
256,192,81644,1,0,0:0:0:0:
256,192,82047,1,8,0:0:0:0:
256,192,82317,1,0,0:0:0:0:
256,192,82451,1,0,0:0:0:0:
256,192,82585,1,8,0:0:0:0:
256,192,82854,1,0,0:0:0:0:
256,192,83393,1,0,0:0:0:0:
256,192,83662,1,8,0:0:0:0:
256,192,83797,1,0,0:0:0:0:
256,192,84199,1,8,0:0:0:0:
256,192,84468,1,0,0:0:0:0:
256,192,84603,1,0,0:0:0:0:
256,192,84737,1,8,0:0:0:0:
256,192,85007,1,0,0:0:0:0:
256,192,85276,1,8,0:0:0:0:
256,192,85545,1,8,0:0:0:0:
256,192,85949,1,8,0:0:0:0:
224,192,86218,1,8,0:0:0:0:
224,192,86353,1,8,0:0:0:0:
256,192,86622,1,8,0:0:0:0:
256,192,86891,1,8,0:0:0:0:
256,192,87160,1,0,0:0:0:0:
251,197,87294,1,0,0:0:0:0:
256,192,87429,1,8,0:0:0:0:
256,192,87698,1,0,0:0:0:0:
256,192,87832,1,8,0:0:0:0:
256,192,87967,1,0,0:0:0:0:
256,192,88236,2,0,B|512:192|512:192|512:0,1,420
256,192,89312,5,4,0:0:0:0:
256,192,89581,1,8,0:0:0:0:
256,192,89715,1,0,0:0:0:0:
256,192,89984,1,0,0:0:0:0:
256,192,90119,1,8,0:0:0:0:
256,192,90388,1,0,0:0:0:0:
256,192,90657,1,8,0:0:0:0:
256,192,90791,1,0,0:0:0:0:
256,192,90927,1,0,0:0:0:0:
256,192,91195,1,0,0:0:0:0:
256,192,91464,1,12,0:0:0:0:
256,192,91868,1,12,0:0:0:0:
256,192,92271,1,12,0:0:0:0:
256,192,92675,1,12,0:0:0:0:
256,192,93079,1,8,0:0:0:0:
256,192,93348,1,8,0:0:0:0:
256,192,93483,1,0,0:0:0:0:
256,192,93617,1,0,0:0:0:0:
256,192,93886,1,12,0:0:0:0:
256,192,94693,1,0,0:0:0:0:
256,192,94962,1,8,0:0:0:0:
256,192,95097,1,0,0:0:0:0:
256,192,95232,1,0,0:0:0:0:
256,192,95501,1,8,0:0:0:0:
256,192,95770,1,4,0:0:0:0:
256,192,96173,1,4,0:0:0:0:
256,192,96577,1,4,0:0:0:0:
256,192,96846,1,8,0:0:0:0:
256,192,97115,1,8,0:0:0:0:
256,192,97249,1,8,0:0:0:0:
256,192,97519,1,12,0:0:0:0:
256,192,97922,1,0,0:0:0:0:
256,192,98460,1,0,0:0:0:0:
256,192,98864,1,0,0:0:0:0:
256,192,99267,1,8,0:0:0:0:
256,192,99536,1,8,0:0:0:0:
256,192,100075,1,0,0:0:0:0:
256,192,100613,1,0,0:0:0:0:
256,192,101016,1,0,0:0:0:0:
256,192,102227,1,0,0:0:0:0:
256,192,102362,1,0,0:0:0:0:
256,192,102496,1,0,0:0:0:0:
256,192,102765,1,0,0:0:0:0:
256,192,103034,1,0,0:0:0:0:
256,192,103303,1,0,0:0:0:0:
256,192,103438,1,0,0:0:0:0:
256,192,103572,1,0,0:0:0:0:
256,192,103841,1,0,0:0:0:0:
256,192,104110,1,0,0:0:0:0:
256,192,104379,2,0,B|512:192|512:192|512:0,1,420
256,192,105456,12,0,106532,0:0:0:0:
256,192,108684,5,0,0:0:0:0:
256,192,109223,1,0,0:0:0:0:
256,192,109761,1,0,0:0:0:0:
256,192,110837,1,8,0:0:0:0:
256,192,110971,1,8,0:0:0:0:
256,192,111240,1,0,0:0:0:0:
256,192,111375,1,0,0:0:0:0:
256,192,111644,1,8,0:0:0:0:
256,192,111779,1,8,0:0:0:0:
256,192,112048,1,0,0:0:0:0:
256,192,112182,1,0,0:0:0:0:
256,192,112317,1,0,0:0:0:0:
256,192,112451,1,0,0:0:0:0:
256,192,112720,1,8,0:0:0:0:
256,192,112989,1,8,0:0:0:0:
256,192,113258,1,0,0:0:0:0:
256,192,113662,1,0,0:0:0:0:
256,192,113931,1,8,0:0:0:0:
256,192,115142,1,0,0:0:0:0:
256,192,115276,1,0,0:0:0:0:
256,192,115411,1,0,0:0:0:0:
256,192,115814,1,0,0:0:0:0:
256,192,116218,1,0,0:0:0:0:
256,192,116622,1,0,0:0:0:0:
256,192,116891,1,8,0:0:0:0:
256,192,117025,1,8,0:0:0:0:
256,192,117294,5,0,0:0:0:0:
256,192,117429,1,0,0:0:0:0:
256,192,117563,1,0,0:0:0:0:
256,192,117832,1,8,0:0:0:0:
256,192,117967,1,8,0:0:0:0:
256,192,118236,1,0,0:0:0:0:
256,192,118371,1,0,0:0:0:0:
256,192,118640,1,8,0:0:0:0:
256,192,118774,1,8,0:0:0:0:
256,192,119043,1,0,0:0:0:0:
256,192,119178,1,0,0:0:0:0:
256,192,119447,12,0,121061,0:0:0:0:
256,192,121599,5,8,0:0:0:0:
256,192,121868,1,8,0:0:0:0:
256,192,122137,1,8,0:0:0:0:
256,192,122406,1,8,0:0:0:0:
256,192,122675,1,8,0:0:0:0:
256,192,122810,1,8,0:0:0:0:
256,192,122945,1,8,0:0:0:0:
256,192,123079,1,8,0:0:0:0:
256,192,123214,1,0,0:0:0:0:
256,192,123483,1,8,0:0:0:0:
256,192,123752,1,4,0:0:0:0:
