osu file format v14

[General]
AudioFilename: audio.mp3
AudioLeadIn: 0
PreviewTime: 89780
Countdown: 0
SampleSet: Soft
StackLeniency: 0.7
Mode: 0
LetterboxInBreaks: 0
WidescreenStoryboard: 1

[Editor]
Bookmarks: 25780,40180,52980,65780,78580,91380,104180,117065,131380,144265,156980,169780,182580,195380,208180,222580,235380,247180,248180,260980,273780,286580
DistanceSpacing: 0.8
BeatDivisor: 4
GridSize: 16
TimelineZoom: 2.4

[Metadata]
Title:KIRISAME MAGIC (DJ katsu CLUB EDIT)
TitleUnicode:KIRISAME MAGIC (DJ katsu CLUB EDIT)
Artist:FN2 feat. Hanatan
ArtistUnicode:FN2 feat. 花たん
Creator:milr_
Version:S1lentX's Insane
Source:東方花映塚 ~ Phantasmagoria of Flower View.
Tags:k0alcj 228 aye1337 Sanch-KK s1lentx1337 electronic japanese video game 東方project touhou c86 RAVER’S NEST 3 TOHO RAVE PARTY ZUN sumijun Oriental Dark Flight オリエンタルダークフライト DiGiTAL WiNG
BeatmapID:4409518
BeatmapSetID:2084590

[Difficulty]
HPDrainRate:5
CircleSize:4
OverallDifficulty:8
ApproachRate:8.5
SliderMultiplier:1.49999990463257
SliderTickRate:1

[Events]
//Background and Video events
0,0,"bg.jpg",0,0
//Break Periods
2,197180,207505
//Storyboard Layer 0 (Background)
//Storyboard Layer 1 (Fail)
//Storyboard Layer 2 (Pass)
//Storyboard Layer 3 (Foreground)
//Storyboard Layer 4 (Overlay)
//Storyboard Sound Samples

[TimingPoints]
12980,400,4,2,0,65,1,0
25780,-100,4,2,0,70,0,0
31780,-76.9230769230769,4,2,0,70,0,0
32180,-100,4,2,0,70,0,0
40180,-76.9230769230769,4,2,0,80,0,0
41380,-66.6666666666667,4,2,0,80,0,0
41780,-76.9230769230769,4,2,0,80,0,0
42980,-66.6666666666667,4,2,0,80,0,0
43380,-76.9230769230769,4,2,0,80,0,0
44580,-66.6666666666667,4,2,0,80,0,0
44980,-76.9230769230769,4,2,0,80,0,0
46180,-66.6666666666667,4,2,0,80,0,0
46580,-76.9230769230769,4,2,0,80,0,0
47780,-66.6666666666667,4,2,0,80,0,0
48180,-76.9230769230769,4,2,0,80,0,0
49380,-66.6666666666667,4,2,0,80,0,0
49780,-76.9230769230769,4,2,0,80,0,0
50580,-66.6666666666667,4,2,0,80,0,0
51380,-76.9230769230769,4,2,0,80,0,0
52980,-100,4,2,0,75,0,0
64180,-125,4,2,0,65,0,0
65780,-83.3333333333333,4,2,0,75,0,0
78580,-83.3333333333333,4,2,0,70,0,0
91380,-76.9230769230769,4,2,0,80,0,1
102580,-76.9230769230769,4,2,0,65,0,1
104180,-100,4,2,0,80,0,0
105380,-76.9230769230769,4,2,0,80,0,0
105780,-100,4,2,0,80,0,0
106980,-76.9230769230769,4,2,0,80,0,0
107380,-100,4,2,0,80,0,0
108580,-76.9230769230769,4,2,0,80,0,0
108980,-100,4,2,0,80,0,0
111780,-76.9230769230769,4,2,0,80,0,0
112180,-100,4,2,0,80,0,0
113380,-76.9230769230769,4,2,0,80,0,0
113780,-100,4,2,0,80,0,0
114580,-76.9230769230769,4,2,0,80,0,0
116980,-76.9230769230769,4,2,0,65,0,0
118580,-76.9230769230769,4,2,0,75,0,0
129780,-100,4,2,0,65,0,0
131380,-83.3333333333333,4,2,0,75,0,0
144180,-83.3333333333333,4,2,0,70,0,0
156980,-76.9230769230769,4,2,0,80,0,1
168180,-76.9230769230769,4,2,0,65,0,1
169780,-133.333333333333,4,2,0,70,0,0
175780,-100,4,2,0,70,0,0
176180,-133.333333333333,4,2,0,70,0,0
182580,-83.3333333333333,4,2,0,80,0,0
188580,-66.6666666666667,4,2,0,80,0,0
188980,-83.3333333333333,4,2,0,80,0,0
193780,-83.3333333333333,4,2,0,65,0,0
208180,-133.333333333333,4,2,0,65,0,0
209780,-83.3333333333333,4,2,0,80,0,0
210980,-66.6666666666667,4,2,0,80,0,0
211380,-83.3333333333333,4,2,0,80,0,0
212580,-66.6666666666667,4,2,0,80,0,0
212980,-83.3333333333333,4,2,0,80,0,0
214180,-66.6666666666667,4,2,0,80,0,0
214580,-83.3333333333333,4,2,0,80,0,0
217380,-66.6666666666667,4,2,0,80,0,0
217780,-83.3333333333333,4,2,0,80,0,0
218980,-66.6666666666667,4,2,0,80,0,0
219380,-83.3333333333333,4,2,0,80,0,0
220180,-66.6666666666667,4,2,0,80,0,0
220980,-83.3333333333333,4,2,0,80,0,0
222580,-83.3333333333333,4,2,0,70,0,0
235380,-76.9230769230769,4,2,0,80,0,1
246580,-76.9230769230769,4,2,0,65,0,1
248180,-100,4,2,0,80,0,0
249380,-76.9230769230769,4,2,0,80,0,0
249780,-100,4,2,0,80,0,0
250980,-76.9230769230769,4,2,0,80,0,0
251380,-100,4,2,0,80,0,0
252580,-76.9230769230769,4,2,0,80,0,0
252980,-100,4,2,0,80,0,0
255780,-76.9230769230769,4,2,0,80,0,0
256180,-100,4,2,0,80,0,0
257380,-76.9230769230769,4,2,0,80,0,0
257780,-100,4,2,0,80,0,0
258580,-76.9230769230769,4,2,0,80,0,0
259380,-76.9230769230769,4,2,0,65,0,0
260980,-133.333333333333,4,2,0,65,0,0
273780,-133.333333333333,4,2,0,65,0,0
286580,-133.333333333333,4,2,0,5,0,0

[Colours]
Combo1 : 225,55,174
Combo2 : 233,132,50
Combo3 : 232,209,51
Combo4 : 138,114,222

[HitObjects]
117,292,12980,5,4,1:2:0:0:
109,289,13080,1,0,0:0:0:0:
103,283,13180,2,0,P|112:253|155:234,1,74.9999952316285,0|0,0:0|1:2,0:0:0:0:
199,145,13580,1,0,0:0:0:0:
83,27,13780,2,0,P|53:70|44:106,1,74.9999952316285,0|0,1:2|0:0,0:0:0:0:
150,77,14180,2,0,P|178:46|237:35,1,74.9999952316285,0|0,1:2|0:0,0:0:0:0:
288,101,14580,5,0,1:0:0:0:
293,109,14680,1,0,0:0:0:0:
298,116,14780,2,0,L|393:105,1,74.9999952316285,0|0,0:0|1:0,0:0:0:0:
504,92,15180,1,0,0:0:0:0:
465,198,15380,2,0,L|459:279,1,74.9999952316285,0|0,1:0|0:0,0:0:0:0:
371,331,15780,2,0,L|365:256,1,74.9999952316285,0|0,1:0|0:0,0:0:0:0:
237,304,16180,5,0,1:0:0:0:
236,313,16280,1,0,0:0:0:0:
231,321,16380,2,0,P|199:341|159:338,1,74.9999952316285,0|0,0:0|1:0,0:0:0:0:
85,226,16780,1,0,0:0:0:0:
215,168,16980,2,0,P|266:166|293:174,1,74.9999952316285,0|0,1:0|0:0,0:0:0:0:
382,126,17380,2,0,P|355:101|321:86,1,74.9999952316285,0|0,1:0|0:0,0:0:0:0:
130,30,17780,5,0,1:0:0:0:
123,32,17880,1,0,0:0:0:0:
117,35,17980,2,0,P|126:82|125:124,1,74.9999952316285,0|0,0:0|1:0,0:0:0:0:
13,139,18380,1,0,0:0:0:0:
46,216,18580,2,0,P|54:266|54:298,1,74.9999952316285,0|0,1:0|0:0,0:0:0:0:
167,334,18980,2,0,P|169:296|176:260,1,74.9999952316285,0|0,1:0|0:0,0:0:0:0:
237,107,19380,6,0,B|269:130|269:130|317:110,1,74.9999952316285,4|0,1:2|0:0,0:0:0:0:
391,213,19780,1,0,1:0:0:0:
397,215,19880,1,0,0:0:0:0:
403,214,19980,1,0,0:0:0:0:
479,56,20180,2,0,L|438:43,1,37.4999976158142,0|0,1:0|0:0,0:0:0:0:
385,134,20380,2,0,L|426:121,1,37.4999976158142
483,229,20580,2,0,L|405:212,1,74.9999952316285,0|0,1:0|0:0,0:0:0:0:
331,307,20980,6,0,B|361:289|361:289|418:301,1,74.9999952316285,0|0,1:0|0:0,0:0:0:0:
380,376,21380,1,0,1:0:0:0:
380,376,21480,1,0,0:0:0:0:
380,376,21580,1,0,0:0:0:0:
244,372,21780,2,0,L|242:330,1,37.4999976158143,0|0,1:0|0:0,0:0:0:0:
156,335,21980,2,0,L|156:372,1,37.4999976158143
70,346,22180,2,0,B|55:308|55:308|80:262,1,74.9999952316285,0|0,1:0|0:0,0:0:0:0:
140,118,22580,6,0,P|114:72|82:55,1,74.9999952316285,0|0,1:0|0:0,0:0:0:0:
25,131,22980,2,0,P|50:132|90:117,2,37.4999976158142,0|0|0,1:0|0:0|0:0,0:0:0:0:
123,215,23380,1,0,1:0:0:0:
199,205,23580,1,0,0:0:0:0:
240,138,23780,1,0,1:0:0:0:
240,138,24180,6,0,B|224:79|233:34|286:-1|355:2|393:36|425:115|400:148|334:158|301:199|282:268|334:319|360:340|360:340|386:278|429:260,1,599.999961853028,4|4,1:2|1:2,0:0:0:0:
404,274,25880,1,0,0:0:0:0:
404,274,25980,1,2,0:0:0:0:
445,187,26180,2,0,P|477:206|501:259,1,74.9999952316285,0|2,0:0|0:0,0:0:0:0:
362,335,26580,1,0,0:0:0:0:
283,322,26780,1,2,0:0:0:0:
204,309,26980,1,0,0:0:0:0:
125,296,27180,1,2,1:2:0:0:
46,93,27380,6,0,P|86:81|114:61,1,74.9999952316285,4|2,1:2|0:0,0:0:0:0:
179,92,27780,2,0,P|139:80|111:60,1,74.9999952316285,0|2,0:0|0:0,0:0:0:0:
111,149,28180,2,0,L|108:228,1,74.9999952316285,0|2,0:0|0:0,0:0:0:0:
108,222,28480,1,2,0:0:0:0:
108,222,28580,1,0,0:0:0:0:
118,317,28780,5,2,0:2:0:0:
118,317,28880,1,0,0:0:0:0:
118,317,28980,2,0,L|202:307,1,74.9999952316285,4|2,1:2|0:0,0:0:0:0:
205,329,29280,2,0,L|289:319,1,74.9999952316285,2|0,0:0|0:0,0:0:0:0:
292,341,29580,2,0,L|376:331,1,74.9999952316285,2|0,0:0|0:0,0:0:0:0:
443,253,29980,5,2,0:0:0:0:
443,238,30080,1,0,0:0:0:0:
470,155,30280,5,2,0:0:0:0:
463,141,30380,1,0,0:0:0:0:
431,45,30580,5,4,1:2:0:0:
412,50,30680,1,0,1:0:0:0:
394,55,30780,1,2,1:2:0:0:
376,60,30880,1,2,1:2:0:0:
358,65,30980,1,0,1:2:0:0:
215,134,31180,1,0,1:0:0:0:
298,162,31380,1,4,1:2:0:0:
280,72,31580,1,2,0:0:0:0:
174,56,31780,6,0,P|129:57|68:91,1,97.4999893379216,2|2,0:3|0:0,0:0:0:0:
28,184,32180,6,0,B|54:285,1,74.9999952316284,4|2,1:2|0:0,0:0:0:0:
79,342,32580,2,0,L|191:306,1,112.499992847443
186,307,32980,1,0,0:0:0:0:
247,232,33180,1,2,0:0:0:0:
280,343,33380,2,0,L|392:307,1,112.499992847443
387,308,33780,6,0,L|373:256,1,37.4999976158142,4|0,1:2|0:0,0:0:0:0:
425,199,33980,1,2,0:0:0:0:
425,199,34080,1,2,0:0:0:0:
425,199,34180,2,0,L|416:161,1,37.4999976158142,4|0,1:2|0:0,0:0:0:0:
366,87,34380,1,2,1:2:0:0:
472,90,34580,1,0,0:0:0:0:
420,8,34780,1,2,0:0:0:0:
420,8,34880,1,2,0:0:0:0:
420,8,34980,1,0,0:0:0:0:
366,87,35180,5,2,0:2:0:0:
366,87,35280,1,0,0:0:0:0:
366,87,35380,2,0,B|320:65|267:57,1,74.9999952316285,4|2,1:2|0:0,0:0:0:0:
167,65,35780,2,0,B|142:67|96:89,1,74.9999952316285,0|2,0:0|0:0,0:0:0:0:
48,224,36080,1,0,0:0:0:0:
54,243,36180,2,0,B|85:255|85:255|118:225,1,74.9999952316285,4|2,1:2|1:2,0:0:0:0:
280,252,36580,2,0,B|249:264|249:264|216:234,1,74.9999952316285,0|0,1:0|1:0,0:0:0:0:
176,142,36980,5,0,1:0:0:0:
202,130,37080,1,0,0:0:0:0:
222,146,37180,1,0,0:0:0:0:
252,133,37280,1,0,0:0:0:0:
275,153,37380,1,0,0:0:0:0:
382,111,37580,1,0,0:0:0:0:
461,201,37780,1,2,1:3:0:0:
424,335,37980,5,0,1:0:0:0:
416,347,38080,1,0,1:0:0:0:
417,359,38180,2,0,L|377:341,1,37.4999976158143,0|0,1:0|0:0,0:0:0:0:
298,342,38380,2,0,L|263:357,1,37.4999976158143,0|0,1:0|0:0,0:0:0:0:
141,331,38580,5,4,1:2:0:0:
129,305,38680,1,0,0:0:0:0:
145,285,38780,1,0,0:0:0:0:
132,255,38880,1,0,0:0:0:0:
152,232,38980,1,2,0:0:0:0:
110,125,39180,1,2,0:0:0:0:
227,79,39380,2,0,B|254:75|271:24|271:24|315:54|366:34,1,149.999990463257,0|2,0:0|0:3,0:0:0:0:
461,135,40180,6,0,P|446:195|442:246,1,97.4999893379217,4|2,1:2|0:0,0:0:0:0:
442,230,40480,1,2,0:0:0:0:
442,230,40580,1,0,1:2:0:0:
329,211,40780,1,0,0:0:0:0:
279,371,40980,2,0,P|259:320|230:284,1,97.4999893379217,0|2,1:2|0:0,0:0:0:0:
81,245,41380,2,0,B|103:214|103:214|79:111,1,112.499997138977,2|2,1:3|0:0,0:0:0:0:
112,26,41780,6,0,B|149:47|184:21|184:21|211:46,1,97.4999893379217,4|2,1:2|0:0,0:0:0:0:
199,34,42080,1,2,0:0:0:0:
199,34,42180,1,0,1:2:0:0:
370,11,42380,1,0,0:0:0:0:
293,160,42580,2,0,B|265:171|236:198|236:198|234:158,1,97.4999893379217,0|2,1:2|0:0,0:0:0:0:
341,89,42980,2,0,B|371:118|378:160|378:160|393:137|408:121,1,112.499997138977,2|2,1:3|0:0,0:0:0:0:
454,337,43380,6,0,L|447:239,1,97.4999893379217,4|2,1:2|0:0,0:0:0:0:
428,233,43680,1,2,0:0:0:0:
412,241,43780,1,0,1:2:0:0:
310,364,43980,1,0,0:0:0:0:
166,268,44180,2,0,B|197:306|197:306|192:255,1,97.4999893379217,0|2,1:2|0:0,0:0:0:0:
147,126,44580,2,0,B|126:108|109:83|109:83|116:110|114:149,1,112.499997138977,2|2,1:3|0:0,0:0:0:0:
27,246,44980,6,0,L|151:199,1,97.4999893379217,4|2,1:2|0:0,0:0:0:0:
278,153,45380,2,0,L|186:187,1,97.4999893379217,4|0,1:2|0:0,0:0:0:0:
222,286,45780,1,0,1:2:0:0:
234,299,45880,1,2,0:3:0:0:
236,315,45980,1,2,0:3:0:0:
245,329,46080,1,2,0:3:0:0:
246,344,46180,2,0,P|315:345|342:285,1,112.499997138977,2|0,1:3|0:0,1:3:0:0:
471,191,46580,6,0,P|436:271|439:282,1,97.4999893379217,4|2,1:2|0:0,0:0:0:0:
449,286,46880,1,2,0:0:0:0:
463,286,46980,1,0,1:2:0:0:
343,190,47180,1,0,0:0:0:0:
390,55,47380,2,0,B|425:42|462:66|462:66|444:37,1,97.4999893379217,0|2,1:2|0:0,0:0:0:0:
293,28,47780,2,0,L|175:37,1,112.499997138977,2|2,1:3|0:0,0:0:0:0:
45,167,48180,6,0,P|125:132|136:135,1,97.4999893379217,4|2,1:2|0:0,0:0:0:0:
140,145,48480,1,2,0:0:0:0:
140,159,48580,1,0,1:2:0:0:
87,283,48780,1,0,0:0:0:0:
165,375,48980,2,0,L|268:347,1,97.4999893379217,0|2,1:2|0:0,0:0:0:0:
320,214,49380,2,0,P|277:210|296:277,1,112.499997138977,2|2,1:3|0:0,0:0:0:0:
408,215,49780,6,0,P|388:158|355:134,1,97.4999893379217,4|2,1:2|0:0,0:0:0:0:
359,136,50080,1,2,0:0:0:0:
359,136,50180,1,0,1:2:0:0:
249,85,50380,1,0,0:0:0:0:
376,40,50580,2,0,P|423:50|460:99,1,112.499997138977,2|2,1:3|0:0,0:0:0:0:
249,85,50980,2,0,P|229:28|207:8,1,56.2499985694885,2|0,1:3|0:0,0:0:0:0:
115,76,51180,2,0,P|135:133|157:153,1,56.2499985694885,2|0,0:3|0:0,0:0:0:0:
96,259,51380,6,0,B|101:219|70:191|70:191|73:210|86:229,1,97.4999893379217,4|0,1:2|0:0,0:0:0:0:
183,250,51780,2,0,B|195:287|159:332|159:332|196:320|239:333|239:333|200:288,1,194.999978675843,4|0,0:0|1:0,0:0:0:0:
326,244,52380,1,0,1:0:0:0:
337,235,52480,1,0,1:0:0:0:
345,223,52580,1,2,0:3:0:0:
347,208,52680,1,0,1:0:0:0:
342,193,52780,1,0,1:0:0:0:
272,40,52980,5,4,1:2:0:0:
355,41,53180,1,2,0:0:0:0:
274,130,53380,2,0,P|239:106|144:100,1,112.499992847443,0|0,1:0|0:0,0:0:0:0:
164,108,53780,2,0,L|166:208,1,74.9999952316285,2|2,1:2|0:0,0:0:0:0:
154,212,54080,1,2,0:0:0:0:
154,212,54180,1,0,1:0:0:0:
73,281,54380,2,0,B|76:309|76:309|84:322|84:322|88:353,1,74.9999952316285,2|0,0:0|1:2,0:0:0:0:
158,293,54780,5,2,0:0:0:0:
64,200,54980,1,0,1:0:0:0:
144,83,55180,1,2,0:0:0:0:
72,41,55380,2,0,P|36:37|-6:29,1,74.9999952316285,2|2,1:2|0:0,0:0:0:0:
123,157,55680,1,2,0:0:0:0:
139,159,55780,2,0,P|175:155|217:147,1,74.9999952316285,0|0,1:0|0:0,0:0:0:0:
282,23,56180,5,0,1:2:0:0:
395,13,56380,1,2,0:0:0:0:
438,117,56580,2,0,P|425:169|424:204,1,74.9999952316285,0|2,1:0|0:0,0:0:0:0:
407,261,56980,2,0,B|375:254|375:254|356:233|356:233|305:236,1,112.499992847443,2|2,1:2|0:0,0:0:0:0:
305,236,57380,1,0,1:0:0:0:
496,307,57580,1,2,0:0:0:0:
496,307,57780,6,0,P|483:359|482:394,1,74.9999952316285,0|2,1:2|0:0,0:0:0:0:
334,383,58180,2,0,P|330:345|320:310,1,74.9999952316285,0|2,1:0|0:0,0:0:0:0:
158,223,58580,2,0,B|120:223|120:223|68:267,1,74.9999952316285,2|2,1:2|0:0,0:0:0:0:
120,334,58880,1,2,0:0:0:0:
130,352,58980,2,0,B|168:352|168:352|220:308,1,74.9999952316285,0|0,1:0|1:0,0:0:0:0:
263,181,59380,5,4,1:2:0:0:
184,15,59580,1,2,0:0:0:0:
108,37,59780,2,0,L|16:25,1,74.9999952316285,0|0,1:0|0:0,0:0:0:0:
18,124,60180,2,0,L|92:133,1,74.9999952316285,2|2,1:2|0:0,0:0:0:0:
84,214,60480,1,2,0:0:0:0:
81,231,60580,2,0,L|7:222,1,74.9999952316285,0|2,1:0|0:0,0:0:0:0:
161,353,60980,5,0,1:2:0:0:
212,286,61180,1,2,0:0:0:0:
300,301,61380,2,0,P|332:330|348:363,1,74.9999952316285,0|2,1:0|0:0,0:0:0:0:
448,271,61780,2,0,P|416:242|400:209,1,74.9999952316285,2|2,1:2|0:0,0:0:0:0:
386,111,62080,1,2,0:0:0:0:
379,94,62180,2,0,B|345:75|345:75|314:114,1,74.9999952316285,0|0,1:0|0:0,0:0:0:0:
192,215,62580,5,0,1:2:0:0:
142,147,62780,1,2,0:0:0:0:
186,81,62980,2,0,L|164:7,1,74.9999952316285,0|2,1:0|0:0,0:0:0:0:
13,78,63380,2,0,P|71:78|93:71,1,74.9999952316285,2|2,1:2|0:0,0:0:0:0:
70,54,63680,1,2,0:0:0:0:
50,70,63780,2,0,L|71:151,1,74.9999952316285,0|2,1:0|0:0,0:0:0:0:
31,286,64180,5,0,1:2:0:0:
90,365,64380,2,0,L|108:295,1,59.9999961853028,2|2,0:0|0:0,0:0:0:0:
181,240,64780,1,0,0:0:0:0:
237,318,64980,1,2,0:0:0:0:
301,248,65180,1,2,0:0:0:0:
311,233,65280,1,2,0:0:0:0:
328,231,65380,1,0,0:0:0:0:
338,216,65480,1,0,0:0:0:0:
355,212,65580,1,2,0:0:0:0:
367,198,65680,1,0,0:0:0:0:
384,196,65780,6,0,P|407:176|414:108,1,89.9999915313724,4|2,1:2|0:3,0:0:0:0:
368,32,66080,1,0,0:0:0:0:
351,23,66180,2,0,L|251:40,1,89.9999915313724,0|0,1:2|0:0,0:0:0:0:
161,20,66580,5,2,1:3:0:0:
8,110,66880,5,2,0:3:0:0:
111,271,67180,5,2,0:3:0:0:
239,193,67380,2,0,P|190:174|132:174,1,89.9999915313724,4|2,1:2|0:3,0:0:0:0:
196,293,67680,1,0,0:0:0:0:
209,312,67780,2,0,P|278:295|316:297,1,89.9999915313724,0|0,1:2|0:0,0:0:0:0:
359,360,68180,5,2,1:3:0:0:
512,270,68480,5,2,0:3:0:0:
409,109,68780,5,2,0:3:0:0:
495,42,68980,2,0,P|509:103|514:139,1,89.9999915313724,4|2,1:2|0:3,0:0:0:0:
425,204,69280,1,0,0:0:0:0:
411,220,69380,2,0,P|366:227|322:237,1,89.9999915313724,0|0,1:2|0:0,0:0:0:0:
279,320,69780,5,2,1:3:0:0:
115,360,70080,5,2,0:3:0:0:
162,191,70380,5,2,0:3:0:0:
96,126,70580,2,0,B|88:79|88:79|74:34,1,89.9999915313724,4|0,1:2|0:0,0:0:0:0:
162,191,70980,2,0,B|178:146|178:146|187:105,1,89.9999915313724,4|0,1:2|0:0,0:0:0:0:
186,280,71380,1,4,1:2:0:0:
285,185,71580,1,4,1:2:0:0:
419,218,71780,2,0,B|467:264|467:264|454:338,1,134.999987297059,4|0,1:2|0:0,0:0:0:0:
445,357,72180,6,0,P|402:342|358:344,1,89.9999915313724,4|2,1:2|0:3,0:0:0:0:
239,370,72480,1,0,0:0:0:0:
225,354,72580,2,0,L|227:247,1,89.9999915313724,0|0,1:2|0:0,0:0:0:0:
293,190,72980,5,2,1:3:0:0:
170,43,73280,5,2,0:3:0:0:
38,187,73580,5,2,0:3:0:0:
132,222,73780,2,0,B|136:175|136:175|111:110,1,89.9999915313724,4|2,1:2|0:3,0:0:0:0:
29,52,74080,1,0,0:0:0:0:
12,38,74180,2,0,B|59:42|59:42|124:17,1,89.9999915313724,0|0,1:2|0:0,0:0:0:0:
170,42,74580,5,2,1:3:0:0:
306,171,74880,5,2,0:3:0:0:
444,42,75180,5,2,0:3:0:0:
399,114,75380,2,0,P|412:162|417:216,1,89.9999915313724,4|2,1:2|0:3,0:0:0:0:
416,201,75680,1,0,0:0:0:0:
416,201,75780,1,0,1:2:0:0:
362,360,75980,1,0,0:0:0:0:
450,373,76180,1,2,1:3:0:0:
465,292,76380,1,0,0:0:0:0:
465,292,76480,1,2,0:3:0:0:
465,292,76580,1,0,0:0:0:0:
377,278,76780,1,2,0:3:0:0:
377,278,76880,1,0,0:0:0:0:
377,278,76980,1,4,1:2:0:0:
176,337,77380,5,4,1:2:0:0:
230,210,77580,1,4,1:2:0:0:
108,157,77780,1,4,1:2:0:0:
104,141,77880,1,0,0:0:0:0:
106,127,77980,1,2,0:0:0:0:
109,115,78080,1,2,0:0:0:0:
121,107,78180,1,2,0:0:0:0:
134,105,78280,1,2,0:0:0:0:
146,109,78380,1,2,0:0:0:0:
156,117,78480,1,2,0:0:0:0:
163,127,78580,6,0,L|257:116,1,89.9999915313724,4|2,1:2|0:0,0:0:0:0:
332,55,78880,1,2,0:0:0:0:
336,39,78980,2,0,L|242:28,1,89.9999915313724,0|2,0:0|0:0,0:0:0:0:
246,201,79380,1,0,0:0:0:0:
348,232,79580,1,2,0:0:0:0:
387,137,79780,1,0,0:0:0:0:
252,116,79980,1,2,1:2:0:0:
290,286,80180,6,0,P|303:344|304:381,1,89.9999915313724,4|2,1:2|0:0,0:0:0:0:
413,359,80480,1,2,0:0:0:0:
430,354,80580,2,0,P|417:296|416:259,1,89.9999915313724,0|2,0:0|0:0,0:0:0:0:
474,186,80880,1,0,0:0:0:0:
483,172,80980,2,0,B|453:140|453:140|367:141,1,89.9999915313724,0|2,0:0|0:0,0:0:0:0:
386,130,81280,2,0,B|408:89|408:89|451:79,1,89.9999915313724,2|0,0:0|0:0,0:0:0:0:
455,65,81580,1,2,0:2:0:0:
449,53,81680,1,0,0:0:0:0:
440,43,81780,6,0,L|333:32,1,89.9999915313724,4|2,1:2|0:0,0:0:0:0:
226,111,82180,2,0,L|333:100,1,89.9999915313724,0|2,0:0|0:0,0:0:0:0:
206,22,82580,1,0,0:0:0:0:
137,84,82780,1,2,0:0:0:0:
226,111,82980,1,0,0:0:0:0:
156,171,83180,1,0,0:0:0:0:
185,265,83380,5,4,1:2:0:0:
193,275,83480,1,0,1:0:0:0:
193,288,83580,1,2,1:2:0:0:
202,298,83680,1,2,1:2:0:0:
203,311,83780,1,0,1:0:0:0:
369,328,83980,1,0,1:0:0:0:
282,365,84180,1,4,1:2:0:0:
371,233,84380,1,2,0:0:0:0:
282,138,84580,1,2,0:3:0:0:
387,78,84780,1,2,0:0:0:0:
299,18,84980,6,0,L|205:40,1,89.9999915313724,4|2,1:2|0:0,0:0:0:0:
153,134,85280,1,2,0:0:0:0:
145,148,85380,2,0,B|121:79|121:79|83:72,1,89.9999915313724,0|2,0:0|0:0,0:0:0:0:
28,157,85780,1,0,0:0:0:0:
90,222,85980,1,2,0:0:0:0:
45,295,86180,2,0,B|25:346|25:346|89:326,1,89.9999915313724,0|2,0:0|1:2,0:0:0:0:
178,303,86480,5,0,0:0:0:0:
191,293,86580,2,0,B|216:298|216:298|241:367,1,89.9999915313724,4|2,1:2|0:0,0:0:0:0:
287,233,86880,1,2,0:0:0:0:
303,230,86980,2,0,B|322:246|322:246|309:319,1,89.9999915313724,4|2,1:2|1:2,0:0:0:0:
422,245,87380,2,0,P|426:196|396:150,1,89.9999915313724,0|2,0:0|0:0,0:0:0:0:
408,160,87680,2,0,P|456:164|502:134,1,89.9999915313724,2|0,0:0|0:0,0:0:0:0:
491,132,87980,1,2,0:2:0:0:
486,117,88080,1,0,0:0:0:0:
480,104,88180,6,0,P|486:54|510:2,1,89.9999915313724,4|2,1:2|0:0,0:0:0:0:
362,83,88580,2,0,P|391:124|413:174,1,89.9999915313724,0|2,0:0|0:0,0:0:0:0:
512,245,88980,1,4,1:2:0:0:
388,289,89180,1,2,1:2:0:0:
491,384,89380,1,0,1:0:0:0:
481,213,89580,1,0,1:0:0:0:
308,260,89780,5,4,1:0:0:0:
294,256,89880,1,0,0:0:0:0:
283,263,89980,1,0,0:0:0:0:
270,258,90080,1,0,0:0:0:0:
261,268,90180,1,4,1:0:0:0:
176,197,90380,1,0,0:0:0:0:
98,320,90580,1,0,1:0:0:0:
91,303,90680,1,0,1:0:0:0:
21,224,90880,1,0,1:0:0:0:
28,207,90980,1,0,1:0:0:0:
96,111,91180,5,0,1:0:0:0:
90,93,91280,1,0,1:0:0:0:
84,78,91380,2,0,L|167:47,1,48.7499946689609,4|0,1:2|0:0,0:0:0:0:
252,37,91580,2,0,L|169:6,1,48.7499946689609,2|2,0:0|0:0,0:0:0:0:
185,114,91780,2,0,P|193:157|199:227,1,97.4999893379217,0|2,1:0|0:0,0:0:0:0:
214,320,92180,6,0,L|297:289,1,48.7499946689609,0|0,1:2|0:0,0:0:0:0:
363,197,92380,2,0,P|331:182|280:166,1,48.7499946689609,2|2,0:0|0:0,0:0:0:0:
340,284,92580,2,0,P|332:327|326:397,1,97.4999893379217,0|2,1:0|0:0,0:0:0:0:
432,338,92980,5,0,1:2:0:0:
506,278,93180,1,2,0:0:0:0:
429,159,93380,1,0,1:0:0:0:
503,99,93580,1,2,0:0:0:0:
326,40,93780,2,0,P|254:47|203:36,1,97.4999893379217,0|2,1:2|0:0,0:0:0:0:
218,33,94080,1,2,0:0:0:0:
217,54,94180,1,0,1:0:0:0:
216,76,94280,1,0,0:0:0:0:
216,97,94380,1,2,0:0:0:0:
216,119,94480,1,0,0:0:0:0:
215,141,94580,6,0,L|169:160,1,48.7499946689609,0|0,1:2|0:0,0:0:0:0:
67,237,94780,2,0,L|128:263,1,48.7499946689609,2|2,0:0|0:0,0:0:0:0:
213,330,94980,2,0,P|202:275|197:221,1,97.4999893379217,0|2,1:0|0:0,0:0:0:0:
278,193,95380,5,0,1:2:0:0:
105,102,95580,1,2,0:0:0:0:
267,27,95780,1,0,1:0:0:0:
175,198,95980,1,2,0:0:0:0:
168,52,96180,5,2,1:2:0:0:
112,242,96380,1,2,0:0:0:0:
117,268,96480,1,2,0:0:0:0:
129,295,96580,2,0,P|83:300|47:335,1,97.4999893379217,0|2,1:0|0:0,0:0:0:0:
179,364,96980,1,0,1:2:0:0:
225,235,97180,1,2,0:0:0:0:
49,167,97380,1,2,1:3:0:0:
95,19,97580,1,2,0:0:0:0:
173,66,97780,6,0,L|232:46,1,48.7499946689609,4|0,1:2|0:0,0:0:0:0:
306,137,97980,2,0,L|259:121,1,48.7499946689609,2|2,0:0|0:0,0:0:0:0:
234,37,98180,2,0,L|241:134,1,97.4999893379217,0|2,1:0|0:0,0:0:0:0:
316,331,98580,6,0,L|381:349,1,48.7499946689609,0|0,1:2|0:0,0:0:0:0:
279,239,98780,2,0,L|214:257,1,48.7499946689609,2|2,0:0|0:0,0:0:0:0:
380,249,98980,2,0,L|387:143,1,97.4999893379217,0|2,1:0|0:0,0:0:0:0:
328,49,99380,5,0,1:2:0:0:
459,12,99580,1,2,0:0:0:0:
468,178,99780,1,0,1:0:0:0:
512,104,99980,1,2,0:0:0:0:
488,317,100180,2,0,B|470:365|470:365|391:339,1,97.4999893379217,0|2,1:2|0:0,0:0:0:0:
407,317,100480,2,0,B|425:269|425:269|504:295,1,97.4999893379217,2|0,0:0|0:0,0:0:0:0:
481,304,100780,1,2,0:0:0:0:
353,224,100980,6,0,L|276:235,1,48.7499946689609,0|0,1:2|0:0,0:0:0:0:
190,152,101180,2,0,L|267:163,1,48.7499946689609,2|2,0:0|0:0,0:0:0:0:
322,101,101380,2,0,P|323:52|330:4,1,97.4999893379217,0|2,1:0|0:0,0:0:0:0:
398,62,101780,1,0,1:2:0:0:
247,21,101980,1,2,0:0:0:0:
227,237,102180,1,0,1:0:0:0:
373,173,102380,1,2,0:0:0:0:
161,90,102580,5,2,1:2:0:0:
134,77,102680,1,2,0:0:0:0:
105,84,102780,1,2,0:0:0:0:
78,71,102880,1,2,0:0:0:0:
50,81,102980,1,0,0:0:0:0:
9,176,103180,1,2,0:0:0:0:
4,201,103280,1,0,0:0:0:0:
117,243,103480,1,2,0:0:0:0:
122,268,103580,1,2,0:0:0:0:
0,306,103780,1,2,0:0:0:0:
108,373,103980,1,2,0:0:0:0:
210,300,104180,6,0,P|217:248|238:200,1,74.9999952316285,4|2,1:2|0:0,0:0:0:0:
224,226,104480,1,2,0:0:0:0:
224,226,104580,1,0,1:2:0:0:
354,193,104780,1,0,0:0:0:0:
260,109,104980,2,0,P|230:70|217:31,1,74.9999952316285,0|2,1:2|0:0,0:0:0:0:
91,20,105380,2,0,P|47:41|0:52,1,97.4999893379217,2|2,1:3|0:0,0:0:0:0:
22,257,105780,6,0,P|80:253|104:225,1,74.9999952316285,4|2,1:2|0:0,0:0:0:0:
99,231,106080,1,0,0:0:0:0:
101,218,106180,1,0,1:2:0:0:
95,342,106380,1,0,0:0:0:0:
196,292,106580,2,0,L|302:304,1,74.9999952316285,0|2,1:2|0:0,0:0:0:0:
377,351,106980,2,0,B|364:305|364:305|356:212,1,97.4999893379217,2|2,1:3|0:0,0:0:0:0:
416,121,107380,6,0,B|443:134|456:157|456:157|474:143,1,74.9999952316285,4|2,1:2|0:0,0:0:0:0:
478,135,107680,1,2,0:0:0:0:
483,124,107780,1,0,1:2:0:0:
501,16,107980,1,0,0:0:0:0:
349,63,108180,2,0,P|306:69|250:64,1,74.9999952316285,0|2,1:2|0:0,0:0:0:0:
156,13,108580,2,0,B|141:60|141:60|150:126,1,97.4999893379217,2|2,1:3|0:0,0:0:0:0:
92,219,108980,6,0,L|18:211,1,74.9999952316285,4|2,1:2|0:0,0:0:0:0:
107,315,109380,2,0,L|38:345,1,74.9999952316285,4|0,1:2|0:0,0:0:0:0:
220,349,109780,1,0,1:2:0:0:
239,336,109880,1,2,0:3:0:0:
262,345,109980,1,2,0:3:0:0:
285,331,110080,1,2,0:3:0:0:
307,337,110180,2,0,B|336:312|336:312|375:312,1,74.9999952316285,2|2,1:3|0:0,0:0:0:0:
406,222,110580,6,0,B|381:193|381:193|381:154,1,74.9999952316285,4|2,1:2|0:0,0:0:0:0:
393,147,110880,1,0,0:0:0:0:
411,143,110980,1,0,1:2:0:0:
381,33,111180,1,0,0:0:0:0:
506,16,111380,2,0,P|505:54|501:91,1,74.9999952316285,0|2,1:2|0:0,0:0:0:0:
479,294,111780,2,0,B|476:245|483:196,1,97.4999893379217,2|2,1:3|0:0,0:0:0:0:
433,362,112180,6,0,L|358:351,1,74.9999952316285,4|2,1:2|0:0,0:0:0:0:
347,335,112480,1,2,0:0:0:0:
328,338,112580,1,0,1:2:0:0:
277,257,112780,1,0,0:0:0:0:
216,354,112980,2,0,L|141:364,1,74.9999952316285,0|2,1:2|0:0,0:0:0:0:
23,260,113380,2,0,B|70:252|70:252|125:278,1,97.4999893379217,2|2,1:3|0:0,0:0:0:0:
117,105,113780,6,0,B|146:131|146:131|150:197,1,74.9999952316285,4|2,1:2|0:0,0:0:0:0:
136,173,114080,1,0,0:0:0:0:
123,166,114180,1,0,1:2:0:0:
25,106,114380,1,0,0:0:0:0:
88,18,114580,2,0,P|146:20|185:44,1,97.4999893379217,2|2,1:3|0:0,0:0:0:0:
295,86,114980,2,0,P|315:55|342:30,1,48.7499946689609,2|0,1:3|0:0,0:0:0:0:
407,112,115180,2,0,P|387:143|360:168,1,48.7499946689609,2|0,0:3|0:0,0:0:0:0:
256,263,115380,6,0,B|307:251|300:305|363:288,1,97.4999893379217,4|0,1:2|0:0,0:0:0:0:
509,282,115780,2,0,B|398:256|459:388|312:382,1,194.999978675843,4|0,0:0|1:0,0:0:0:0:
216,348,116380,1,0,1:0:0:0:
205,339,116480,1,0,1:0:0:0:
197,327,116580,1,2,0:3:0:0:
195,312,116680,1,0,1:0:0:0:
200,297,116780,1,0,1:0:0:0:
151,180,116980,6,0,B|118:144|155:100|197:181|241:180|269:138|274:90|215:98,1,194.999978675843,4|0,1:2|0:0,0:0:0:0:
141,24,117580,1,0,0:0:0:0:
146,49,117680,1,0,0:0:0:0:
36,66,117880,1,0,0:0:0:0:
31,41,117980,1,0,0:0:0:0:
103,142,118180,1,0,0:0:0:0:
58,252,118380,1,0,0:0:0:0:
137,348,118580,5,4,1:2:0:0:
195,283,118780,1,2,0:0:0:0:
300,371,118980,2,0,B|336:332|332:285|332:285|366:290|387:273,1,146.249984006883,0|0,1:0|0:0,0:0:0:0:
406,282,119380,2,0,B|393:229|430:242|412:181,1,97.4999893379217,2|2,1:2|0:0,0:0:0:0:
423,174,119680,1,2,0:0:0:0:
421,158,119780,1,0,1:0:0:0:
345,43,119980,2,0,B|303:51|303:51|291:62|291:62|253:72,1,97.4999893379217,2|0,0:0|1:2,0:0:0:0:
191,177,120380,5,2,0:0:0:0:
111,42,120580,2,0,B|69:45|40:32|40:32|33:63|-8:101,1,146.249984006883,0|0,1:0|0:0,0:0:0:0:
7,112,120980,2,0,P|50:136|68:184,1,97.4999893379217,2|2,1:2|0:0,0:0:0:0:
58,192,121280,1,2,0:0:0:0:
54,208,121380,1,0,1:0:0:0:
15,294,121580,1,0,0:0:0:0:
29,308,121680,1,0,0:0:0:0:
34,325,121780,1,0,1:2:0:0:
162,368,121980,5,2,0:0:0:0:
197,264,122180,2,0,B|253:272|218:315|292:332,1,97.4999893379217,0|2,1:0|0:0,0:0:0:0:
392,358,122580,2,0,P|400:301|422:257,1,97.4999893379217,2|2,1:2|0:0,0:0:0:0:
460,176,122880,1,2,0:0:0:0:
462,154,122980,2,0,P|408:175|359:178,1,97.4999893379217,0|2,1:0|0:0,0:0:0:0:
281,110,123380,5,0,1:2:0:0:
331,34,123580,1,2,0:0:0:0:
402,105,123780,2,0,P|394:154|393:206,1,97.4999893379217,0|2,1:0|0:0,0:0:0:0:
462,324,124180,2,0,L|366:309,1,97.4999893379217,2|2,1:2|0:0,0:0:0:0:
272,336,124480,1,2,0:0:0:0:
264,351,124580,2,0,L|360:336,1,97.4999893379217,0|0,1:0|1:0,0:0:0:0:
176,224,124980,5,4,1:2:0:0:
200,302,125180,1,2,0:0:0:0:
136,349,125380,2,0,P|90:332|-2:372,1,146.249984006883,0|0,1:0|0:0,0:0:0:0:
18,373,125780,2,0,B|1:320|49:324|5:239,1,97.4999893379217,2|2,1:2|0:0,0:0:0:0:
24,152,126080,1,2,0:0:0:0:
30,137,126180,2,0,P|34:86|26:28,1,97.4999893379217,0|2,1:0|0:0,0:0:0:0:
145,18,126580,5,0,1:2:0:0:
145,178,126780,1,2,0:0:0:0:
228,204,126980,2,0,P|263:163|304:135,1,97.4999893379217,0|2,1:0|0:0,0:0:0:0:
419,68,127380,2,0,P|404:121|399:166,1,97.4999893379217,2|2,1:2|0:0,0:0:0:0:
407,177,127680,1,2,0:0:0:0:
424,172,127780,1,0,1:0:0:0:
500,248,127980,1,0,0:0:0:0:
471,355,128180,5,0,1:2:0:0:
347,252,128380,1,2,0:0:0:0:
291,318,128580,2,0,B|237:332|237:332|220:352|220:352|149:376,1,146.249984006883,0|0,1:0|0:0,0:0:0:0:
141,368,128980,2,0,L|108:271,1,97.4999893379217,2|2,1:2|0:0,0:0:0:0:
97,268,129280,1,2,0:0:0:0:
100,252,129380,1,0,1:0:0:0:
116,156,129580,1,2,0:0:0:0:
21,24,129780,5,0,1:2:0:0:
198,89,129980,1,2,0:0:0:0:
289,25,130180,2,0,L|302:106,1,74.9999952316285,2|0,0:0|0:0,0:0:0:0:
363,169,130580,1,2,0:0:0:0:
423,68,130780,1,2,0:0:0:0:
439,77,130880,1,2,0:0:0:0:
445,94,130980,1,0,0:0:0:0:
458,104,131080,1,0,0:0:0:0:
467,120,131180,1,2,0:0:0:0:
479,131,131280,1,0,0:0:0:0:
482,153,131380,6,0,P|476:206|476:249,1,89.9999915313724,4|2,1:2|0:3,0:0:0:0:
420,331,131680,1,0,0:0:0:0:
413,346,131780,2,0,B|384:360|384:360|322:346,1,89.9999915313724,0|0,1:2|0:0,0:0:0:0:
238,291,132180,5,2,1:3:0:0:
45,363,132480,5,2,0:3:0:0:
103,128,132780,5,2,0:3:0:0:
169,187,132980,2,0,B|147:219|147:219|85:233,1,89.9999915313724,4|2,1:2|0:3,0:0:0:0:
8,149,133280,1,0,0:0:0:0:
9,131,133380,2,0,P|19:85|19:34,1,89.9999915313724,0|0,1:2|0:0,0:0:0:0:
132,11,133780,5,2,1:3:0:0:
369,55,134080,5,2,0:3:0:0:
270,266,134380,5,2,0:3:0:0:
234,189,134580,2,0,P|279:183|323:200,1,89.9999915313724,4|2,1:2|0:3,0:0:0:0:
413,156,134880,1,0,0:0:0:0:
429,151,134980,2,0,P|456:186|463:233,1,89.9999915313724,0|0,1:2|0:0,0:0:0:0:
496,347,135380,5,2,1:3:0:0:
270,266,135680,5,2,0:3:0:0:
415,37,135980,5,2,0:3:0:0:
329,25,136180,2,0,L|231:34,1,89.9999915313724,4|0,1:2|0:0,0:0:0:0:
98,100,136580,2,0,L|196:109,1,89.9999915313724,4|0,1:2|0:0,0:0:0:0:
303,162,136980,1,4,1:2:0:0:
208,245,137180,1,4,1:2:0:0:
89,193,137380,2,0,L|-9:202,1,89.9999915313724,4|0,1:2|0:0,0:0:0:0:
19,373,137780,6,0,P|72:348|130:355,1,89.9999915313724,4|2,1:2|0:3,0:0:0:0:
228,366,138080,1,0,0:0:0:0:
242,367,138180,2,0,B|237:321|237:321|245:278,1,89.9999915313724,0|0,1:2|0:0,0:0:0:0:
340,277,138580,5,2,1:3:0:0:
294,54,138880,5,2,0:3:0:0:
13,20,139180,5,2,0:3:0:0:
26,110,139380,2,0,P|74:90|140:88,1,89.9999915313724,4|2,1:2|0:3,0:0:0:0:
196,143,139680,1,0,0:0:0:0:
205,155,139780,2,0,L|199:253,1,89.9999915313724,0|0,1:2|0:0,0:0:0:0:
143,323,140180,5,2,1:3:0:0:
111,85,140480,5,2,0:3:0:0:
347,53,140780,5,2,0:3:0:0:
361,147,140980,2,0,P|358:210|376:246,1,89.9999915313724,4|2,1:2|0:3,0:0:0:0:
367,233,141280,1,0,0:0:0:0:
367,233,141380,1,0,1:2:0:0:
487,252,141580,1,0,0:0:0:0:
468,372,141780,1,2,1:3:0:0:
348,353,141980,1,0,0:0:0:0:
325,349,142080,1,2,0:3:0:0:
302,346,142180,1,0,0:0:0:0:
279,343,142280,1,0,0:0:0:0:
256,341,142380,1,2,0:3:0:0:
233,338,142480,1,0,0:0:0:0:
210,335,142580,1,4,1:2:0:0:
33,242,142980,5,4,1:2:0:0:
71,108,143180,1,4,1:2:0:0:
203,142,143380,1,4,1:2:0:0:
221,155,143480,1,0,0:0:0:0:
243,157,143580,1,2,0:0:0:0:
264,150,143680,1,2,0:0:0:0:
280,134,143780,1,2,0:0:0:0:
285,112,143880,1,2,0:0:0:0:
279,90,143980,1,2,0:0:0:0:
263,74,144080,1,2,0:0:0:0:
241,66,144180,6,0,L|147:55,1,89.9999915313724,4|2,1:2|0:0,0:0:0:0:
56,58,144480,1,2,0:0:0:0:
52,42,144580,2,0,L|146:31,1,89.9999915313724,0|2,0:0|0:0,0:0:0:0:
221,155,144980,1,0,0:0:0:0:
203,268,145180,1,2,0:0:0:0:
83,250,145380,1,0,0:0:0:0:
99,134,145580,1,2,1:2:0:0:
144,202,145780,6,0,P|139:260|130:297,1,89.9999915313724,4|2,1:2|0:0,0:0:0:0:
262,311,146180,2,0,P|265:266|275:222,1,89.9999915313724,0|2,0:0|0:0,0:0:0:0:
377,160,146580,2,0,B|423:177|423:177|431:247,1,89.9999915313724,0|2,0:0|0:0,0:0:0:0:
450,232,146880,2,0,B|450:188|450:188|485:141,1,89.9999915313724,2|0,0:0|0:0,0:0:0:0:
476,137,147180,1,2,0:2:0:0:
473,123,147280,1,0,0:0:0:0:
469,109,147380,6,0,L|453:16,1,89.9999915313724,4|2,1:2|0:0,0:0:0:0:
331,21,147680,1,2,0:0:0:0:
313,24,147780,2,0,L|297:112,1,89.9999915313724,0|2,0:0|0:0,0:0:0:0:
201,156,148180,1,0,0:0:0:0:
159,63,148380,1,2,0:0:0:0:
77,131,148580,2,0,B|32:139|32:139|3:185,1,89.9999915313724
64,306,148980,5,4,1:2:0:0:
80,297,149080,1,0,1:0:0:0:
96,302,149180,1,2,1:2:0:0:
113,295,149280,1,2,1:2:0:0:
126,301,149380,1,0,1:0:0:0:
245,371,149580,1,0,1:0:0:0:
322,276,149780,1,4,1:2:0:0:
234,202,149980,1,2,0:0:0:0:
374,148,150180,1,2,0:3:0:0:
220,58,150380,1,2,0:0:0:0:
429,21,150580,6,0,L|420:115,1,89.9999915313724,4|2,1:2|0:0,0:0:0:0:
470,182,150880,1,2,0:0:0:0:
477,191,150980,2,0,L|468:285,1,89.9999915313724,0|2,0:0|0:0,0:0:0:0:
370,353,151380,1,0,0:0:0:0:
316,265,151580,1,2,0:0:0:0:
230,339,151780,2,0,P|182:334|124:370,1,89.9999915313724,0|2,0:0|1:2,0:0:0:0:
43,312,152180,5,4,1:2:0:0:
146,253,152380,1,2,0:0:0:0:
112,109,152580,1,4,1:2:0:0:
215,168,152780,1,2,1:2:0:0:
24,159,152980,2,0,P|28:90|25:40,1,89.9999915313724,0|2,0:0|0:0,0:0:0:0:
18,53,153280,1,2,0:0:0:0:
27,37,153380,1,0,0:0:0:0:
222,35,153580,5,2,0:2:0:0:
231,51,153680,1,0,0:0:0:0:
239,66,153780,2,0,B|284:67|284:67|344:32,1,89.9999915313724,4|2,1:2|0:0,0:0:0:0:
441,67,154080,1,2,0:0:0:0:
451,80,154180,2,0,B|450:125|450:125|485:185,1,89.9999915313724,0|2,0:0|0:0,0:0:0:0:
373,214,154580,1,4,1:2:0:0:
460,308,154780,1,2,1:2:0:0:
368,384,154980,1,0,1:0:0:0:
373,214,155180,1,0,1:0:0:0:
288,294,155380,5,4,1:0:0:0:
271,287,155480,1,0,0:0:0:0:
255,295,155580,1,0,0:0:0:0:
238,287,155680,1,0,0:0:0:0:
222,295,155780,1,4,1:0:0:0:
240,384,155980,1,0,0:0:0:0:
159,221,156180,1,0,1:0:0:0:
166,204,156280,1,0,1:0:0:0:
246,122,156480,1,0,1:0:0:0:
239,105,156580,1,0,1:0:0:0:
100,33,156780,5,0,1:0:0:0:
93,50,156880,1,0,1:0:0:0:
88,65,156980,2,0,L|32:76,1,48.7499946689609,4|0,1:2|0:0,0:0:0:0:
128,145,157180,2,0,L|184:156,1,48.7499946689609,2|2,0:0|0:0,0:0:0:0:
61,203,157380,2,0,P|74:254|81:312,1,97.4999893379217,0|2,1:0|0:0,0:0:0:0:
261,350,157780,6,0,L|201:338,1,48.7499946689609,0|0,1:2|0:0,0:0:0:0:
289,261,157980,2,0,L|349:249,1,48.7499946689609,2|2,0:0|0:0,0:0:0:0:
273,170,158180,2,0,P|281:120|296:67,1,97.4999893379217,0|2,1:0|0:0,0:0:0:0:
427,31,158580,5,0,1:2:0:0:
406,141,158780,1,2,0:0:0:0:
491,262,158980,1,0,1:0:0:0:
512,152,159180,1,2,0:0:0:0:
393,314,159380,2,0,P|436:358|495:369,1,97.4999893379217,0|2,1:2|0:0,0:0:0:0:
412,224,159680,1,2,0:0:0:0:
401,212,159780,2,0,L|286:198,1,97.4999893379217,0|2,1:0|0:0,0:0:0:0:
186,315,160180,6,0,L|119:342,1,48.7499946689609,0|0,1:2|0:0,0:0:0:0:
11,362,160380,2,0,L|78:389,1,48.7499946689609,2|2,0:0|0:0,0:0:0:0:
64,283,160580,2,0,B|52:234|90:236|72:183,1,97.4999893379217,0|2,1:0|0:0,0:0:0:0:
8,48,160980,6,0,P|33:35|46:12,1,48.7499946689609,0|0,1:2|0:0,0:0:0:0:
204,24,161180,2,0,P|176:20|155:3,1,48.7499946689609,2|2,0:0|0:0,0:0:0:0:
121,115,161380,1,0,1:0:0:0:
234,179,161580,1,2,0:0:0:0:
315,36,161780,6,0,P|375:35|416:45,1,97.4999893379217,2|2,1:2|0:0,0:0:0:0:
437,158,162080,1,2,0:0:0:0:
433,172,162180,2,0,P|373:173|332:163,1,97.4999893379217,0|2,1:0|0:0,0:0:0:0:
289,286,162580,1,0,1:2:0:0:
441,255,162780,1,2,0:0:0:0:
343,369,162980,1,2,1:3:0:0:
196,322,163180,1,2,0:0:0:0:
358,326,163380,6,0,P|384:348|400:379,1,48.7499946689609,4|0,1:2|0:0,0:0:0:0:
441,255,163580,2,0,P|455:235|475:220,1,48.7499946689609,2|2,0:0|0:0,0:0:0:0:
362,176,163780,2,0,B|356:126|335:75,1,97.4999893379217,0|2,1:0|0:0,0:0:0:0:
123,57,164180,6,0,L|175:74,1,48.7499946689609,0|0,1:2|0:0,0:0:0:0:
84,140,164380,2,0,L|32:157,1,48.7499946689609,2|2,0:0|0:0,0:0:0:0:
129,213,164580,2,0,P|132:271|140:310,1,97.4999893379217,0|2,1:0|0:0,0:0:0:0:
230,358,164980,5,0,1:2:0:0:
231,240,165180,1,2,0:0:0:0:
346,287,165380,1,0,1:0:0:0:
348,171,165580,1,2,0:0:0:0:
470,237,165780,2,0,P|466:290|476:336,1,97.4999893379217,0|2,1:2|0:0,0:0:0:0:
491,344,166080,2,0,L|391:368,1,97.4999893379217,2|0,0:0|0:0,0:0:0:0:
376,366,166380,1,2,0:0:0:0:
356,363,166480,1,0,0:0:0:0:
336,360,166580,6,0,L|276:364,1,48.7499946689609,0|0,1:2|0:0,0:0:0:0:
204,300,166780,2,0,L|155:296,1,48.7499946689609,2|2,0:0|0:0,0:0:0:0:
30,322,166980,2,0,P|28:285|53:218,1,97.4999893379217,0|2,1:0|0:0,0:0:0:0:
206,178,167380,1,0,1:2:0:0:
170,0,167580,1,2,0:0:0:0:
0,132,167780,1,0,1:0:0:0:
155,296,167980,1,2,0:0:0:0:
304,225,168180,5,2,1:2:0:0:
332,231,168280,1,2,0:0:0:0:
356,215,168380,1,2,0:0:0:0:
381,229,168480,1,2,0:0:0:0:
406,214,168580,1,0,0:0:0:0:
470,52,168780,1,2,0:0:0:0:
465,27,168880,1,0,0:0:0:0:
355,90,169080,1,2,0:0:0:0:
360,115,169180,1,2,0:0:0:0:
382,228,169380,1,2,0:0:0:0:
489,162,169580,1,2,0:0:0:0:
458,313,169780,6,0,L|388:324,1,56.2499985694885,6|0,1:2|0:0,0:0:0:0:
395,335,170080,2,0,L|325:346,1,56.2499985694885,2|0,0:0|0:0,0:0:0:0:
333,355,170380,2,0,L|263:366,1,56.2499985694885,2|0,0:0|0:0,0:0:0:0:
147,356,170780,1,2,0:0:0:0:
147,356,170880,1,0,0:0:0:0:
77,267,171080,1,2,0:0:0:0:
77,267,171180,1,0,1:0:0:0:
130,171,171380,5,2,1:2:0:0:
130,171,171780,2,0,P|134:125|128:97,1,56.2499985694885,2|2,0:0|0:0,0:0:0:0:
62,93,172180,2,0,L|-2:92,1,56.2499985694885,2|0,0:0|0:0,0:0:0:0:
17,13,172480,1,2,0:0:0:0:
17,13,172580,2,0,L|78:17,1,56.2499985694885
257,26,172980,6,0,P|252:59|252:99,1,56.2499985694885,6|0,1:2|0:0,0:0:0:0:
261,88,173280,2,0,P|266:121|266:161,1,56.2499985694885,2|0,0:0|0:0,0:0:0:0:
257,157,173580,2,0,P|252:190|252:230,1,56.2499985694885,2|0,0:0|0:0,0:0:0:0:
310,303,173980,1,2,0:0:0:0:
310,303,174080,1,0,0:0:0:0:
383,253,174280,1,2,0:0:0:0:
383,253,174380,1,0,0:0:0:0:
422,175,174580,5,4,1:2:0:0:
419,147,174680,1,0,1:2:0:0:
432,121,174780,1,2,1:2:0:0:
454,105,174880,1,2,1:2:0:0:
458,86,174980,1,2,1:2:0:0:
360,23,175180,1,2,1:2:0:0:
311,86,175380,1,0,1:0:0:0:
244,46,175580,1,0,0:0:0:0:
137,33,175780,6,0,B|98:30|98:30|50:59,1,74.9999952316285,2|0,0:3|0:0,0:0:0:0:
26,138,176180,6,0,L|39:200,1,56.2499985694885,6|0,1:2|0:0,0:0:0:0:
41,209,176480,2,0,L|103:196,1,56.2499985694885,2|0,0:2|0:0,0:0:0:0:
100,213,176780,2,0,L|113:275,1,56.2499985694885,2|0,0:2|0:0,0:0:0:0:
175,346,177180,1,2,0:0:0:0:
175,346,177280,1,0,0:0:0:0:
278,343,177480,1,2,0:0:0:0:
278,343,177580,1,0,0:0:0:0:
346,264,177780,5,6,1:2:0:0:
346,264,178180,2,0,L|420:279,1,56.2499985694885,0|0,1:0|1:0,0:0:0:0:
491,247,178580,2,0,P|483:211|486:168,1,56.2499985694885,2|0,0:0|0:0,0:0:0:0:
465,119,178880,1,2,0:0:0:0:
461,102,178980,2,0,P|425:110|382:107,1,56.2499985694885
298,92,179380,6,0,P|315:128|320:153,1,56.2499985694885,6|0,1:2|0:0,0:0:0:0:
304,159,179680,2,0,P|264:155|240:147,1,56.2499985694885,2|0,0:0|0:0,0:0:0:0:
242,130,179980,2,0,P|264:97|283:80,1,56.2499985694885,2|4,0:0|1:2,0:0:0:0:
205,19,180380,1,0,1:0:0:0:
205,19,180480,1,0,0:0:0:0:
138,58,180680,1,0,0:0:0:0:
138,58,180780,1,0,1:0:0:0:
71,109,180980,6,0,L|64:151,1,28.1249992847443,0|0,1:2|0:0,0:0:0:0:
82,150,181180,2,0,L|89:192,1,28.1249992847443
157,239,181380,1,4,1:2:0:0:
65,267,181580,1,0,0:0:0:0:
135,326,181780,1,4,1:2:0:0:
142,342,181880,1,0,0:0:0:0:
227,363,182080,1,0,0:0:0:0:
234,347,182180,1,0,0:0:0:0:
353,218,182380,5,0,0:0:0:0:
360,234,182480,1,0,0:0:0:0:
367,252,182580,1,4,1:2:0:0:
478,57,182880,5,2,0:0:0:0:
247,23,183180,5,2,0:0:0:0:
197,90,183380,2,0,P|149:85|106:91,1,89.9999915313724,0|2,1:2|0:0,0:0:0:0:
98,107,183680,1,2,0:0:0:0:
51,224,183880,1,0,0:0:0:0:
55,242,183980,1,2,0:0:0:0:
135,359,184180,6,0,P|210:353|251:364,1,89.9999915313724,0|2,1:2|0:0,0:0:0:0:
245,368,184480,1,0,0:0:0:0:
419,176,184780,6,0,P|365:180|330:202,1,89.9999915313724,2|0,0:0|1:2,0:0:0:0:
398,271,185180,1,2,0:0:0:0:
284,25,185480,5,0,0:0:0:0:
113,66,185780,6,0,P|38:59|20:44,1,89.9999915313724,0|2,1:2|0:3,0:0:0:0:
28,157,186080,1,2,0:0:0:0:
30,173,186180,2,0,L|51:278,1,89.9999915313724,0|2,1:0|0:3,0:0:0:0:
155,271,186580,1,0,1:2:0:0:
225,341,186780,2,0,L|274:337,1,44.9999957656862,2|2,0:3|0:3,0:0:0:0:
386,280,186980,2,0,L|337:276,1,44.9999957656862,0|0,1:3|0:0,0:0:0:0:
265,207,187180,1,2,0:3:0:0:
363,151,187380,5,2,1:2:0:0:
390,164,187480,1,2,0:0:0:0:
419,157,187580,1,2,0:0:0:0:
446,170,187680,1,2,0:0:0:0:
474,160,187780,1,0,1:0:0:0:
510,263,187980,1,2,0:0:0:0:
489,369,188180,2,0,B|448:348|448:348|404:361,1,89.9999915313724,0|2,1:2|0:0,0:0:0:0:
316,325,188580,2,0,P|265:320|285:370,1,112.499997138977,2|2,1:3|0:0,0:0:0:0:
151,350,188880,5,0,0:0:0:0:
139,339,188980,2,0,P|150:292|148:238,1,89.9999915313724,4|2,1:2|0:0,0:0:0:0:
134,237,189280,1,2,0:0:0:0:
5,29,189580,5,2,0:0:0:0:
83,77,189780,2,0,B|123:52|123:52|178:44,1,89.9999915313724,0|2,1:2|0:0,0:0:0:0:
178,62,190080,1,2,0:0:0:0:
326,62,190280,1,0,0:0:0:0:
322,80,190380,1,2,0:0:0:0:
244,181,190580,1,0,1:2:0:0:
414,324,190880,5,0,0:0:0:0:
469,99,191180,5,2,0:0:0:0:
411,165,191380,2,0,L|445:252,1,89.9999915313724,0|2,1:2|0:0,0:0:0:0:
461,254,191680,1,2,0:0:0:0:
477,248,191780,1,0,1:0:0:0:
485,235,191880,1,0,0:0:0:0:
481,219,191980,1,2,0:0:0:0:
327,225,192180,6,0,L|241:249,1,89.9999915313724,0|2,1:2|0:3,0:0:0:0:
236,267,192480,2,0,L|322:291,1,89.9999915313724,2|0,0:0|0:0,0:0:0:0:
326,309,192780,2,0,L|240:333,1,89.9999915313724,2|0,0:3|1:2,0:0:0:0:
138,349,193180,1,2,0:3:0:0:
136,328,193280,1,0,0:3:0:0:
114,322,193380,1,0,1:0:0:0:
15,374,193580,5,2,0:3:0:0:
34,248,193780,1,2,1:2:0:0:
21,221,193880,1,2,0:0:0:0:
28,192,193980,1,2,0:0:0:0:
15,165,194080,1,2,0:0:0:0:
25,137,194180,1,0,0:0:0:0:
111,55,194380,1,2,0:0:0:0:
109,34,194480,1,0,0:0:0:0:
213,78,194680,1,2,0:0:0:0:
211,99,194780,1,2,0:0:0:0:
314,41,194980,2,0,L|423:30,1,89.9999915313724,2|2,0:0|0:0,0:0:0:0:
256,192,195380,12,4,196980,1:2:0:0:
216,359,208180,6,0,L|210:291,1,56.2499985694885,4|0,1:2|0:0,0:0:0:0:
114,269,208580,1,0,0:0:0:0:
99,267,208680,1,0,0:0:0:0:
86,255,208780,1,0,0:0:0:0:
81,238,208880,1,0,0:0:0:0:
90,224,208980,1,0,0:0:0:0:
104,215,209080,1,0,0:0:0:0:
120,212,209180,1,0,0:0:0:0:
135,205,209280,1,0,0:0:0:0:
145,191,209380,1,2,0:0:0:0:
143,174,209480,1,2,0:0:0:0:
132,160,209580,1,2,0:0:0:0:
116,152,209680,1,2,0:0:0:0:
99,154,209780,6,0,B|66:113|107:114|64:62,1,89.9999915313724,4|2,1:2|0:0,0:0:0:0:
196,14,210080,1,2,0:0:0:0:
219,17,210180,2,0,L|318:24,1,89.9999915313724,0|0,1:2|0:0,0:0:0:0:
316,41,210480,1,0,0:0:0:0:
311,54,210580,1,0,1:2:0:0:
271,161,210780,1,2,0:0:0:0:
397,184,210980,2,0,B|402:230|402:230|392:247|392:247|397:294,1,112.499997138977,2|2,1:3|0:0,0:0:0:0:
296,359,211380,6,0,L|191:368,1,89.9999915313724,4|2,1:2|0:0,0:0:0:0:
126,311,211680,1,0,0:0:0:0:
118,298,211780,2,0,B|131:255|131:255|176:234,1,89.9999915313724,0|0,1:2|0:0,0:0:0:0:
186,241,212080,1,0,0:0:0:0:
197,234,212180,1,0,1:2:0:0:
268,136,212380,1,2,0:0:0:0:
173,29,212580,2,0,B|149:38|126:31|126:31|111:54|111:54|83:48|54:62,1,112.499997138977,2|2,1:3|0:0,0:0:0:0:
21,153,212880,5,0,0:0:0:0:
19,166,212980,2,0,L|33:255,1,89.9999915313724,4|2,1:2|0:0,0:0:0:0:
86,348,213280,1,2,0:0:0:0:
92,360,213380,2,0,P|129:323|194:309,1,89.9999915313724,0|0,1:2|0:0,0:0:0:0:
181,320,213680,1,0,0:0:0:0:
190,333,213780,1,0,1:2:0:0:
289,278,213980,1,2,0:0:0:0:
406,311,214180,2,0,B|391:259|431:254|408:191,1,112.499997138977,2|2,1:3|0:0,0:0:0:0:
480,293,214580,6,0,P|473:353|446:379,1,89.9999915313724,4|2,1:2|0:0,0:0:0:0:
330,332,214980,2,0,P|337:272|364:246,1,89.9999915313724,4|0,1:2|0:0,0:0:0:0:
481,154,215380,1,0,1:2:0:0:
470,133,215480,1,2,0:3:0:0:
479,112,215580,1,2,0:3:0:0:
470,91,215680,1,2,0:3:0:0:
483,73,215780,2,0,B|489:27|489:27|436:37,1,89.9999915313724,2|2,1:3|0:0,0:0:0:0:
337,90,216180,6,0,P|303:57|239:47,1,89.9999915313724,4|2,1:2|0:0,0:0:0:0:
177,131,216480,1,0,0:0:0:0:
167,143,216580,2,0,P|212:131|273:154,1,89.9999915313724,0|0,1:2|0:0,0:0:0:0:
254,158,216880,1,0,0:0:0:0:
245,173,216980,1,0,1:2:0:0:
116,211,217180,1,2,0:0:0:0:
76,318,217380,2,0,P|128:339|120:274,1,112.499997138977,2|2,1:3|0:0,0:0:0:0:
2,233,217780,6,0,P|4:181|-4:126,1,89.9999915313724,4|2,1:2|0:0,0:0:0:0:
39,47,218080,1,2,0:0:0:0:
47,33,218180,2,0,P|99:35|154:27,1,89.9999915313724,0|0,1:2|0:0,0:0:0:0:
147,40,218480,1,0,0:0:0:0:
158,53,218580,1,0,1:2:0:0:
240,116,218780,1,2,0:0:0:0:
320,32,218980,2,0,B|356:46|356:46|347:76|347:118,1,112.499997138977,2|2,1:3|0:0,0:0:0:0:
387,203,219380,6,0,P|412:238|435:278,1,89.9999915313724,4|2,1:2|0:0,0:0:0:0:
428,292,219680,1,0,0:0:0:0:
418,301,219780,1,0,1:2:0:0:
294,290,219980,1,0,0:0:0:0:
215,351,220180,2,0,B|268:372|268:372|289:320,1,112.499997138977,2|2,1:3|0:0,0:0:0:0:
191,268,220580,2,0,L|126:283,1,56.2499985694885,2|0,1:3|0:0,0:0:0:0:
25,346,220780,2,0,L|90:361,1,56.2499985694885,2|0,0:3|0:0,0:0:0:0:
61,218,220980,2,0,P|56:163|47:111,1,89.9999915313724,4|0,1:2|0:0,0:0:0:0:
146,95,221380,6,0,P|120:58|92:22,2,89.9999915313724,4|4|4,1:2|1:2|1:2,0:0:0:0:
226,158,221980,1,2,0:0:0:0:
238,163,222080,1,2,0:0:0:0:
251,160,222180,1,2,0:0:0:0:
263,154,222280,1,2,0:0:0:0:
272,144,222380,1,2,0:0:0:0:
276,131,222480,1,2,0:0:0:0:
273,116,222580,6,0,B|291:86|291:86|372:106,1,89.9999915313724,4|2,1:2|0:0,0:0:0:0:
398,172,222880,1,2,0:0:0:0:
401,189,222980,2,0,B|383:219|383:219|302:199,1,89.9999915313724,0|2,0:0|0:0,0:0:0:0:
328,311,223380,1,0,0:0:0:0:
399,368,223580,1,2,0:0:0:0:
458,248,223780,1,0,0:0:0:0:
296,217,223980,1,2,1:2:0:0:
274,371,224180,6,0,P|221:361|166:365,1,89.9999915313724,4|2,1:2|0:0,0:0:0:0:
101,277,224580,2,0,P|154:267|209:271,1,89.9999915313724,0|2,0:0|0:0,0:0:0:0:
208,167,224980,2,0,B|208:119|208:119|186:72,1,89.9999915313724,0|2,0:0|0:0,0:0:0:0:
190,96,225280,2,0,B|238:96|238:96|285:74,1,89.9999915313724,2|0,0:0|0:0,0:0:0:0:
276,64,225580,1,2,0:2:0:0:
272,50,225680,1,0,0:0:0:0:
264,38,225780,6,0,B|234:2|144:12,1,89.9999915313724,4|2,1:2|0:0,0:0:0:0:
61,52,226180,2,0,L|81:152,1,89.9999915313724,0|2,0:0|0:0,0:0:0:0:
144,263,226580,1,0,0:0:0:0:
43,233,226780,1,2,0:0:0:0:
26,370,226980,1,0,0:0:0:0:
157,361,227180,1,0,0:0:0:0:
210,200,227380,5,4,1:2:0:0:
229,188,227480,1,0,1:0:0:0:
250,195,227580,1,2,1:2:0:0:
268,181,227680,1,2,1:2:0:0:
289,188,227780,1,0,1:0:0:0:
350,114,227980,1,0,1:0:0:0:
382,218,228180,1,4,1:2:0:0:
437,62,228380,1,2,0:0:0:0:
482,217,228580,1,2,0:3:0:0:
350,114,228780,1,2,0:0:0:0:
332,274,228980,6,0,P|290:305|253:319,1,89.9999915313724,4|2,1:2|0:0,0:0:0:0:
171,358,229280,1,2,0:0:0:0:
153,368,229380,2,0,P|117:340|75:323,1,89.9999915313724,0|2,0:0|0:0,0:0:0:0:
21,241,229780,1,0,0:0:0:0:
119,197,229980,1,2,0:0:0:0:
26,101,230180,2,0,P|50:41|65:17,1,89.9999915313724,0|2,0:0|1:2,0:0:0:0:
160,17,230480,5,0,0:0:0:0:
177,31,230580,2,0,L|197:131,1,89.9999915313724,4|2,1:2|0:0,0:0:0:0:
278,198,230880,1,2,0:0:0:0:
295,184,230980,2,0,L|315:84,1,89.9999915313724,4|2,1:2|1:2,0:0:0:0:
425,39,231380,2,0,B|451:50|451:50|436:140,1,89.9999915313724,0|2,0:0|0:0,0:0:0:0:
421,116,231680,2,0,B|410:176|410:176|436:187,1,89.9999915313724,2|0,0:0|0:0,0:0:0:0:
452,204,231980,1,2,0:2:0:0:
447,231,232080,1,0,0:0:0:0:
439,257,232180,6,0,B|392:250|392:250|350:288,2,89.9999915313724,4|2|0,1:2|0:0|0:0,0:0:0:0:
420,347,232780,1,2,0:0:0:0:
307,361,232980,1,4,1:2:0:0:
312,222,233180,1,2,1:2:0:0:
136,221,233380,1,0,1:0:0:0:
171,383,233580,1,0,1:0:0:0:
256,173,233780,5,4,1:0:0:0:
244,154,233880,1,0,0:0:0:0:
251,133,233980,1,0,0:0:0:0:
237,115,234080,1,0,0:0:0:0:
244,94,234180,1,4,1:0:0:0:
181,24,234380,1,0,0:0:0:0:
77,25,234580,1,0,1:0:0:0:
70,42,234680,1,0,1:0:0:0:
0,121,234880,1,0,1:0:0:0:
7,138,234980,1,0,1:0:0:0:
62,234,235180,5,0,1:0:0:0:
69,252,235280,1,0,1:0:0:0:
59,269,235380,2,0,L|8:295,1,48.7499946689609,4|0,1:2|0:0,0:0:0:0:
127,331,235580,2,0,L|178:357,1,48.7499946689609,2|2,0:0|0:0,0:0:0:0:
73,378,235780,2,0,P|82:326|93:266,1,97.4999893379217,0|2,1:0|0:0,0:0:0:0:
209,211,236180,6,0,L|254:187,1,48.7499946689609,0|0,1:2|0:0,0:0:0:0:
349,97,236380,2,0,L|304:73,1,48.7499946689609,2|2,0:0|0:0,0:0:0:0:
211,12,236580,2,0,P|220:59|227:108,1,97.4999893379217,0|2,1:0|0:0,0:0:0:0:
331,206,236980,5,0,1:2:0:0:
448,142,237180,1,2,0:0:0:0:
469,332,237380,1,0,1:0:0:0:
372,295,237580,1,2,0:0:0:0:
292,349,237780,2,0,B|262:327|262:327|191:346,1,97.4999893379217,0|2,1:2|0:0,0:0:0:0:
183,358,238080,2,0,B|198:299|198:299|176:269,1,97.4999893379217,2|0,0:0|0:0,0:0:0:0:
156,267,238380,1,2,0:0:0:0:
139,280,238480,1,0,0:0:0:0:
132,296,238580,6,0,P|105:281|62:268,1,48.7499946689609,0|0,1:2|0:0,0:0:0:0:
1,216,238780,2,0,P|28:201|71:188,1,48.7499946689609,2|2,0:0|0:0,0:0:0:0:
111,125,238980,2,0,L|91:24,1,97.4999893379217,0|2,1:0|0:0,0:0:0:0:
4,91,239380,1,0,1:2:0:0:
200,101,239580,1,2,0:0:0:0:
179,271,239780,1,0,1:0:0:0:
42,210,239980,1,2,0:0:0:0:
111,125,240180,5,2,1:2:0:0:
262,197,240380,1,2,0:0:0:0:
283,204,240480,1,2,0:0:0:0:
301,190,240580,1,0,1:0:0:0:
405,77,240780,2,0,P|421:48|422:27,1,48.7499946689609,2|0,0:0|0:0,0:0:0:0:
450,145,240980,2,0,P|473:149|494:162,1,48.7499946689609,0|0,1:2|0:0,0:0:0:0:
394,274,241180,1,2,0:0:0:0:
480,353,241380,1,2,1:3:0:0:
497,248,241580,1,2,0:0:0:0:
344,345,241780,6,0,L|286:331,1,48.7499946689609,4|0,1:2|0:0,0:0:0:0:
191,255,241980,2,0,L|249:241,1,48.7499946689609,2|2,0:0|0:0,0:0:0:0:
292,158,242180,2,0,P|299:109|312:56,1,97.4999893379217,0|2,1:0|0:0,0:0:0:0:
181,29,242580,6,0,L|125:46,1,48.7499946689609,0|0,1:2|0:0,0:0:0:0:
10,124,242780,2,0,L|66:141,1,48.7499946689609,2|2,0:0|0:0,0:0:0:0:
161,229,242980,2,0,P|157:183|144:95,1,97.4999893379217,0|2,1:0|0:0,0:0:0:0:
23,230,243380,5,0,1:2:0:0:
168,302,243580,1,2,0:0:0:0:
22,379,243780,1,0,1:0:0:0:
87,190,243980,1,2,0:0:0:0:
204,384,244180,2,0,P|243:349|253:291,1,97.4999893379217,0|2,1:2|0:0,0:0:0:0:
254,307,244480,2,0,P|300:317|345:301,1,97.4999893379217,2|0,0:0|0:0,0:0:0:0:
358,279,244780,1,2,0:0:0:0:
379,268,244880,1,0,0:0:0:0:
402,272,244980,6,0,L|480:290,1,48.7499946689609,0|0,1:2|0:0,0:0:0:0:
510,178,245180,2,0,L|432:196,1,48.7499946689609,2|2,0:0|0:0,0:0:0:0:
398,113,245380,2,0,P|409:58|423:9,1,97.4999893379217,0|2,1:0|0:0,0:0:0:0:
494,92,245780,1,0,1:2:0:0:
324,47,245980,1,2,0:0:0:0:
330,281,246180,1,0,1:0:0:0:
387,191,246380,1,2,0:0:0:0:
234,141,246580,5,2,1:2:0:0:
213,134,246680,1,2,0:0:0:0:
195,148,246780,1,2,0:0:0:0:
174,141,246880,1,2,0:0:0:0:
155,153,246980,1,0,0:0:0:0:
50,108,247180,1,2,0:0:0:0:
55,83,247280,1,0,0:0:0:0:
72,212,247480,1,2,0:0:0:0:
67,237,247580,1,2,0:0:0:0:
185,324,247780,1,2,0:0:0:0:
45,384,247980,1,2,0:0:0:0:
210,300,248180,6,0,P|217:248|238:200,1,74.9999952316285,4|2,1:2|0:0,0:0:0:0:
224,226,248480,1,2,0:0:0:0:
224,226,248580,1,0,1:2:0:0:
354,193,248780,1,0,0:0:0:0:
265,99,248980,2,0,P|289:70|304:36,1,74.9999952316285,0|2,1:2|0:0,0:0:0:0:
394,17,249380,2,0,P|438:38|485:49,1,97.4999893379217,2|2,1:3|0:0,0:0:0:0:
471,188,249780,6,0,P|434:192|401:174,1,74.9999952316285,4|2,1:2|0:0,0:0:0:0:
393,162,250080,1,0,0:0:0:0:
391,149,250180,1,0,1:2:0:0:
322,223,250380,1,0,0:0:0:0:
384,299,250580,2,0,L|490:311,1,74.9999952316285,0|2,1:2|0:0,0:0:0:0:
316,358,250980,2,0,B|275:362|275:362|261:372|261:372|221:374,1,97.4999893379217,2|2,1:3|0:0,0:0:0:0:
142,247,251380,6,0,P|166:278|215:275,1,74.9999952316285,4|2,1:2|0:0,0:0:0:0:
208,267,251680,1,2,0:0:0:0:
207,256,251780,1,0,1:2:0:0:
119,162,251980,1,0,0:0:0:0:
20,199,252180,2,0,P|14:236|15:273,1,74.9999952316285,0|2,1:2|0:0,0:0:0:0:
47,112,252580,2,0,B|53:64|53:64|38:17,1,97.4999893379217,2|2,1:3|0:0,0:0:0:0:
143,66,252980,6,0,L|217:74,1,74.9999952316285,4|2,1:2|0:0,0:0:0:0:
306,153,253380,2,0,L|232:161,1,74.9999952316285,4|0,1:2|0:0,0:0:0:0:
250,279,253780,1,0,1:2:0:0:
269,292,253880,1,2,0:3:0:0:
292,283,253980,1,2,0:3:0:0:
315,297,254080,1,2,0:3:0:0:
337,291,254180,2,0,B|366:316|366:316|402:316,1,74.9999952316285,2|2,1:3|0:0,0:0:0:0:
471,244,254580,6,0,B|476:157,1,74.9999952316285,4|2,1:2|0:0,0:0:0:0:
460,159,254880,1,0,0:0:0:0:
442,155,254980,1,0,1:2:0:0:
370,40,255180,1,0,0:0:0:0:
510,55,255380,2,0,P|476:63|416:86,1,74.9999952316285,0|2,1:2|0:0,0:0:0:0:
312,122,255780,2,0,B|326:171|326:171|326:254,1,97.4999893379217,2|2,1:3|0:0,0:0:0:0:
264,329,256180,6,0,L|189:318,1,74.9999952316285,4|2,1:2|0:0,0:0:0:0:
178,302,256480,1,2,0:0:0:0:
181,285,256580,1,0,1:2:0:0:
126,201,256780,1,0,0:0:0:0:
20,295,256980,2,0,L|95:285,1,74.9999952316285,0|2,1:2|0:0,0:0:0:0:
181,143,257380,2,0,B|136:122|136:122|89:130,1,97.4999893379217,2|2,1:3|0:0,0:0:0:0:
27,17,257780,6,0,B|62:19|62:19|88:48,1,74.9999952316285,4|2,1:2|0:0,0:0:0:0:
87,66,258080,1,0,0:0:0:0:
80,79,258180,1,0,1:2:0:0:
0,148,258380,1,0,0:0:0:0:
68,234,258580,2,0,P|126:232|165:208,1,97.4999893379217,2|2,1:3|0:0,0:0:0:0:
238,109,258980,2,0,L|297:125,1,48.7499946689609,2|0,1:3|0:0,0:0:0:0:
369,189,259180,2,0,L|310:205,1,48.7499946689609,2|0,0:3|0:0,0:0:0:0:
267,309,259380,6,0,B|298:348|298:348|374:334,1,97.4999893379217,4|0,1:2|0:0,0:0:0:0:
413,274,259780,1,2,0:0:0:0:
477,337,259980,1,2,0:0:0:0:
471,355,260080,1,2,0:0:0:0:
482,214,260280,1,2,0:0:0:0:
476,196,260380,1,2,0:0:0:0:
392,121,260580,1,2,0:3:0:0:
505,86,260780,1,2,0:0:0:0:
411,24,260980,6,0,L|331:20,1,56.2499985694885,4|2,1:2|0:0,0:0:0:0:
277,54,261380,2,0,L|197:50,1,56.2499985694885,0|2,1:0|0:0,0:0:0:0:
131,71,261780,1,0,1:0:0:0:
147,154,261980,1,2,0:0:0:0:
231,141,262180,2,0,B|243:168|243:168|244:217,1,56.2499985694885,0|2,1:0|0:0,0:0:0:0:
166,257,262580,6,0,P|131:256|101:243,1,56.2499985694885,4|2,1:2|0:0,0:0:0:0:
56,337,262980,2,0,P|91:336|121:323,1,56.2499985694885,0|2,1:0|0:0,0:0:0:0:
182,377,263380,1,0,1:0:0:0:
236,315,263580,1,2,0:0:0:0:
298,371,263780,2,0,B|328:361|328:361|374:364,1,56.2499985694885,0|2,1:0|0:0,0:0:0:0:
422,273,264180,6,0,L|435:348,1,56.2499985694885,4|2,1:2|0:0,0:0:0:0:
507,283,264580,2,0,L|497:227,1,56.2499985694885,0|2,1:0|0:0,0:0:0:0:
408,185,264980,1,0,1:0:0:0:
480,128,265180,1,2,0:0:0:0:
399,88,265380,2,0,L|400:31,1,56.2499985694885,0|2,1:0|0:0,0:0:0:0:
273,47,265780,2,0,B|279:88|279:88|265:109|265:109|272:169,3,112.499997138977,4|0|0|0,1:2|1:0|1:0|1:0,0:0:0:0:
270,154,267380,6,0,L|201:139,1,56.2499985694885,4|2,1:2|0:0,0:0:0:0:
149,65,267780,2,0,L|88:87,1,56.2499985694885,0|2,1:0|0:0,0:0:0:0:
8,127,268180,1,0,1:0:0:0:
85,180,268380,1,2,0:0:0:0:
27,242,268580,2,0,P|38:285|38:302,1,56.2499985694885,0|2,1:0|0:0,0:0:0:0:
118,381,268980,6,0,P|125:350|144:317,1,56.2499985694885,4|2,1:2|0:0,0:0:0:0:
216,271,269380,2,0,P|228:296|233:323,1,56.2499985694885,0|2,1:0|0:0,0:0:0:0:
312,370,269780,1,0,1:0:0:0:
349,288,269980,1,2,0:0:0:0:
414,362,270180,2,0,L|477:377,1,56.2499985694885,0|2,1:0|0:0,0:0:0:0:
471,279,270580,6,0,B|476:249|476:249|472:221,1,56.2499985694885,4|2,1:2|0:0,0:0:0:0:
402,175,270980,2,0,B|407:145|407:145|420:120,1,56.2499985694885,0|2,1:0|0:0,0:0:0:0:
499,50,271380,1,0,1:0:0:0:
417,11,271580,1,2,0:0:0:0:
334,49,271780,2,0,P|299:50|271:47,1,56.2499985694885,0|2,1:0|0:0,0:0:0:0:
171,47,272180,2,0,P|147:91|203:100,2,112.499997138977,4|0|0,1:2|0:0|1:0,0:0:0:0:
62,30,273180,5,0,1:0:0:0:
62,30,273280,1,0,1:0:0:0:
36,108,273480,5,0,1:0:0:0:
36,108,273580,1,0,1:0:0:0:
79,176,273780,6,0,L|63:302,3,112.499997138977,4|0|0|0,0:0|1:0|1:0|1:0,0:0:0:0:
160,347,275380,6,0,L|174:235,3,112.499997138977,0|0|0|0,1:0|1:0|1:0|1:0,0:0:0:0:
254,165,276980,6,0,B|313:147|307:212|382:192,3,112.499997138977,0|0|0|0,1:0|1:0|1:0|1:0,0:0:0:0:
368,117,278580,6,0,B|418:133|412:68|471:86,3,112.499997138977,0|0|0|0,1:0|1:0|1:0|1:0,0:0:0:0:
466,182,280180,6,0,B|465:207|468:228|468:228|461:233|455:243|455:243|460:269|456:304,3,112.499997138977,4|0|0|0,1:2|1:0|1:0|1:0,0:0:0:0:
384,342,281780,6,0,B|359:341|338:344|338:344|333:337|323:331|323:331|297:336|262:332,3,112.499997138977,0|0|0|0,1:0|1:0|1:0|1:0,0:0:0:0:
187,301,283380,6,0,B|189:281|219:256|219:256|201:219|206:201,3,112.499997138977,0|0|0|0,1:0|1:0|1:0|1:0,0:0:0:0:
256,192,284980,12,0,286580,0:0:0:0:
