osu file format v14

[General]
AudioFilename: audio.mp3
AudioLeadIn: 0
PreviewTime: 89780
Countdown: 0
SampleSet: Soft
StackLeniency: 0.7
Mode: 0
LetterboxInBreaks: 0
WidescreenStoryboard: 1

[Editor]
Bookmarks: 25780,40180,52980,65780,78580,91380,104180,117065,131380,144265,156980,169780,182580,195380,208180,222580,235380,247180,248180,260980,273780,286580
DistanceSpacing: 1.1
BeatDivisor: 4
GridSize: 16
TimelineZoom: 2.4

[Metadata]
Title:KIRISAME MAGIC (DJ katsu CLUB EDIT)
TitleUnicode:KIRISAME MAGIC (DJ katsu CLUB EDIT)
Artist:FN2 feat. Hanatan
ArtistUnicode:FN2 feat. 花たん
Creator:milr_
Version:Hard
Source:東方花映塚 ~ Phantasmagoria of Flower View.
Tags:k0alcj 228 aye1337 Sanch-KK s1lentx1337 electronic japanese video game 東方project touhou c86 RAVER’S NEST 3 TOHO RAVE PARTY ZUN sumijun Oriental Dark Flight オリエンタルダークフライト DiGiTAL WiNG
BeatmapID:4374811
BeatmapSetID:2084590

[Difficulty]
HPDrainRate:4.5
CircleSize:3.5
OverallDifficulty:6
ApproachRate:8
SliderMultiplier:1.49999990463257
SliderTickRate:1

[Events]
//Background and Video events
0,0,"bg.jpg",0,0
//Break Periods
2,197180,207430
//Storyboard Layer 0 (Background)
//Storyboard Layer 1 (Fail)
//Storyboard Layer 2 (Pass)
//Storyboard Layer 3 (Foreground)
//Storyboard Layer 4 (Overlay)
//Storyboard Sound Samples

[TimingPoints]
12980,400,4,2,0,65,1,0
25780,-100,4,2,0,70,0,0
40180,-83.3333333333333,4,2,0,80,0,0
51380,-100,4,2,0,80,0,0
52980,-83.3333333333333,4,2,0,75,0,0
64180,-83.3333333333333,4,2,0,65,0,0
65780,-83.3333333333333,4,2,0,75,0,0
78580,-100,4,2,0,70,0,0
91380,-83.3333333333333,4,2,0,80,0,1
102580,-100,4,2,0,65,0,0
104180,-83.3333333333333,4,2,0,80,0,0
115380,-100,4,2,0,80,0,0
116980,-133.333333333333,4,2,0,65,0,0
118580,-83.3333333333333,4,2,0,75,0,0
129780,-83.3333333333333,4,2,0,65,0,0
131380,-83.3333333333333,4,2,0,75,0,0
144180,-100,4,2,0,70,0,0
156980,-83.3333333333333,4,2,0,80,0,1
168180,-100,4,2,0,65,0,0
169780,-100,4,2,0,70,0,0
182580,-83.3333333333333,4,2,0,80,0,1
193780,-100,4,2,0,65,0,0
209780,-83.3333333333333,4,2,0,80,0,0
222580,-100,4,2,0,70,0,0
235380,-83.3333333333333,4,2,0,80,0,1
246580,-100,4,2,0,65,0,0
248180,-83.3333333333333,4,2,0,80,0,0
259380,-83.3333333333333,4,2,0,65,0,0
286580,-83.3333333333333,4,2,0,5,0,0

[Colours]
Combo1 : 225,55,174
Combo2 : 233,132,50
Combo3 : 232,209,51
Combo4 : 138,114,222

[HitObjects]
166,190,25780,5,4,1:2:0:0:
246,210,25980,1,2,0:0:0:0:
307,154,26180,2,0,P|352:174|384:177,1,74.9999952316285,0|2,0:0|0:0,0:0:0:0:
450,139,26580,2,0,P|442:93|436:56,2,74.9999952316285,0|2|0,0:0|0:0|0:0,0:0:0:0:
381,185,27180,1,2,1:2:0:0:
306,220,27380,6,0,P|284:307|298:355,1,112.499992847443,4|2,1:2|0:0,0:0:0:0:
318,354,27780,2,0,P|361:343|404:334,1,74.9999952316285,0|2,0:0|0:0,0:0:0:0:
245,306,28180,2,0,P|189:321|156:330,1,74.9999952316285,0|2,0:0|0:0,0:0:0:0:
144,355,28480,2,0,P|99:359|64:344,1,74.9999952316285,2|0,0:0|0:0,0:0:0:0:
48,315,28780,1,2,0:2:0:0:
100,251,28980,6,0,P|81:174|63:114,2,112.499992847443,4|2|2,1:2|0:0|0:0,0:0:0:0:
166,182,29780,1,0,0:0:0:0:
243,209,29980,2,0,P|294:191|333:179,1,74.9999952316285,2|0,0:0|0:0,0:0:0:0:
335,149,30280,2,0,P|371:167|422:162,1,74.9999952316285,2|0,0:0|0:0,0:0:0:0:
452,188,30580,5,4,1:2:0:0:
452,188,30680,1,0,1:0:0:0:
452,188,30780,2,0,P|460:156|467:129,1,37.4999976158143,2|2,1:2|1:2,0:0:0:0:
494,127,30980,1,0,1:0:0:0:
468,48,31180,1,0,1:0:0:0:
390,77,31380,2,0,P|349:64|300:50,1,74.9999952316285,4|2,1:2|0:0,0:0:0:0:
304,61,31680,1,2,0:0:0:0:
290,67,31780,2,0,P|253:91|207:87,1,74.9999952316285,2|2,0:3|0:0,0:0:0:0:
121,33,32180,5,4,1:2:0:0:
89,109,32380,1,2,0:0:0:0:
150,163,32580,2,0,P|158:206|166:251,1,74.9999952316285,0|2,0:0|0:0,0:0:0:0:
92,278,32980,2,0,P|43:270|16:252,2,74.9999952316285,0|2|0,0:0|0:0|0:0,0:0:0:0:
169,249,33580,1,2,1:2:0:0:
244,215,33780,6,0,P|290:229|332:242,1,74.9999952316285,4|2,1:2|0:0,0:0:0:0:
386,289,34180,1,4,1:2:0:0:
386,289,34380,1,2,1:2:0:0:
323,342,34580,2,0,P|272:344|244:361,1,74.9999952316285,0|2,0:0|0:0,0:0:0:0:
215,375,34880,2,0,P|203:317|203:248,1,112.499992847443,2|2,0:0|0:2,0:0:0:0:
282,214,35380,5,4,1:2:0:0:
315,138,35580,1,2,0:0:0:0:
265,71,35780,2,0,P|217:83|179:92,1,74.9999952316285,0|2,0:0|0:0,0:0:0:0:
136,150,36180,1,4,1:2:0:0:
59,118,36380,1,2,1:2:0:0:
10,184,36580,1,0,1:0:0:0:
49,256,36780,1,0,1:0:0:0:
127,231,36980,5,0,1:0:0:0:
286,275,37380,2,0,P|295:316|304:364,1,74.9999952316285
218,358,37780,1,2,1:3:0:0:
57,371,38180,1,0,1:0:0:0:
43,294,38380,1,0,1:0:0:0:
43,294,38580,6,0,P|27:234|19:143,1,149.999990463257,4|2,1:2|0:0,0:0:0:0:
179,107,39380,2,0,P|184:82|190:56,2,37.4999976158143,0|2|2,0:0|0:0|0:0,0:0:0:0:
209,183,39780,1,2,0:3:0:0:
435,125,40180,6,0,P|457:200|458:242,1,89.9999915313724,4|2,1:2|0:0,0:0:0:0:
378,270,40580,2,0,P|352:260|305:244,1,44.9999957656862,0|2,1:2|0:0,0:0:0:0:
246,224,40880,1,0,0:0:0:0:
246,224,40980,2,0,B|183:238|180:244|99:259,2,134.999987297059,0|2|2,1:2|0:0|0:0,0:0:0:0:
303,143,41780,5,4,1:2:0:0:
388,193,41980,2,0,P|431:214|485:215,1,89.9999915313724,2|0,0:0|1:2,0:0:0:0:
511,186,42280,2,0,P|498:136|487:78,1,89.9999915313724,2|0,0:0|0:0,0:0:0:0:
445,76,42580,5,0,1:2:0:0:
300,109,42880,1,2,0:0:0:0:
183,16,43180,1,2,0:0:0:0:
96,63,43380,6,0,P|90:107|80:176,1,89.9999915313724,4|2,1:2|0:0,0:0:0:0:
141,232,43780,2,0,P|145:249|154:290,1,44.9999957656862,0|2,1:2|0:0,0:0:0:0:
61,313,44080,1,0,0:0:0:0:
61,313,44180,2,0,P|38:259|41:155,2,134.999987297059,0|2|2,1:2|0:0|0:0,0:0:0:0:
137,376,44980,6,0,P|191:357|246:349,1,89.9999915313724,4|2,1:2|0:0,0:0:0:0:
320,371,45380,2,0,B|332:311|341:264,1,89.9999915313724,4|0,1:2|0:0,0:0:0:0:
248,238,45780,1,0,1:2:0:0:
248,238,45880,1,2,0:3:0:0:
248,238,45980,2,0,P|238:195|231:164,1,44.9999957656862,2|2,0:3|0:3,0:0:0:0:
277,164,46180,5,2,1:3:0:0:
368,125,46380,1,2,0:0:0:0:
460,89,46580,2,0,P|476:140|472:207,1,89.9999915313724,4|2,1:2|0:0,0:0:0:0:
407,247,46980,1,0,1:2:0:0:
400,240,47080,1,2,0:0:0:0:
304,204,47280,1,0,0:0:0:0:
297,197,47380,2,0,P|220:214|137:230,2,134.999987297059,0|2|2,1:2|0:0|0:0,0:0:0:0:
217,293,48180,5,4,1:2:0:0:
300,343,48380,2,0,P|346:354|407:346,1,89.9999915313724,2|0,0:0|1:2,0:0:0:0:
435,335,48680,2,0,P|448:276|459:224,1,89.9999915313724,2|0,0:0|0:0,0:0:0:0:
417,213,48980,1,0,1:2:0:0:
271,240,49280,1,2,0:0:0:0:
125,268,49580,1,2,0:0:0:0:
42,213,49780,6,0,P|29:153|20:93,1,89.9999915313724,4|2,1:2|0:0,0:0:0:0:
97,57,50180,1,0,1:2:0:0:
106,63,50280,1,2,0:0:0:0:
178,132,50480,1,0,0:0:0:0:
187,141,50580,2,0,P|192:199|176:256,1,89.9999915313724,2|2,1:3|0:0,0:0:0:0:
146,329,50980,5,2,1:3:0:0:
234,373,51180,1,2,0:3:0:0:
311,311,51380,1,4,1:2:0:0:
471,350,51780,2,0,P|484:289|500:200,1,149.999990463257,4|0,0:0|1:0,0:0:0:0:
427,162,52380,1,0,1:0:0:0:
420,153,52480,1,0,1:0:0:0:
373,224,52680,1,0,1:0:0:0:
368,232,52780,1,0,1:0:0:0:
282,181,52980,6,0,P|228:187|175:194,1,89.9999915313724,4|2,1:2|0:0,0:0:0:0:
107,243,53380,2,0,P|86:176|89:77,1,134.999987297059,0|0,1:0|0:0,0:0:0:0:
54,71,53780,1,2,1:2:0:0:
147,30,53980,1,2,0:0:0:0:
147,30,54080,1,2,0:0:0:0:
147,30,54180,2,0,P|192:41|244:54,1,89.9999915313724,0|2,1:0|0:0,0:0:0:0:
295,129,54580,5,0,1:2:0:0:
205,171,54780,2,0,P|147:191|101:205,2,89.9999915313724,2|0|2,0:0|1:0|0:0,0:0:0:0:
290,121,55380,2,0,P|353:136|401:145,1,89.9999915313724,2|2,1:2|0:0,0:0:0:0:
424,122,55680,2,0,P|436:184|416:278,1,134.999987297059,2|0,0:0|0:0,0:0:0:0:
353,322,56180,5,0,1:2:0:0:
272,264,56380,2,0,P|252:204|238:161,1,89.9999915313724,2|0,0:0|1:0,0:0:0:0:
288,89,56780,1,2,0:0:0:0:
288,89,56880,1,0,0:0:0:0:
288,89,56980,2,0,P|351:107|459:98,2,134.999987297059,2|2|2,1:2|0:0|0:0,0:0:0:0:
202,18,57780,5,0,1:2:0:0:
122,76,57980,1,2,0:0:0:0:
26,51,58180,2,0,P|34:98|42:152,1,89.9999915313724,0|2,1:0|0:0,0:0:0:0:
106,213,58580,2,0,P|151:191|205:190,1,89.9999915313724,2|2,1:2|0:0,0:0:0:0:
201,195,58880,1,2,0:0:0:0:
211,202,58980,1,0,1:0:0:0:
304,234,59180,1,0,1:0:0:0:
386,179,59380,6,0,P|440:188|495:197,1,89.9999915313724,4|2,1:2|0:0,0:0:0:0:
506,287,59780,2,0,P|443:311|354:306,1,134.999987297059,0|0,1:0|0:0,0:0:0:0:
332,286,60180,1,2,1:2:0:0:
286,373,60380,1,2,0:0:0:0:
286,373,60480,1,2,0:0:0:0:
286,373,60580,2,0,P|217:358|182:349,1,89.9999915313724,0|2,1:0|0:0,0:0:0:0:
144,262,60980,5,0,1:2:0:0:
241,244,61180,2,0,P|257:186|255:52,1,179.999983062745,2|2,0:0|0:0,0:0:0:0:
175,11,61780,2,0,P|122:21|70:31,1,89.9999915313724,2|2,1:2|0:0,0:0:0:0:
43,53,62080,2,0,P|56:126|67:216,1,134.999987297059,2|0,0:0|0:0,0:0:0:0:
149,235,62580,5,0,1:2:0:0:
217,163,62780,2,0,P|268:187|337:182,2,89.9999915313724,2|0|2,0:0|1:0|0:0,0:0:0:0:
159,243,63380,2,0,P|103:254|54:265,1,89.9999915313724,2|2,1:2|0:0,0:0:0:0:
63,254,63680,1,2,0:0:0:0:
55,247,63780,1,0,1:0:0:0:
22,153,63980,1,2,0:0:0:0:
80,73,64180,1,0,1:2:0:0:
327,16,65780,5,4,1:2:0:0:
237,57,65980,2,0,P|222:113|222:172,1,89.9999915313724,2|0,0:3|1:2,0:0:0:0:
256,179,66280,2,0,P|313:194|382:213,1,89.9999915313724,2|0,0:3|0:0,0:0:0:0:
380,170,66580,1,2,1:3:0:0:
505,249,66880,1,2,0:3:0:0:
407,360,67180,1,2,0:3:0:0:
407,360,67380,6,0,P|385:302|372:264,1,89.9999915313724,4|2,1:2|0:3,0:0:0:0:
284,235,67780,1,0,1:2:0:0:
296,200,67880,1,2,0:3:0:0:
437,154,68180,2,0,P|453:104|457:17,2,134.999987297059,2|2|2,1:3|0:3|0:3,0:0:0:0:
347,111,68980,5,4,1:2:0:0:
272,176,69180,2,0,P|220:186|171:196,1,89.9999915313724,2|0,0:3|1:2,0:0:0:0:
148,227,69480,2,0,P|131:158|135:117,1,89.9999915313724,2|0,0:3|0:0,0:0:0:0:
162,101,69780,5,2,1:3:0:0:
32,27,70080,1,2,0:3:0:0:
53,179,70380,1,2,0:3:0:0:
8,267,70580,5,4,1:2:0:0:
189,151,70980,1,4,1:2:0:0:
158,359,71380,1,4,1:2:0:0:
241,373,71580,1,4,1:2:0:0:
323,384,71780,1,4,1:2:0:0:
491,264,72180,5,4,1:2:0:0:
395,238,72380,2,0,P|343:249|296:259,1,89.9999915313724,2|0,0:3|1:2,0:0:0:0:
279,297,72680,2,0,P|256:239|257:183,1,89.9999915313724,2|0,0:3|0:0,0:0:0:0:
276,167,72980,1,2,1:3:0:0:
132,194,73280,1,2,0:3:0:0:
14,103,73580,2,0,P|5:139|-5:179,1,44.9999957656862,2|0,0:3|0:0,0:0:0:0:
44,174,73780,6,0,P|105:168|155:140,1,89.9999915313724,4|2,1:2|0:3,0:0:0:0:
192,79,74180,1,0,1:2:0:0:
228,94,74280,1,2,0:3:0:0:
347,182,74580,2,0,P|421:169|499:154,2,134.999987297059,2|2|2,1:3|0:3|0:3,0:0:0:0:
288,262,75380,5,4,1:2:0:0:
195,226,75580,2,0,P|135:247|79:241,1,89.9999915313724,2|0,0:3|1:2,0:0:0:0:
65,223,75880,2,0,P|76:163|87:111,1,89.9999915313724,2|0,0:3|0:0,0:0:0:0:
42,104,76180,1,2,1:3:0:0:
116,38,76380,1,0,0:0:0:0:
116,38,76480,1,2,0:3:0:0:
116,38,76580,2,0,P|192:52|230:59,1,89.9999915313724,0|2,0:0|0:3,0:0:0:0:
269,129,76980,5,4,1:2:0:0:
480,87,77380,1,4,1:2:0:0:
503,174,77580,1,4,1:2:0:0:
440,240,77780,1,4,1:2:0:0:
210,170,78580,5,4,1:2:0:0:
133,138,78780,1,2,0:0:0:0:
57,104,78980,2,0,P|39:143|37:187,1,74.9999952316285,0|2,0:0|0:0,0:0:0:0:
79,245,79380,2,0,P|33:257|-7:267,2,74.9999952316285,0|2|0,0:0|0:0|0:0,0:0:0:0:
154,210,79980,1,2,1:2:0:0:
205,274,80180,6,0,P|261:280|324:251,1,112.499992847443,4|2,1:2|0:0,0:0:0:0:
345,285,80580,2,0,P|333:341|324:377,1,74.9999952316285,0|2,0:0|0:0,0:0:0:0:
423,258,80980,2,0,P|434:211|438:165,1,74.9999952316285,0|2,0:0|0:0,0:0:0:0:
404,158,81280,2,0,P|354:167|322:174,1,74.9999952316285,2|0,0:0|0:0,0:0:0:0:
298,198,81580,1,2,0:2:0:0:
193,148,81780,5,4,1:2:0:0:
147,79,81980,1,2,0:0:0:0:
195,11,82180,2,0,P|243:21|288:30,1,74.9999952316285,0|2,0:0|0:0,0:0:0:0:
346,51,82580,2,0,P|347:78|338:129,1,74.9999952316285,0|2,0:0|0:0,0:0:0:0:
259,145,82980,2,0,P|250:193|251:241,1,74.9999952316285
332,279,83380,5,4,1:2:0:0:
332,279,83480,1,0,1:0:0:0:
332,279,83580,2,0,P|337:310|342:336,1,37.4999976158143,2|2,1:2|1:2,0:0:0:0:
322,354,83780,2,0,P|369:345|417:334,1,74.9999952316285,0|0,1:0|1:0,0:0:0:0:
247,324,84180,2,0,P|207:307|169:309,1,74.9999952316285,4|2,1:2|0:0,0:0:0:0:
166,319,84480,1,2,0:0:0:0:
158,331,84580,2,0,P|147:263|141:230,1,74.9999952316285,2|2,0:3|0:0,0:0:0:0:
51,226,84980,5,4,1:2:0:0:
21,149,85180,1,2,0:0:0:0:
87,99,85380,2,0,P|139:108|176:115,1,74.9999952316285,0|2,0:0|0:0,0:0:0:0:
210,178,85780,1,0,0:0:0:0:
291,162,85980,1,2,0:0:0:0:
369,137,86180,2,0,P|372:90|364:54,1,74.9999952316285,0|2,0:0|1:2,0:0:0:0:
277,21,86580,6,0,P|226:33|178:43,1,74.9999952316285,4|2,1:2|0:0,0:0:0:0:
152,102,86980,1,4,1:2:0:0:
152,102,87180,1,2,1:2:0:0:
214,155,87380,2,0,P|222:207|204:248,1,74.9999952316285,0|2,0:0|0:0,0:0:0:0:
181,250,87680,2,0,P|249:265|324:282,1,112.499992847443,2|2,0:0|0:2,0:0:0:0:
387,338,88180,5,4,1:2:0:0:
468,324,88380,1,2,0:0:0:0:
445,244,88580,2,0,P|452:195|451:157,1,74.9999952316285,0|2,0:0|0:0,0:0:0:0:
369,194,88980,1,4,1:2:0:0:
293,160,89180,1,2,1:2:0:0:
225,207,89380,1,0,1:0:0:0:
148,176,89580,1,0,1:0:0:0:
56,208,89780,6,0,P|43:160|39:147,3,37.4999976158143,4|0|0|0,1:0|0:0|0:0|0:0,0:0:0:0:
14,145,90180,1,4,1:0:0:0:
43,68,90380,1,0,0:0:0:0:
122,90,90580,1,0,1:0:0:0:
337,12,91380,6,0,P|347:65|357:127,1,89.9999915313724,4|2,1:2|0:0,0:0:0:0:
344,112,91680,1,2,0:0:0:0:
336,124,91780,2,0,P|389:120|460:101,1,89.9999915313724,0|2,1:0|0:0,0:0:0:0:
287,204,92180,1,0,1:2:0:0:
192,170,92380,1,2,0:0:0:0:
101,129,92580,2,0,P|80:175|71:231,1,89.9999915313724,0|2,1:0|0:0,0:0:0:0:
8,289,92980,6,0,P|56:300|124:319,1,89.9999915313724,0|2,1:2|0:0,0:0:0:0:
173,371,93380,1,0,1:0:0:0:
266,337,93580,1,2,0:0:0:0:
210,254,93780,2,0,P|203:197|213:142,1,89.9999915313724,0|2,1:2|0:0,0:0:0:0:
241,129,94080,1,2,0:0:0:0:
255,134,94180,1,0,1:0:0:0:
335,192,94380,2,0,P|368:185|409:173,1,44.9999957656862,2|0,0:0|0:0,0:0:0:0:
425,197,94580,5,0,1:2:0:0:
487,120,94780,1,2,0:0:0:0:
441,32,94980,2,0,P|383:23|326:14,1,89.9999915313724,0|2,1:0|0:0,0:0:0:0:
267,70,95380,2,0,P|270:121|290:190,1,89.9999915313724,0|2,1:2|0:0,0:0:0:0:
369,200,95780,1,0,1:0:0:0:
343,295,95980,1,2,0:0:0:0:
247,268,96180,1,2,1:2:0:0:
247,268,96280,1,2,0:0:0:0:
247,268,96380,2,0,P|209:274|171:279,1,44.9999957656862,2|2,0:0|0:0,0:0:0:0:
166,309,96580,6,0,P|113:306|72:285,1,89.9999915313724,0|2,1:0|0:0,0:0:0:0:
15,214,96980,1,0,1:2:0:0:
109,184,97180,1,2,0:0:0:0:
201,149,97380,2,0,P|277:167|308:175,1,89.9999915313724,2|2,1:3|0:0,0:0:0:0:
376,235,97780,6,0,P|435:220|482:210,1,89.9999915313724,4|2,1:2|0:0,0:0:0:0:
471,206,98080,1,2,0:0:0:0:
479,198,98180,2,0,P|489:142|489:95,1,89.9999915313724,0|2,1:0|0:0,0:0:0:0:
434,26,98580,1,0,1:2:0:0:
336,44,98780,1,2,0:0:0:0:
239,64,98980,2,0,P|252:129|261:182,1,89.9999915313724,0|2,1:0|0:0,0:0:0:0:
349,193,99380,6,0,P|393:200|457:221,1,89.9999915313724,0|2,1:2|0:0,0:0:0:0:
309,281,99780,1,0,1:0:0:0:
219,245,99980,1,2,0:0:0:0:
130,200,100180,2,0,P|116:254|110:320,1,89.9999915313724,0|2,1:2|0:0,0:0:0:0:
115,299,100480,1,2,0:0:0:0:
120,310,100580,2,0,P|49:294|18:284,1,89.9999915313724,0|2,1:0|0:0,0:0:0:0:
204,364,100980,5,0,1:2:0:0:
282,303,101180,1,2,0:0:0:0:
373,339,101380,2,0,P|381:292|387:242,1,89.9999915313724,0|2,1:0|0:0,0:0:0:0:
322,174,101780,1,0,1:2:0:0:
226,199,101980,1,2,0:0:0:0:
131,229,102180,2,0,P|73:227|25:206,1,89.9999915313724,0|2,1:0|0:0,0:0:0:0:
15,120,102580,6,0,P|43:112|68:105,3,37.4999976158143,2|2|2|2,1:2|0:0|0:0|0:0,0:0:0:0:
90,121,102980,2,0,P|105:72|108:18,1,74.9999952316285,0|2,0:0|0:0,0:0:0:0:
181,11,103380,2,0,P|266:24|361:42,1,149.999990463257,2|2,0:0|0:0,0:0:0:0:
481,98,104180,6,0,P|474:145|466:209,1,89.9999915313724,4|2,1:2|0:0,0:0:0:0:
378,228,104580,2,0,P|371:202|362:165,1,44.9999957656862,0|2,1:2|0:0,0:0:0:0:
276,138,104880,1,0,0:0:0:0:
271,147,104980,2,0,P|208:171|111:144,2,134.999987297059,0|2|2,1:2|0:0|0:0,0:0:0:0:
333,40,105780,5,4,1:2:0:0:
240,4,105980,2,0,P|183:16|143:22,1,89.9999915313724,2|0,0:0|1:2,0:0:0:0:
103,7,106280,2,0,P|114:63|123:113,1,89.9999915313724,2|0,0:0|0:0,0:0:0:0:
159,125,106580,1,0,1:2:0:0:
196,268,106880,1,2,0:0:0:0:
92,374,107180,1,2,0:0:0:0:
8,321,107380,6,0,P|3:261|11:224,1,89.9999915313724,4|2,1:2|0:0,0:0:0:0:
83,166,107780,2,0,P|111:173|151:181,1,44.9999957656862,0|2,1:2|0:0,0:0:0:0:
203,238,108080,1,0,0:0:0:0:
211,231,108180,2,0,P|284:219|375:205,2,134.999987297059,0|2|2,1:2|0:0|0:0,0:0:0:0:
151,145,108980,6,0,P|150:102|166:47,1,89.9999915313724,4|2,1:2|0:0,0:0:0:0:
248,7,109380,2,0,P|302:19|348:30,1,89.9999915313724,4|0,1:2|0:0,0:0:0:0:
424,91,109780,1,0,1:2:0:0:
424,91,109880,1,2,0:3:0:0:
424,91,109980,2,0,P|417:122|409:158,1,44.9999957656862,2|2,0:3|0:3,0:0:0:0:
380,171,110180,5,2,1:3:0:0:
286,139,110380,1,2,0:0:0:0:
194,100,110580,2,0,P|178:152|177:213,1,89.9999915313724,4|2,1:2|0:0,0:0:0:0:
255,244,110980,1,0,1:2:0:0:
260,253,111080,1,2,0:0:0:0:
172,299,111280,1,0,0:0:0:0:
166,309,111380,2,0,P|111:294|21:269,2,134.999987297059,0|2|2,1:2|0:0|0:0,0:0:0:0:
260,376,112180,5,4,1:2:0:0:
354,346,112380,2,0,P|364:296|362:244,1,89.9999915313724,2|0,0:0|1:2,0:0:0:0:
313,252,112680,2,0,P|306:201|298:147,1,89.9999915313724,2|0,0:0|0:0,0:0:0:0:
264,128,112980,1,0,1:2:0:0:
358,13,113280,1,2,0:0:0:0:
497,63,113580,1,2,0:0:0:0:
462,155,113780,6,0,P|462:218|443:278,1,89.9999915313724,4|2,1:2|0:0,0:0:0:0:
368,287,114180,1,0,1:2:0:0:
374,296,114280,1,2,0:0:0:0:
301,215,114480,1,0,0:0:0:0:
293,207,114580,2,0,P|218:222|180:228,1,89.9999915313724,2|2,1:3|0:0,0:0:0:0:
111,298,114980,5,2,1:3:0:0:
22,254,115180,1,2,0:3:0:0:
60,162,115380,1,4,1:2:0:0:
213,100,115780,2,0,P|288:121|381:122,1,149.999990463257,4|0,0:0|1:0,0:0:0:0:
431,81,116380,1,0,1:0:0:0:
441,87,116480,1,0,1:0:0:0:
498,147,116680,1,0,1:0:0:0:
494,158,116780,1,0,1:0:0:0:
443,226,116980,6,0,P|231:272|104:298,1,337.499991416931,4|0,1:2|0:0,0:0:0:0:
25,208,118580,6,0,P|28:160|38:109,1,89.9999915313724,4|2,1:2|0:0,0:0:0:0:
116,60,118980,2,0,P|189:73|281:90,1,134.999987297059,0|0,1:0|0:0,0:0:0:0:
278,123,119380,1,2,1:2:0:0:
200,180,119580,1,2,0:0:0:0:
193,175,119680,1,2,0:0:0:0:
185,170,119780,2,0,P|192:233|199:279,1,89.9999915313724,0|2,1:0|0:0,0:0:0:0:
290,318,120180,5,0,1:2:0:0:
290,318,120380,2,0,P|310:259|304:224,2,89.9999915313724,2|0|2,0:0|1:0|0:0,0:0:0:0:
212,379,120980,2,0,P|156:367|95:354,1,89.9999915313724,2|2,1:2|0:0,0:0:0:0:
84,329,121280,2,0,P|96:263|116:163,1,134.999987297059,2|0,0:0|0:0,0:0:0:0:
194,136,121780,6,0,P|247:151|295:167,1,89.9999915313724,0|2,1:2|0:0,0:0:0:0:
271,260,122180,2,0,P|331:270|428:237,1,134.999987297059,0|0,1:0|0:0,0:0:0:0:
447,272,122580,1,2,1:2:0:0:
512,199,122780,1,2,0:0:0:0:
512,199,122880,1,2,0:0:0:0:
512,199,122980,2,0,P|503:146|495:103,1,89.9999915313724,0|2,1:0|0:0,0:0:0:0:
419,17,123380,5,0,1:2:0:0:
328,56,123580,2,0,P|273:46|212:22,2,89.9999915313724,2|0|2,0:0|1:0|0:0,0:0:0:0:
373,143,124180,2,0,P|362:197|353:248,1,89.9999915313724,2|2,1:2|0:0,0:0:0:0:
346,238,124480,1,2,0:0:0:0:
338,246,124580,1,0,1:0:0:0:
246,208,124780,1,0,1:0:0:0:
232,317,124980,6,0,P|170:334|123:343,1,89.9999915313724,4|2,1:2|0:0,0:0:0:0:
55,294,125380,2,0,P|48:223|71:139,1,134.999987297059,0|0,1:0|0:0,0:0:0:0:
43,114,125780,1,2,1:2:0:0:
136,71,125980,1,2,0:0:0:0:
136,71,126080,1,2,0:0:0:0:
136,71,126180,2,0,P|150:120|163:168,1,89.9999915313724,0|2,1:0|0:0,0:0:0:0:
132,269,126580,5,0,1:2:0:0:
229,253,126780,1,2,0:0:0:0:
320,290,126980,2,0,P|342:209|350:134,1,134.999987297059,0|0,1:0|0:0,0:0:0:0:
320,117,127380,1,2,1:2:0:0:
407,70,127580,1,2,0:0:0:0:
407,70,127680,1,2,0:0:0:0:
407,70,127780,2,0,P|461:83|506:93,1,89.9999915313724,0|0,1:0|0:0,0:0:0:0:
427,185,128180,5,0,1:2:0:0:
338,140,128380,2,0,P|271:154|222:162,2,89.9999915313724,2|0|2,0:0|1:0|0:0,0:0:0:0:
306,241,128980,2,0,P|316:293|318:351,1,89.9999915313724,2|2,1:2|0:0,0:0:0:0:
310,337,129280,1,2,0:0:0:0:
304,346,129380,1,0,1:0:0:0:
210,313,129580,1,2,0:0:0:0:
121,356,129780,1,0,1:2:0:0:
193,133,131380,5,4,1:2:0:0:
99,101,131580,2,0,P|89:157|78:213,1,89.9999915313724,2|0,0:3|1:2,0:0:0:0:
120,220,131880,2,0,P|171:222|223:240,1,89.9999915313724,2|0,0:3|0:0,0:0:0:0:
241,269,132180,5,2,1:3:0:0:
378,213,132480,1,2,0:3:0:0:
323,75,132780,1,2,0:3:0:0:
323,75,132980,6,0,P|269:87|225:96,1,89.9999915313724,4|2,1:2|0:3,0:0:0:0:
158,29,133380,1,0,1:2:0:0:
124,18,133480,1,2,0:3:0:0:
34,136,133780,2,0,P|36:206|53:301,2,134.999987297059,2|2|2,1:3|0:3|0:3,0:0:0:0:
124,181,134580,5,4,1:2:0:0:
168,92,134780,2,0,P|225:106|280:120,1,89.9999915313724,2|0,0:3|1:2,0:0:0:0:
296,142,135080,2,0,P|349:147|399:123,1,89.9999915313724,2|0,0:3|0:0,0:0:0:0:
416,97,135380,5,2,1:3:0:0:
490,225,135680,1,2,0:3:0:0:
366,308,135980,1,2,0:3:0:0:
432,381,136180,5,4,1:2:0:0:
239,334,136580,1,4,1:2:0:0:
318,152,136980,1,4,1:2:0:0:
406,170,137180,1,4,1:2:0:0:
493,189,137380,1,4,1:2:0:0:
325,15,137780,5,4,1:2:0:0:
231,46,137980,2,0,P|221:101|219:156,1,89.9999915313724,2|0,0:3|1:2,0:0:0:0:
252,171,138280,2,0,P|298:161|342:151,1,89.9999915313724,2|0,0:3|0:0,0:0:0:0:
384,130,138580,1,2,1:3:0:0:
331,268,138880,1,2,0:3:0:0:
188,224,139180,1,2,0:3:0:0:
188,224,139380,6,0,P|123:225|78:195,1,89.9999915313724,4|2,1:2|0:3,0:0:0:0:
13,261,139780,1,0,1:2:0:0:
23,297,139880,1,2,0:3:0:0:
149,375,140180,2,0,P|207:363|312:344,2,134.999987297059,2|2|2,1:3|0:3|0:3,0:0:0:0:
179,265,140980,5,4,1:2:0:0:
85,232,141180,2,0,P|92:179|106:127,1,89.9999915313724,2|0,0:3|1:2,0:0:0:0:
144,120,141480,2,0,P|198:133|241:144,1,89.9999915313724,2|0,0:3|0:0,0:0:0:0:
275,164,141780,1,2,1:3:0:0:
358,111,141980,1,0,0:0:0:0:
358,111,142080,1,2,0:3:0:0:
358,111,142180,2,0,P|359:55|346:10,1,89.9999915313724,0|2,0:0|0:3,0:0:0:0:
248,0,142580,5,4,1:2:0:0:
179,185,142980,1,4,1:2:0:0:
264,214,143180,1,4,1:2:0:0:
350,238,143380,1,4,1:2:0:0:
60,317,144180,5,4,1:2:0:0:
21,243,144380,1,2,0:0:0:0:
98,216,144580,2,0,P|105:173|106:136,1,74.9999952316285,0|2,0:0|0:0,0:0:0:0:
63,70,144980,2,0,P|116:58|154:49,1,74.9999952316285,0|2,0:0|0:0,0:0:0:0:
209,91,145380,2,0,P|262:79|300:70,1,74.9999952316285,0|2,0:0|1:2,0:0:0:0:
353,8,145780,6,0,P|395:14|433:30,1,74.9999952316285,4|2,1:2|0:0,0:0:0:0:
392,103,146180,1,0,0:0:0:0:
392,103,146380,1,2,0:0:0:0:
311,87,146580,2,0,P|299:132|288:171,1,74.9999952316285,0|2,0:0|0:0,0:0:0:0:
315,192,146880,2,0,P|364:207|400:217,1,74.9999952316285,2|0,0:0|0:0,0:0:0:0:
423,194,147180,1,2,0:2:0:0:
497,259,147380,5,4,1:2:0:0:
469,336,147580,1,2,0:0:0:0:
388,317,147780,2,0,P|347:332|296:331,1,74.9999952316285,0|2,0:0|0:0,0:0:0:0:
237,359,148180,2,0,P|223:291|215:259,1,74.9999952316285,0|2,0:0|0:0,0:0:0:0:
298,255,148580,2,0,P|305:203|312:163,1,74.9999952316285
242,130,148980,5,4,1:2:0:0:
242,130,149080,1,0,1:0:0:0:
242,130,149180,2,0,P|205:139|176:148,1,37.4999976158143,2|2,1:2|1:2,0:0:0:0:
176,109,149380,2,0,P|173:57|181:16,1,74.9999952316285,0|0,1:0|1:0,0:0:0:0:
252,2,149780,2,0,P|302:11|346:20,1,74.9999952316285,4|2,1:2|0:0,0:0:0:0:
333,24,150080,1,2,0:0:0:0:
342,35,150180,2,0,P|400:48|441:57,1,74.9999952316285,2|2,0:3|0:0,0:0:0:0:
348,130,150580,5,4,1:2:0:0:
270,105,150780,1,2,0:0:0:0:
224,174,150980,2,0,P|227:224|236:265,1,74.9999952316285,0|2,0:0|0:0,0:0:0:0:
307,280,151380,1,0,0:0:0:0:
283,359,151580,1,2,0:0:0:0:
202,340,151780,2,0,P|163:352|120:363,1,74.9999952316285,0|2,0:0|1:2,0:0:0:0:
53,298,152180,6,0,P|38:256|33:192,1,74.9999952316285,4|2,1:2|0:0,0:0:0:0:
95,172,152580,1,4,1:2:0:0:
95,172,152780,1,2,1:2:0:0:
172,206,152980,2,0,P|184:158|189:116,1,74.9999952316285,0|2,0:0|0:0,0:0:0:0:
164,98,153280,2,0,P|229:89|303:78,1,112.499992847443,2|2,0:0|0:2,0:0:0:0:
367,23,153780,5,4,1:2:0:0:
447,45,153980,1,2,0:0:0:0:
422,124,154180,2,0,P|427:165|435:218,1,74.9999952316285,0|2,0:0|0:0,0:0:0:0:
365,248,154580,1,4,1:2:0:0:
291,209,154780,1,2,1:2:0:0:
248,279,154980,1,0,1:0:0:0:
173,244,155180,1,0,1:0:0:0:
99,312,155380,6,0,P|75:316|39:322,3,37.4999976158143,4|0|0|0,1:0|0:0|0:0|0:0,0:0:0:0:
32,289,155780,1,4,1:0:0:0:
0,212,155980,1,0,0:0:0:0:
74,176,156180,1,0,1:0:0:0:
252,313,156980,6,0,P|310:301|355:292,1,89.9999915313724,4|2,1:2|0:0,0:0:0:0:
351,303,157280,1,2,0:0:0:0:
361,312,157380,2,0,P|379:259|378:203,1,89.9999915313724,0|2,1:0|0:0,0:0:0:0:
310,154,157780,1,0,1:2:0:0:
215,181,157980,1,2,0:0:0:0:
120,211,158180,2,0,P|107:141|98:96,1,89.9999915313724,0|2,1:0|0:0,0:0:0:0:
49,31,158580,6,0,P|112:18|153:10,1,89.9999915313724,0|2,1:2|0:0,0:0:0:0:
216,72,158980,1,0,1:0:0:0:
312,50,159180,1,2,0:0:0:0:
407,23,159380,2,0,P|406:71|392:124,1,89.9999915313724,0|2,1:2|0:0,0:0:0:0:
359,144,159680,1,2,0:0:0:0:
348,137,159780,1,0,1:0:0:0:
436,203,159980,2,0,P|442:235|449:267,1,44.9999957656862,2|0,0:0|0:0,0:0:0:0:
415,287,160180,5,0,1:2:0:0:
318,266,160380,1,2,0:0:0:0:
222,239,160580,2,0,P|230:170|241:128,1,89.9999915313724,0|2,1:0|0:0,0:0:0:0:
297,72,160980,2,0,P|232:57|188:47,1,89.9999915313724,0|2,1:2|0:0,0:0:0:0:
117,13,161380,1,0,1:0:0:0:
33,67,161580,1,2,0:0:0:0:
114,153,161780,1,2,1:2:0:0:
114,153,161880,1,2,0:0:0:0:
114,153,161980,2,0,P|120:188|127:221,1,44.9999957656862,2|2,0:0|0:0,0:0:0:0:
77,220,162180,6,0,P|62:260|53:315,1,89.9999915313724,0|2,1:0|0:0,0:0:0:0:
129,370,162580,1,0,1:2:0:0:
220,331,162780,1,2,0:0:0:0:
308,286,162980,2,0,P|365:300|414:314,1,89.9999915313724,2|2,1:3|0:0,0:0:0:0:
487,245,163380,6,0,P|491:194|481:140,1,89.9999915313724,4|2,1:2|0:0,0:0:0:0:
474,149,163680,1,2,0:0:0:0:
463,143,163780,2,0,P|405:155|351:167,1,89.9999915313724,0|2,1:0|0:0,0:0:0:0:
287,208,164180,1,0,1:2:0:0:
195,171,164380,1,2,0:0:0:0:
260,96,164580,2,0,P|251:29|252:-13,1,89.9999915313724,0|2,1:0|0:0,0:0:0:0:
360,51,164980,6,0,P|368:104|370:149,1,89.9999915313724,0|2,1:2|0:0,0:0:0:0:
450,18,165380,1,0,1:0:0:0:
509,97,165580,1,2,0:0:0:0:
449,176,165780,2,0,P|441:233|438:295,1,89.9999915313724,0|2,1:2|0:0,0:0:0:0:
449,274,166080,1,2,0:0:0:0:
458,284,166180,2,0,P|395:291|348:309,1,89.9999915313724,0|2,1:0|0:0,0:0:0:0:
273,369,166580,5,0,1:2:0:0:
188,318,166780,1,2,0:0:0:0:
243,235,166980,2,0,P|232:178|223:137,1,89.9999915313724,0|2,1:0|0:0,0:0:0:0:
281,65,167380,1,0,1:2:0:0:
186,36,167580,1,2,0:0:0:0:
92,3,167780,2,0,P|73:53|69:109,1,89.9999915313724,0|2,1:0|0:0,0:0:0:0:
133,162,168180,6,0,P|157:171|190:167,3,37.4999976158143,2|2|2|2,1:2|0:0|0:0|0:0,0:0:0:0:
100,202,168580,2,0,P|46:216|10:224,1,74.9999952316285,0|2,0:0|0:0,0:0:0:0:
0,298,168980,2,0,P|74:316|160:338,1,149.999990463257,2|2,0:0|0:0,0:0:0:0:
295,264,169780,6,0,P|307:313|313:382,2,112.499992847443,6|2|2,1:2|0:0|0:0,0:0:0:0:
183,141,170780,1,2,0:0:0:0:
241,83,170980,2,0,P|265:89|290:96,2,37.4999976158143,0|2|0,0:0|0:0|1:0,0:0:0:0:
343,148,171380,6,0,P|400:136|424:131,1,74.9999952316285,2|2,1:2|0:0,0:0:0:0:
483,180,171780,2,0,P|484:225|473:269,1,74.9999952316285,2|2,0:0|0:0,0:0:0:0:
419,312,172180,2,0,P|376:302|327:289,1,74.9999952316285,2|0,0:0|0:0,0:0:0:0:
321,260,172480,1,2,0:0:0:0:
208,306,172780,1,0,0:0:0:0:
208,306,172980,6,0,P|196:246|190:168,2,112.499992847443,6|2|2,1:2|0:0|0:0,0:0:0:0:
287,357,173780,2,0,P|300:306|309:275,1,74.9999952316285,0|2,0:0|0:0,0:0:0:0:
371,234,174180,2,0,P|416:247|452:257,1,74.9999952316285
511,181,174580,5,4,1:2:0:0:
511,181,174680,1,0,1:2:0:0:
511,181,174780,2,0,P|503:148|495:119,1,37.4999976158143,2|2,1:2|1:2,0:0:0:0:
478,109,174980,2,0,P|434:118|396:125,1,74.9999952316285,2|2,1:2|1:2,0:0:0:0:
356,191,175380,1,0,1:0:0:0:
279,161,175580,1,0,0:0:0:0:
279,161,175680,1,0,0:0:0:0:
279,161,175780,2,0,P|269:123|269:62,1,74.9999952316285,2|0,0:3|0:0,0:0:0:0:
314,19,176180,6,0,P|381:31|429:38,2,112.499992847443,6|2|2,1:2|0:2|0:2,0:0:0:0:
156,68,177180,1,2,0:0:0:0:
75,47,177380,2,0,P|70:20|64:-7,2,37.4999976158143,0|2|0,0:0|0:0|0:0,0:0:0:0:
27,131,177780,6,0,P|17:166|14:217,1,74.9999952316285,6|0,1:2|0:0,0:0:0:0:
89,238,178180,1,0,1:0:0:0:
89,238,178380,1,0,1:0:0:0:
129,166,178580,2,0,P|175:176|214:186,1,74.9999952316285,2|0,0:0|0:0,0:0:0:0:
221,219,178880,2,0,P|276:223|345:194,1,112.499992847443,2|0,0:0|0:0,0:0:0:0:
414,148,179380,6,0,P|403:77|392:20,2,112.499992847443,6|2|2,1:2|0:0|0:0,0:0:0:0:
493,173,180180,2,0,P|491:218|480:255,1,74.9999952316285,4|0,1:2|1:0,0:0:0:0:
408,282,180580,1,0,1:0:0:0:
345,228,180780,1,0,1:0:0:0:
278,305,180980,6,0,P|247:314|223:322,3,37.4999976158143,0|0|0|0,1:2|0:0|0:0|0:0,0:0:0:0:
212,286,181380,1,4,1:2:0:0:
132,307,181580,1,0,0:0:0:0:
75,246,181780,1,4,1:2:0:0:
288,159,182580,6,0,P|349:172|387:180,1,89.9999915313724,4|2,1:2|0:0,0:0:0:0:
385,186,182880,1,2,0:0:0:0:
394,195,182980,1,0,1:0:0:0:
479,145,183180,1,2,0:0:0:0:
435,56,183380,2,0,P|391:70|327:70,1,89.9999915313724,0|2,1:2|0:0,0:0:0:0:
259,26,183780,1,0,1:0:0:0:
259,26,183880,1,0,0:0:0:0:
259,26,183980,1,2,0:0:0:0:
178,105,184180,6,0,P|191:157|205:215,1,89.9999915313724,0|2,1:2|0:0,0:0:0:0:
249,199,184480,2,0,P|264:235|265:309,1,89.9999915313724
234,321,184780,1,2,0:0:0:0:
141,286,184980,2,0,P|78:299|41:307,1,89.9999915313724,0|2,1:2|0:0,0:0:0:0:
10,225,185380,1,0,1:0:0:0:
10,225,185480,1,0,0:0:0:0:
10,225,185580,1,2,0:0:0:0:
98,173,185780,6,0,P|147:188|204:192,1,89.9999915313724,0|2,1:2|0:3,0:0:0:0:
197,187,186080,1,2,0:0:0:0:
207,180,186180,1,0,1:0:0:0:
274,252,186380,1,2,0:3:0:0:
365,213,186580,1,0,1:2:0:0:
312,129,186780,1,2,0:3:0:0:
312,129,186880,1,2,0:3:0:0:
312,129,186980,2,0,P|318:75|327:27,1,89.9999915313724,0|2,1:3|0:3,0:0:0:0:
428,10,187380,6,0,P|457:15|488:21,3,44.9999957656862,2|2|2|2,1:2|0:0|0:0|0:0,0:0:0:0:
502,57,187780,1,0,1:0:0:0:
461,147,187980,1,2,0:0:0:0:
366,117,188180,2,0,P|352:171|344:232,1,89.9999915313724,0|2,1:2|0:0,0:0:0:0:
379,241,188480,1,2,0:0:0:0:
388,249,188580,2,0,P|447:238|491:230,1,89.9999915313724,2|2,1:3|0:0,0:0:0:0:
357,337,188980,6,0,P|301:324|265:315,1,89.9999915313724,4|2,1:2|0:0,0:0:0:0:
259,323,189280,1,2,0:0:0:0:
249,331,189380,2,0,P|232:275|226:222,1,89.9999915313724,0|2,1:0|0:0,0:0:0:0:
310,189,189780,2,0,P|319:128|325:85,1,89.9999915313724,0|2,1:2|0:0,0:0:0:0:
236,50,190180,1,0,1:0:0:0:
236,50,190280,1,0,0:0:0:0:
236,50,190380,1,2,0:0:0:0:
178,139,190580,6,0,P|128:151|79:153,1,89.9999915313724,0|2,1:2|0:0,0:0:0:0:
46,128,190880,2,0,P|35:190|34:239,1,89.9999915313724
65,254,191180,1,2,0:0:0:0:
148,306,191380,2,0,P|204:293|252:283,1,89.9999915313724,0|2,1:2|0:0,0:0:0:0:
307,218,191780,1,0,1:0:0:0:
307,218,191880,1,0,0:0:0:0:
307,218,191980,1,2,0:0:0:0:
203,172,192180,6,0,P|205:113|212:69,1,89.9999915313724,0|2,1:2|0:3,0:0:0:0:
221,77,192480,1,2,0:0:0:0:
232,70,192580,1,0,1:0:0:0:
322,109,192780,1,2,0:3:0:0:
364,19,192980,1,0,1:2:0:0:
465,59,193180,1,2,0:3:0:0:
465,59,193280,1,0,0:3:0:0:
465,59,193380,2,0,P|475:113|478:152,1,89.9999915313724,0|2,1:0|0:3,0:0:0:0:
397,194,193780,6,0,P|393:219|388:254,3,37.4999976158143,2|2|2|2,1:2|0:0|0:0|0:0,0:0:0:0:
423,257,194180,2,0,P|472:247|505:240,1,74.9999952316285,0|2,0:0|0:0,0:0:0:0:
439,343,194580,2,0,P|375:328|263:316,1,149.999990463257,2|2,0:0|0:0,0:0:0:0:
202,178,195380,5,4,1:2:0:0:
256,192,195480,12,4,196980,1:2:0:0:
257,190,208180,5,4,1:2:0:0:
257,190,209780,6,0,P|249:249|239:300,1,89.9999915313724,4|2,1:2|0:0,0:0:0:0:
150,313,210180,2,0,P|141:277|133:242,1,44.9999957656862,0|2,1:2|0:0,0:0:0:0:
44,240,210480,1,0,0:0:0:0:
37,230,210580,2,0,P|30:166|59:81,2,134.999987297059,0|2|2,1:2|0:0|0:0,0:0:0:0:
127,177,211380,5,4,1:2:0:0:
185,256,211580,2,0,P|243:243|297:228,1,89.9999915313724,2|0,0:0|1:2,0:0:0:0:
319,251,211880,2,0,P|309:186|299:137,1,89.9999915313724,2|0,0:0|0:0,0:0:0:0:
270,125,212180,1,0,1:2:0:0:
366,11,212480,1,2,0:0:0:0:
503,66,212780,1,2,0:0:0:0:
458,168,212980,6,0,P|407:169|352:145,1,89.9999915313724,4|2,1:2|0:0,0:0:0:0:
286,96,213380,2,0,P|253:104|217:112,1,44.9999957656862,0|2,1:2|0:0,0:0:0:0:
183,187,213680,1,0,0:0:0:0:
192,193,213780,2,0,P|210:273|224:338,2,134.999987297059,0|2|2,1:2|0:0|0:0,0:0:0:0:
298,246,214580,6,0,P|353:236|394:229,1,89.9999915313724,4|2,1:2|0:0,0:0:0:0:
479,263,214980,2,0,P|492:197|492:153,1,89.9999915313724,4|0,1:2|0:0,0:0:0:0:
426,100,215380,1,0,1:2:0:0:
426,100,215480,1,2,0:3:0:0:
426,100,215580,2,0,P|388:104|368:106,1,44.9999957656862,2|2,0:3|0:3,0:0:0:0:
345,138,215780,1,2,1:3:0:0:
248,117,215980,1,2,0:0:0:0:
169,177,216180,6,0,P|180:223|192:285,1,89.9999915313724,4|2,1:2|0:0,0:0:0:0:
272,317,216580,1,0,1:2:0:0:
269,328,216680,1,2,0:0:0:0:
185,381,216880,1,0,0:0:0:0:
177,372,216980,2,0,P|116:372|13:335,2,134.999987297059,0|2|2,1:2|0:0|0:0,0:0:0:0:
124,274,217780,5,4,1:2:0:0:
199,210,217980,2,0,P|256:223|297:232,1,89.9999915313724,2|0,0:0|1:2,0:0:0:0:
313,271,218280,2,0,P|368:273|412:254,1,89.9999915313724,2|0,0:0|0:0,0:0:0:0:
442,234,218580,1,0,1:2:0:0:
505,99,218880,1,2,0:0:0:0:
384,12,219180,1,2,0:0:0:0:
300,65,219380,6,0,P|316:119|328:165,1,89.9999915313724,4|2,1:2|0:0,0:0:0:0:
419,181,219780,1,0,1:2:0:0:
415,192,219880,1,2,0:0:0:0:
355,270,220080,1,0,0:0:0:0:
347,262,220180,2,0,P|272:276|227:288,1,89.9999915313724,2|2,1:3|0:0,0:0:0:0:
198,358,220580,5,2,1:3:0:0:
114,305,220780,1,2,0:3:0:0:
145,211,220980,1,4,1:2:0:0:
324,122,221380,1,4,1:2:0:0:
410,146,221580,1,4,1:2:0:0:
497,168,221780,1,4,1:2:0:0:
375,366,222180,1,2,0:0:0:0:
180,288,222580,5,4,1:2:0:0:
136,217,222780,1,2,0:0:0:0:
61,251,222980,2,0,P|49:206|44:159,1,74.9999952316285,0|2,0:0|0:0,0:0:0:0:
92,110,223380,2,0,P|55:102|18:94,2,74.9999952316285,0|2|0,0:0|0:0|0:0,0:0:0:0:
167,143,223980,1,2,1:2:0:0:
207,71,224180,6,0,P|272:52|334:47,1,112.499992847443,4|2,1:2|0:0,0:0:0:0:
354,62,224580,2,0,P|344:112|335:157,1,74.9999952316285,0|2,0:0|0:0,0:0:0:0:
266,174,224980,2,0,P|279:240|291:278,1,74.9999952316285,0|2,0:0|0:0,0:0:0:0:
315,271,225280,2,0,P|373:260|414:252,1,74.9999952316285,2|0,0:0|0:0,0:0:0:0:
423,234,225580,1,2,0:2:0:0:
502,160,225780,5,4,1:2:0:0:
454,92,225980,1,2,0:0:0:0:
377,122,226180,2,0,P|331:112|293:103,1,74.9999952316285,0|2,0:0|0:0,0:0:0:0:
234,151,226580,2,0,P|234:200|240:247,1,74.9999952316285,0|2,0:0|0:0,0:0:0:0:
309,264,226980,2,0,P|304:313|294:359,1,74.9999952316285
206,376,227380,5,4,1:2:0:0:
206,376,227480,1,0,1:0:0:0:
206,376,227580,2,0,P|199:347|194:317,1,37.4999976158143,2|2,1:2|1:2,0:0:0:0:
164,313,227780,2,0,P|117:328|70:328,1,74.9999952316285,0|0,1:0|1:0,0:0:0:0:
23,282,228180,6,0,P|29:229|34:188,1,74.9999952316285,4|2,1:2|0:0,0:0:0:0:
42,203,228480,1,2,0:0:0:0:
54,198,228580,2,0,P|99:206|139:213,1,74.9999952316285,2|2,0:3|0:0,0:0:0:0:
208,268,228980,5,4,1:2:0:0:
288,247,229180,1,2,0:0:0:0:
368,226,229380,2,0,P|374:174|377:123,1,74.9999952316285,0|2,0:0|0:0,0:0:0:0:
421,82,229780,1,0,0:0:0:0:
344,50,229980,1,2,0:0:0:0:
269,14,230180,2,0,P|260:52|251:98,1,74.9999952316285,0|2,0:0|1:2,0:0:0:0:
263,183,230580,6,0,P|307:175|344:169,1,74.9999952316285,4|2,1:2|0:0,0:0:0:0:
189,218,230980,1,4,1:2:0:0:
189,218,231180,1,2,1:2:0:0:
128,154,231380,2,0,B|84:162|45:168|41:169,1,74.9999952316285,0|2,0:0|0:0,0:0:0:0:
22,193,231680,2,0,P|16:237|25:321,1,112.499992847443,2|2,0:0|0:2,0:0:0:0:
109,360,232180,5,4,1:2:0:0:
166,300,232380,1,2,0:0:0:0:
240,335,232580,2,0,P|247:289|255:243,1,74.9999952316285,0|2,0:0|0:0,0:0:0:0:
200,195,232980,1,4,1:2:0:0:
241,123,233180,1,2,1:2:0:0:
324,145,233380,1,0,1:0:0:0:
354,221,233580,1,0,1:0:0:0:
441,192,233780,6,0,P|447:166|454:136,3,37.4999976158143,4|0|0|0,1:0|0:0|0:0|0:0,0:0:0:0:
485,135,234180,1,4,1:0:0:0:
463,55,234380,1,0,0:0:0:0:
383,75,234580,1,0,1:0:0:0:
197,14,235380,6,0,P|182:76|174:122,1,89.9999915313724,4|2,1:2|0:0,0:0:0:0:
186,111,235680,1,2,0:0:0:0:
195,120,235780,2,0,P|243:106|292:94,1,89.9999915313724,0|2,1:0|0:0,0:0:0:0:
356,161,236180,1,0,1:2:0:0:
309,248,236380,1,2,0:0:0:0:
216,211,236580,2,0,P|167:204|111:196,1,89.9999915313724,0|2,1:0|0:0,0:0:0:0:
23,255,236980,6,0,P|17:302|25:351,1,89.9999915313724,0|2,1:2|0:0,0:0:0:0:
114,381,237380,1,0,1:0:0:0:
195,324,237580,1,2,0:0:0:0:
288,356,237780,2,0,P|300:291|310:246,1,89.9999915313724,0|2,1:2|0:0,0:0:0:0:
266,235,238080,1,2,0:0:0:0:
255,242,238180,1,0,1:0:0:0:
156,249,238380,2,0,P|148:217|139:182,1,44.9999957656862,2|0,0:0|0:0,0:0:0:0:
179,169,238580,5,0,1:2:0:0:
273,140,238780,1,2,0:0:0:0:
367,109,238980,2,0,P|381:165|383:222,1,89.9999915313724,0|2,1:0|0:0,0:0:0:0:
300,251,239380,2,0,P|290:305|281:353,1,89.9999915313724,0|2,1:2|0:0,0:0:0:0:
375,377,239780,1,0,1:0:0:0:
455,319,239980,1,2,0:0:0:0:
417,238,240180,1,2,1:2:0:0:
417,238,240280,1,2,0:0:0:0:
417,238,240380,2,0,P|409:199|405:175,1,44.9999957656862,2|2,0:0|0:0,0:0:0:0:
449,166,240580,6,0,P|412:160|343:141,1,89.9999915313724,0|2,1:0|0:0,0:0:0:0:
297,222,240980,1,0,1:2:0:0:
206,181,241180,1,2,0:0:0:0:
118,134,241380,2,0,P|112:67|105:14,1,89.9999915313724,2|2,1:3|0:0,0:0:0:0:
205,2,241780,6,0,P|257:13|306:23,1,89.9999915313724,4|2,1:2|0:0,0:0:0:0:
303,29,242080,1,2,0:0:0:0:
313,36,242180,2,0,P|316:92|308:145,1,89.9999915313724,0|2,1:0|0:0,0:0:0:0:
240,194,242580,1,0,1:2:0:0:
150,151,242780,1,2,0:0:0:0:
61,106,242980,2,0,P|44:156|30:222,1,89.9999915313724,0|2,1:0|0:0,0:0:0:0:
72,296,243380,6,0,P|126:283|173:273,1,89.9999915313724,0|2,1:2|0:0,0:0:0:0:
220,353,243780,1,0,1:0:0:0:
314,322,243980,1,2,0:0:0:0:
399,371,244180,2,0,P|415:306|415:251,1,89.9999915313724,0|2,1:2|0:0,0:0:0:0:
408,274,244480,1,2,0:0:0:0:
401,264,244580,2,0,P|353:253|299:239,1,89.9999915313724,0|2,1:0|0:0,0:0:0:0:
208,274,244980,5,0,1:2:0:0:
144,197,245180,1,2,0:0:0:0:
178,104,245380,2,0,P|224:115|283:122,1,89.9999915313724,0|2,1:0|0:0,0:0:0:0:
355,164,245780,1,0,1:2:0:0:
444,121,245980,1,2,0:0:0:0:
398,32,246180,2,0,P|345:20|292:13,1,89.9999915313724,0|2,1:0|0:0,0:0:0:0:
230,73,246580,6,0,P|236:100|240:124,3,37.4999976158143,2|2|2|2,1:2|0:0|0:0|0:0,0:0:0:0:
275,126,246980,2,0,P|279:168|275:221,1,74.9999952316285,0|2,0:0|0:0,0:0:0:0:
218,258,247380,2,0,P|158:244|72:225,1,149.999990463257,2|2,0:0|0:0,0:0:0:0:
20,60,248180,6,0,P|81:47|126:39,1,89.9999915313724,4|2,1:2|0:0,0:0:0:0:
169,120,248580,2,0,P|198:128|231:135,1,44.9999957656862,0|2,1:2|0:0,0:0:0:0:
291,70,248880,1,0,0:0:0:0:
302,77,248980,2,0,P|362:79|460:32,2,134.999987297059,0|2|2,1:2|0:0|0:0,0:0:0:0:
236,165,249780,5,4,1:2:0:0:
328,201,249980,2,0,P|340:250|344:301,1,89.9999915313724,2|0,0:0|1:2,0:0:0:0:
307,323,250280,2,0,P|256:311|203:298,1,89.9999915313724,2|0,0:0|0:0,0:0:0:0:
182,268,250580,1,0,1:2:0:0:
40,311,250880,1,2,0:0:0:0:
13,164,251180,1,2,0:0:0:0:
100,209,251380,6,0,P|149:194|200:186,1,89.9999915313724,4|2,1:2|0:0,0:0:0:0:
244,106,251780,2,0,P|278:114|304:119,1,44.9999957656862,0|2,1:2|0:0,0:0:0:0:
358,186,252080,1,0,0:0:0:0:
352,195,252180,2,0,P|352:253|333:354,2,134.999987297059,0|2|2,1:2|0:0|0:0,0:0:0:0:
253,207,252980,6,0,P|238:148|227:106,1,89.9999915313724,4|2,1:2|0:0,0:0:0:0:
307,56,253380,2,0,P|361:42|409:28,1,89.9999915313724,4|0,1:2|0:0,0:0:0:0:
491,82,253780,1,0,1:2:0:0:
491,82,253880,1,2,0:3:0:0:
491,82,253980,2,0,P|486:114|480:148,1,44.9999957656862,2|2,0:3|0:3,0:0:0:0:
450,163,254180,5,2,1:3:0:0:
356,130,254380,1,2,0:0:0:0:
295,208,254580,2,0,P|306:269|312:337,1,89.9999915313724,4|2,1:2|0:0,0:0:0:0:
229,356,254980,1,0,1:2:0:0:
223,347,255080,1,2,0:0:0:0:
158,271,255280,1,0,0:0:0:0:
149,280,255380,2,0,P|98:281|-5:239,2,134.999987297059,0|2|2,1:2|0:0|0:0,0:0:0:0:
210,176,256180,5,4,1:2:0:0:
291,232,256380,2,0,P|355:218|393:209,1,89.9999915313724,2|0,0:0|1:2,0:0:0:0:
425,230,256680,2,0,P|437:169|438:129,1,89.9999915313724,2|0,0:0|0:0,0:0:0:0:
405,104,256980,1,0,1:2:0:0:
264,152,257280,1,2,0:0:0:0:
190,22,257580,1,2,0:0:0:0:
95,51,257780,6,0,P|84:104|77:149,1,89.9999915313724,4|2,1:2|0:0,0:0:0:0:
8,210,258180,1,0,1:2:0:0:
14,221,258280,1,2,0:0:0:0:
101,267,258480,1,0,0:0:0:0:
111,258,258580,2,0,P|153:251|205:241,1,89.9999915313724,2|2,1:3|0:0,0:0:0:0:
276,180,258980,5,2,1:3:0:0:
339,255,259180,1,2,0:3:0:0:
432,221,259380,1,4,1:2:0:0:
256,192,259480,12,4,260980,1:2:0:0:
