osu file format v14

[General]
AudioFilename: audio.mp3
AudioLeadIn: 0
PreviewTime: 89780
Countdown: 0
SampleSet: Soft
StackLeniency: 0.7
Mode: 0
LetterboxInBreaks: 0
WidescreenStoryboard: 1

[Editor]
Bookmarks: 25865,53065,65865,117065,131465,144265,209780,222580,260980
DistanceSpacing: 0.8
BeatDivisor: 4
GridSize: 16
TimelineZoom: 2.4

[Metadata]
Title:KIRISAME MAGIC (DJ katsu CLUB EDIT)
TitleUnicode:KIRISAME MAGIC (DJ katsu CLUB EDIT)
Artist:FN2 feat. Hanatan
ArtistUnicode:FN2 feat. 花たん
Creator:milr_
Version:Extra Stage
Source:東方花映塚 ~ Phantasmagoria of Flower View.
Tags:k0alcj 228 aye1337 Sanch-KK s1lentx1337 electronic japanese video game 東方project touhou c86 RAVER’S NEST 3 TOHO RAVE PARTY ZUN sumijun Oriental Dark Flight オリエンタルダークフライト DiGiTAL WiNG
BeatmapID:4366467
BeatmapSetID:2084590

[Difficulty]
HPDrainRate:5
CircleSize:4
OverallDifficulty:8.5
ApproachRate:9.3
SliderMultiplier:3.59999990463257
SliderTickRate:1

[Events]
//Background and Video events
0,0,"bg.jpg",0,0
//Break Periods
2,197180,207580
//Storyboard Layer 0 (Background)
//Storyboard Layer 1 (Fail)
//Storyboard Layer 2 (Pass)
//Storyboard Layer 3 (Foreground)
//Storyboard Layer 4 (Overlay)
//Storyboard Sound Samples

[TimingPoints]
12980,400,4,2,0,65,1,0
25780,-133.333333333333,4,2,0,70,0,0
37380,-200,4,2,0,70,0,0
40180,-100,4,2,0,80,0,0
52980,-100,4,2,0,75,0,0
64180,-133.333333333333,4,2,0,65,0,0
64980,-200,4,2,0,65,0,0
65780,-100,4,2,0,75,0,0
78180,-200,4,2,0,75,0,0
78580,-133.333333333333,4,2,0,70,0,0
91380,-100,4,2,0,80,0,1
102580,-100,4,2,0,65,0,0
104180,-100,4,2,0,80,0,0
115380,-133.333333333333,4,2,0,80,0,0
116980,-133.333333333333,4,2,0,65,0,0
118580,-100,4,2,0,75,0,0
129780,-133.333333333333,4,2,0,65,0,0
130580,-200,4,2,0,65,0,0
131380,-100,4,2,0,75,0,0
143780,-200,4,2,0,75,0,0
144180,-133.333333333333,4,2,0,70,0,0
156980,-100,4,2,0,80,0,1
168180,-100,4,2,0,65,0,0
169780,-200,4,2,0,70,0,0
182580,-100,4,2,0,80,0,1
193780,-100,4,2,0,65,0,0
209780,-100,4,2,0,80,0,0
222180,-200,4,2,0,80,0,0
222580,-133.333333333333,4,2,0,70,0,0
235380,-100,4,2,0,80,0,1
246580,-100,4,2,0,65,0,0
248180,-100,4,2,0,80,0,0
259380,-100,4,2,0,65,0,0
286580,-100,4,2,0,5,0,0

[Colours]
Combo1 : 225,55,174
Combo2 : 233,132,50
Combo3 : 232,209,51
Combo4 : 138,114,222

[HitObjects]
256,192,24180,12,0,25580,0:0:0:0:
26,264,25780,6,0,P|109:274|205:231,1,135.000001573563,4|2,1:2|0:0,0:0:0:0:
226,216,26080,1,2,0:0:0:0:
223,209,26180,2,0,L|247:104,1,67.5000007867814
99,238,26380,2,0,L|123:133,1,67.5000007867814,2|0,0:0|0:0,0:0:0:0:
146,352,26580,6,0,P|183:361|217:371,1,67.5000007867814
352,305,26780,1,2,0:0:0:0:
347,314,26880,1,2,0:0:0:0:
290,370,26980,1,0,0:0:0:0:
257,207,27180,1,2,1:2:0:0:
381,242,27380,6,0,P|468:263|523:276,1,135.000001573563,4|2,1:2|0:0,0:0:0:0:
187,150,27680,2,0,P|261:123|355:139,1,135.000001573563,2|0,0:0|0:0,0:0:0:0:
316,126,27980,2,0,P|307:162|297:213,1,67.5000007867814,2|0,0:0|0:0,0:0:0:0:
127,255,28180,1,0,0:0:0:0:
9,203,28380,2,0,P|20:171|34:133,1,67.5000007867814,2|2,0:0|0:0,0:0:0:0:
124,247,28580,2,0,P|143:296|142:388,1,135.000001573563,0|2,0:0|0:2,0:0:0:0:
51,307,28880,1,0,0:0:0:0:
46,318,28980,6,0,P|53:361|60:401,2,67.5000007867814,4|0|2,1:2|0:0|0:0,0:0:0:0:
217,287,29280,2,0,P|227:219|244:141,1,135.000001573563,2|0,0:0|0:0,0:0:0:0:
402,309,29580,2,0,P|413:350|422:394,1,67.5000007867814,2|0,0:0|0:0,0:0:0:0:
490,294,29780,1,0,0:0:0:0:
222,218,29980,1,2,0:0:0:0:
213,225,30080,1,0,0:0:0:0:
302,262,30180,2,0,P|318:209|315:165,2,67.5000007867814,0|2|0,0:0|0:0|0:0,0:0:0:0:
237,338,30480,1,0,0:0:0:0:
140,291,30580,5,4,1:2:0:0:
112,321,30680,1,0,1:0:0:0:
61,260,30780,1,2,1:2:0:0:
71,254,30880,1,2,1:2:0:0:
18,366,30980,5,0,1:0:0:0:
154,201,31180,1,0,1:0:0:0:
284,357,31380,2,0,P|274:289|259:202,1,135.000001573563,4|2,1:2|0:0,0:0:0:0:
118,253,31680,1,2,0:0:0:0:
110,246,31780,2,0,P|86:164|98:84,1,135.000001573563,2|2,0:3|0:0,0:0:0:0:
243,15,32180,6,0,P|294:26|394:48,1,135.000001573563,4|2,1:2|0:0,0:0:0:0:
233,105,32480,1,2,0:0:0:0:
229,114,32580,2,0,P|186:120|149:124,1,67.5000007867814
402,190,32780,2,0,P|359:196|322:200,1,67.5000007867814,2|0,0:0|0:0,0:0:0:0:
494,86,32980,6,0,P|499:54|492:6,1,67.5000007867814
377,108,33180,1,2,0:0:0:0:
372,118,33280,1,2,0:0:0:0:
475,196,33380,1,0,0:0:0:0:
311,166,33580,1,2,1:2:0:0:
342,307,33780,2,0,P|407:293|525:274,1,135.000001573563,4|2,1:2|0:0,0:0:0:0:
474,281,34080,1,2,0:0:0:0:
239,362,34180,5,4,1:2:0:0:
358,227,34380,1,2,1:2:0:0:
177,201,34580,2,0,P|162:126|162:20,1,135.000001573563,0|2,0:0|0:0,0:0:0:0:
273,15,34880,1,2,0:0:0:0:
269,23,34980,2,0,P|258:69|250:114,1,67.5000007867814
85,48,35180,2,0,P|74:94|66:139,1,67.5000007867814,2|0,0:2|0:0,0:0:0:0:
259,169,35380,6,0,P|342:153|402:140,1,135.000001573563,4|2,1:2|0:0,0:0:0:0:
185,206,35680,1,2,0:0:0:0:
177,201,35780,2,0,P|165:168|168:115,1,67.5000007867814
348,232,35980,2,0,P|360:265|357:318,1,67.5000007867814,2|0,0:0|0:0,0:0:0:0:
226,375,36180,6,0,P|235:331|247:269,1,67.5000007867814,4|0,1:2|0:0,0:0:0:0:
286,150,36380,2,0,P|277:194|265:256,1,67.5000007867814,2|0,1:2|0:0,0:0:0:0:
130,235,36580,1,0,1:0:0:0:
125,226,36680,1,0,1:0:0:0:
402,314,36780,1,0,1:0:0:0:
229,302,36980,6,0,P|279:292|322:283,3,67.5000007867814,0|0|0|0,1:0|0:0|0:0|0:0,0:0:0:0:
171,362,37380,2,0,P|122:357|79:344,1,89.9999976158143
15,291,37780,1,2,1:3:0:0:
259,345,37980,6,0,P|276:350|298:355,2,22.4999994039536,0|0|0,1:0|0:0|1:0,0:0:0:0:
186,323,38180,1,0,1:0:0:0:
340,290,38380,1,0,1:0:0:0:
490,363,38580,2,0,P|480:329|475:300,3,44.9999988079071,4|0|0|0,1:2|0:0|0:0|0:0,0:0:0:0:
402,313,38980,2,0,P|405:250|418:220,2,89.9999976158143,2|2|0,0:0|0:0|0:0,0:0:0:0:
483,262,39480,1,2,0:0:0:0:
489,256,39580,1,2,0:0:0:0:
263,313,39780,1,2,0:3:0:0:
349,368,39980,1,0,0:0:0:0:
349,368,40180,6,0,P|331:262|310:156,1,179.999995231629,4|2,1:2|0:0,0:0:0:0:
214,213,40480,1,2,0:0:0:0:
208,206,40580,2,0,P|212:154|228:102,2,89.9999976158143,0|2|0,1:2|0:0|0:0,0:0:0:0:
321,121,40880,1,0,0:0:0:0:
327,115,40980,6,0,P|406:98|531:73,1,179.999995231629,0|2,1:2|0:0,0:0:0:0:
81,51,41280,2,0,P|182:31|276:14,1,179.999995231629,2|0,0:0|0:0,0:0:0:0:
257,17,41580,2,0,P|259:65|240:120,1,89.9999976158143,2|0,0:0|0:0,0:0:0:0:
138,115,41780,6,0,P|153:204|168:293,1,179.999995231629,4|2,1:2|0:0,0:0:0:0:
264,204,42080,1,2,0:0:0:0:
257,213,42180,2,0,P|317:204|362:197,2,89.9999976158143,0|2|0,1:2|0:0|0:0,0:0:0:0:
224,354,42480,1,0,0:0:0:0:
217,347,42580,6,0,P|130:325|11:322,1,179.999995231629,0|2,1:2|0:0,0:0:0:0:
305,291,42880,2,0,P|379:312|497:316,1,179.999995231629,2|0,0:0|0:0,0:0:0:0:
481,317,43180,2,0,P|473:254|468:220,1,89.9999976158143,2|0,0:0|0:0,0:0:0:0:
225,264,43380,6,0,P|213:163|195:53,1,179.999995231629,4|2,1:2|0:0,0:0:0:0:
293,125,43680,1,2,0:0:0:0:
297,119,43780,2,0,P|304:74|311:17,2,89.9999976158143,0|2|0,1:2|0:0|0:0,0:0:0:0:
131,169,44080,1,0,0:0:0:0:
126,176,44180,6,0,P|106:256|111:364,1,179.999995231629,0|2,1:2|0:0,0:0:0:0:
374,221,44480,2,0,P|266:239|160:259,1,179.999995231629,2|0,0:0|0:0,0:0:0:0:
30,342,44780,2,0,P|72:349|143:361,1,89.9999976158143,2|0,0:0|0:0,0:0:0:0:
318,312,44980,6,0,P|427:328|546:348,1,179.999995231629,4|2,1:2|0:0,0:0:0:0:
247,369,45280,1,2,0:0:0:0:
241,361,45380,2,0,P|228:319|230:256,2,89.9999976158143,4|2|0,1:2|0:0|0:0,0:0:0:0:
330,196,45680,1,0,0:0:0:0:
322,206,45780,5,0,1:2:0:0:
165,174,45880,1,2,0:3:0:0:
177,134,45980,1,2,0:3:0:0:
191,96,46080,1,2,0:3:0:0:
238,206,46180,2,0,P|252:265|262:322,1,89.9999976158143,2|0,1:3|0:0,0:0:0:0:
18,131,46380,2,0,P|32:190|42:247,1,89.9999976158143,2|0,0:0|0:0,0:0:0:0:
165,20,46580,6,0,P|167:120|133:224,1,179.999995231629,4|2,1:2|0:0,0:0:0:0:
90,67,46880,1,2,0:0:0:0:
86,60,46980,2,0,P|36:46|-16:32,2,89.9999976158143,0|2|0,1:2|0:0|0:0,0:0:0:0:
229,170,47280,1,0,0:0:0:0:
236,165,47380,6,0,P|332:184|430:205,1,179.999995231629,0|2,1:2|0:0,0:0:0:0:
39,226,47680,2,0,P|135:245|233:266,1,179.999995231629,2|0,0:0|0:0,0:0:0:0:
215,262,47980,2,0,P|219:318|199:364,1,89.9999976158143,2|0,0:0|0:0,0:0:0:0:
55,384,48180,6,0,P|44:305|26:183,1,179.999995231629,4|2,1:2|0:0,0:0:0:0:
126,330,48480,1,2,0:0:0:0:
131,325,48580,2,0,P|189:317|234:310,2,89.9999976158143,0|2|0,1:2|0:0|0:0,0:0:0:0:
67,132,48880,1,0,0:0:0:0:
61,126,48980,6,0,P|156:120|264:164,1,179.999995231629,0|2,1:2|0:0,0:0:0:0:
390,270,49280,2,0,P|295:276|187:232,1,179.999995231629,2|0,0:0|0:0,0:0:0:0:
423,184,49580,2,0,P|481:174|525:167,1,89.9999976158143,2|0,0:0|0:0,0:0:0:0:
332,369,49780,6,0,P|314:273|314:154,1,179.999995231629,4|2,1:2|0:0,0:0:0:0:
378,113,50080,1,2,0:0:0:0:
373,106,50180,2,0,P|364:53|357:9,2,89.9999976158143,0|2|0,1:2|0:0|0:0,0:0:0:0:
227,252,50480,1,0,0:0:0:0:
220,246,50580,6,0,P|124:225|29:203,1,179.999995231629,2|2,1:3|0:0,0:0:0:0:
395,197,50880,1,2,0:0:0:0:
389,193,50980,2,0,P|293:172|243:159,1,89.9999976158143,2|0,1:3|0:0,0:0:0:0:
208,366,51180,2,0,P|262:355|311:344,1,89.9999976158143,2|0,0:3|0:0,0:0:0:0:
383,380,51380,6,0,P|385:300|355:195,1,179.999995231629,4|0,1:2|0:0,0:0:0:0:
295,267,51680,1,0,0:0:0:0:
289,259,51780,1,4,0:0:0:0:
506,313,51980,1,0,0:0:0:0:
341,127,52180,1,0,1:0:0:0:
211,193,52380,5,0,1:0:0:0:
130,143,52480,1,0,1:0:0:0:
281,12,52680,1,0,1:0:0:0:
225,94,52780,1,0,1:0:0:0:
225,94,52980,6,0,P|244:187|243:297,1,179.999995231629,4|2,1:2|0:0,0:0:0:0:
245,271,53280,1,0,0:0:0:0:
163,332,53380,1,0,1:0:0:0:
54,242,53580,2,0,P|112:228|173:213,1,89.9999976158143
246,285,53780,6,0,P|359:266|437:254,1,179.999995231629,2|2,1:2|0:0,0:0:0:0:
512,103,54080,2,0,P|410:122|318:140,1,179.999995231629,2|0,0:0|0:0,0:0:0:0:
335,136,54380,2,0,P|327:81|332:32,1,89.9999976158143,2|0,0:0|0:0,0:0:0:0:
467,184,54580,6,0,P|471:271|454:365,1,179.999995231629,0|2,1:2|0:0,0:0:0:0:
454,362,54880,1,0,0:0:0:0:
386,258,54980,1,0,1:0:0:0:
206,318,55180,1,2,0:0:0:0:
206,318,55380,6,0,P|190:206|174:107,1,179.999995231629,2|2,1:2|0:0,0:0:0:0:
297,195,55680,2,0,P|279:83|266:-2,1,179.999995231629,2|0,0:0|0:0,0:0:0:0:
181,36,55980,1,0,0:0:0:0:
172,32,56080,1,0,0:0:0:0:
256,104,56180,6,0,P|358:82|453:80,1,179.999995231629,0|2,1:2|0:0,0:0:0:0:
433,79,56480,1,0,0:0:0:0:
506,14,56580,1,0,1:0:0:0:
411,179,56780,1,2,0:0:0:0:
411,179,56880,1,0,0:0:0:0:
497,203,56980,6,0,P|506:269|512:395,1,179.999995231629,2|2,1:2|0:0,0:0:0:0:
380,297,57280,2,0,P|362:188|365:75,1,179.999995231629,2|0,0:0|0:0,0:0:0:0:
362,119,57580,2,0,P|416:129|457:137,1,89.9999976158143,2|0,0:0|0:0,0:0:0:0:
336,207,57780,1,0,1:2:0:0:
134,108,57980,1,2,0:0:0:0:
213,374,58180,6,0,P|219:334|225:273,1,89.9999976158143,0|0,1:0|0:0,0:0:0:0:
138,226,58380,2,0,P|130:281|124:336,1,89.9999976158143,2|0,0:0|0:0,0:0:0:0:
388,265,58580,2,0,P|287:257|209:286,1,179.999995231629,2|2,1:2|0:0,0:0:0:0:
49,360,58880,2,0,P|33:266|11:158,1,179.999995231629,2|0,0:0|0:0,0:0:0:0:
96,153,59180,2,0,P|103:107|113:50,1,89.9999976158143,0|0,1:0|0:0,0:0:0:0:
145,219,59380,6,0,P|227:221|355:267,1,179.999995231629,4|2,1:2|0:0,0:0:0:0:
320,248,59680,1,0,0:0:0:0:
253,331,59780,1,0,1:0:0:0:
429,378,59980,2,0,P|444:312|453:270,1,89.9999976158143
326,268,60180,6,0,P|313:188|291:70,1,179.999995231629,2|2,1:2|0:0,0:0:0:0:
440,180,60480,2,0,P|427:100|405:-18,1,179.999995231629,2|0,0:0|0:0,0:0:0:0:
409,2,60780,2,0,P|342:14|290:24,1,89.9999976158143,2|0,0:0|0:0,0:0:0:0:
284,86,60980,6,0,P|192:94|94:53,1,179.999995231629,0|2,1:2|0:0,0:0:0:0:
110,64,61280,1,0,0:0:0:0:
196,10,61380,1,0,1:0:0:0:
59,158,61580,1,2,0:0:0:0:
59,158,61780,6,0,P|69:206|99:367,1,179.999995231629,2|2,1:2|0:0,0:0:0:0:
226,192,62080,2,0,P|251:301|268:377,1,179.999995231629,2|0,0:0|0:0,0:0:0:0:
333,272,62380,1,0,0:0:0:0:
326,265,62480,1,0,0:0:0:0:
182,322,62580,6,0,P|102:301|-21:292,1,179.999995231629,0|2,1:2|0:0,0:0:0:0:
6,292,62880,1,0,0:0:0:0:
73,376,62980,1,0,1:0:0:0:
166,134,63180,1,2,0:0:0:0:
171,125,63280,1,0,0:0:0:0:
241,186,63380,6,0,P|257:274|274:372,1,179.999995231629,2|2,1:2|0:0,0:0:0:0:
152,227,63680,2,0,P|136:139|119:41,1,179.999995231629,2|0,0:0|0:0,0:0:0:0:
288,88,63980,2,0,P|297:40|307:-5,1,89.9999976158143,2|0,0:0|0:0,0:0:0:0:
49,141,64180,1,0,1:2:0:0:
49,141,64380,6,0,P|116:123|195:113,1,135.000001573563,2|2,0:0|0:0,0:0:0:0:
277,209,64780,1,0,0:0:0:0:
277,209,64980,2,0,P|334:208|390:184,1,89.9999976158143,2|2,0:0|0:0,0:0:0:0:
365,197,65280,6,0,P|374:129|386:57,1,134.999996423721,2|2,0:0|0:0,0:0:0:0:
299,16,65780,5,4,1:2:0:0:
299,16,65980,2,0,P|195:23|113:53,1,179.999995231629,2|0,0:3|1:2,0:0:0:0:
48,105,66280,2,0,P|40:58|30:-2,2,89.9999976158143,2|0|0,0:3|0:0|0:0,0:0:0:0:
225,130,66580,6,0,P|212:222|190:317,1,179.999995231629,2|0,1:3|0:0,0:0:0:0:
192,306,66880,2,0,P|91:280|5:259,1,179.999995231629,2|0,0:3|0:0,0:0:0:0:
244,228,67180,2,0,P|304:243|350:253,1,89.9999976158143,2|0,0:3|0:0,0:0:0:0:
484,343,67380,1,4,1:2:0:0:
484,343,67580,6,0,P|386:346|284:372,1,179.999995231629,2|0,0:3|1:2,0:0:0:0:
146,317,67880,2,0,P|204:309|251:303,2,89.9999976158143,2|0|0,0:3|0:0|0:0,0:0:0:0:
20,333,68180,2,0,P|125:346|231:360,1,179.999995231629,2|0,1:3|0:0,0:0:0:0:
198,355,68480,2,0,P|211:254|199:143,1,179.999995231629,2|0,0:3|0:0,0:0:0:0:
82,142,68780,2,0,P|71:96|58:39,1,89.9999976158143,2|0,0:3|0:0,0:0:0:0:
285,125,68980,1,4,1:2:0:0:
285,125,69180,6,0,P|180:145|84:168,1,179.999995231629,2|0,0:3|1:2,0:0:0:0:
35,215,69480,2,0,P|28:257|15:316,2,89.9999976158143,2|0|0,0:3|0:0|0:0,0:0:0:0:
208,369,69780,2,0,P|207:277|179:189,1,179.999995231629,2|0,1:3|0:0,0:0:0:0:
181,193,70080,2,0,P|293:210|367:222,1,179.999995231629,2|0,0:3|0:0,0:0:0:0:
182,285,70380,2,0,P|133:297|76:310,1,89.9999976158143,2|0,0:3|0:0,0:0:0:0:
302,367,70580,1,4,1:2:0:0:
212,27,70980,1,4,1:2:0:0:
212,27,71380,5,4,1:2:0:0:
186,167,71580,1,4,1:2:0:0:
399,141,71780,1,4,1:2:0:0:
399,141,72180,5,4,1:2:0:0:
399,141,72380,2,0,P|414:241|426:332,1,179.999995231629,2|0,0:3|1:2,0:0:0:0:
491,119,72680,2,0,P|504:68|503:16,2,89.9999976158143,2|0|0,0:3|0:0|0:0,0:0:0:0:
324,24,72980,6,0,P|217:45|134:62,1,179.999995231629,2|0,1:3|0:0,0:0:0:0:
147,59,73280,2,0,P|239:77|333:98,1,179.999995231629,2|0,0:3|0:0,0:0:0:0:
71,17,73580,2,0,P|25:28|-20:39,1,89.9999976158143,2|0,0:3|0:0,0:0:0:0:
185,271,73780,1,4,1:2:0:0:
185,271,73980,6,0,P|214:179|219:85,1,179.999995231629,2|0,0:3|1:2,0:0:0:0:
92,252,74280,2,0,P|102:307|112:360,2,89.9999976158143,2|0|0,0:3|0:0|0:0,0:0:0:0:
0,141,74580,2,0,P|106:163|196:179,1,179.999995231629,2|0,1:3|0:0,0:0:0:0:
176,175,74880,2,0,P|49:218|0:234,1,179.999995231629,2|0,0:3|0:0,0:0:0:0:
243,105,75180,2,0,P|287:113|332:120,1,89.9999976158143,2|0,0:3|0:0,0:0:0:0:
233,368,75380,1,4,1:2:0:0:
233,368,75580,6,0,P|337:343|435:349,1,179.999995231629,2|0,0:3|1:2,0:0:0:0:
503,293,75880,2,0,P|495:243|489:202,2,89.9999976158143,2|0|0,0:3|0:0|0:0,0:0:0:0:
314,244,76180,1,2,1:3:0:0:
310,251,76280,2,0,P|301:302|293:350,1,89.9999976158143
117,274,76480,2,0,P|99:178|79:66,1,179.999995231629,2|0,0:3|0:0,0:0:0:0:
26,250,76780,1,2,0:3:0:0:
18,257,76880,1,0,0:0:0:0:
165,380,76980,1,4,1:2:0:0:
165,380,77380,5,4,1:2:0:0:
419,342,77580,1,4,1:2:0:0:
209,290,77780,1,4,1:2:0:0:
238,315,77980,1,2,0:0:0:0:
238,315,78080,1,2,0:0:0:0:
238,315,78180,2,0,P|246:275|253:247,1,44.9999988079071,2|2,0:0|0:0,0:0:0:0:
67,325,78380,2,0,P|76:352|84:379,1,44.9999988079071,2|2,0:0|0:0,0:0:0:0:
321,321,78580,5,4,1:2:0:0:
143,238,78780,1,2,0:0:0:0:
139,227,78880,1,2,0:0:0:0:
401,163,79180,1,2,0:0:0:0:
394,172,79280,1,0,0:0:0:0:
325,217,79380,2,0,P|311:159|297:93,1,67.5000007867814
474,199,79580,2,0,P|485:239|498:288,1,67.5000007867814,2|2,0:0|0:0,0:0:0:0:
389,384,79780,2,0,P|394:291|415:229,1,135.000001573563,0|2,0:0|1:2,0:0:0:0:
405,251,80180,5,4,1:2:0:0:
488,96,80380,1,2,0:0:0:0:
481,81,80480,1,2,0:0:0:0:
220,166,80780,1,2,0:0:0:0:
213,154,80880,1,0,0:0:0:0:
281,222,80980,2,0,P|323:210|359:200,2,67.5000007867814,0|0|2,0:0|0:0|0:0,0:0:0:0:
213,154,81280,2,0,P|139:138|55:133,1,135.000001573563,2|0,0:0|0:0,0:0:0:0:
21,224,81580,1,2,0:2:0:0:
35,261,81680,1,0,0:0:0:0:
120,216,81780,5,4,1:2:0:0:
58,32,81980,1,2,0:0:0:0:
64,21,82080,1,2,0:0:0:0:
323,95,82380,1,2,0:0:0:0:
330,84,82480,1,0,0:0:0:0:
256,144,82580,6,0,P|247:100|240:66,1,67.5000007867814
412,92,82780,2,0,P|403:48|396:14,1,67.5000007867814,2|0,0:0|0:0,0:0:0:0:
191,12,82980,1,0,0:0:0:0:
471,147,83180,1,0,0:0:0:0:
167,258,83380,1,4,1:2:0:0:
133,326,83480,1,0,1:0:0:0:
286,366,83580,1,2,1:2:0:0:
257,292,83680,1,2,1:2:0:0:
257,292,83780,6,0,P|307:282|342:274,1,67.5000007867814,0|0,1:0|0:0,0:0:0:0:
156,227,83980,2,0,P|123:234|89:240,1,67.5000007867814,0|0,1:0|0:0,0:0:0:0:
0,344,84180,2,0,P|82:352|155:382,1,135.000001573563,4|2,1:2|0:0,0:0:0:0:
131,369,84480,1,2,0:0:0:0:
25,182,84580,1,2,0:3:0:0:
139,73,84780,2,0,P|132:33|123:-14,1,67.5000007867814,2|0,0:0|0:0,0:0:0:0:
55,61,84980,5,4,1:2:0:0:
291,125,85180,1,2,0:0:0:0:
297,112,85280,1,2,0:0:0:0:
0,269,85580,1,2,0:0:0:0:
6,257,85680,1,0,0:0:0:0:
79,219,85780,2,0,P|87:259|97:309,1,67.5000007867814
278,252,85980,2,0,P|284:285|289:318,1,67.5000007867814,2|2,0:0|0:0,0:0:0:0:
171,371,86180,2,0,P|178:281|190:194,1,135.000001573563,0|2,0:0|1:2,0:0:0:0:
183,236,86480,1,0,0:0:0:0:
327,178,86580,6,0,P|275:167|177:149,1,135.000001573563,4|2,1:2|0:0,0:0:0:0:
93,112,86880,1,2,0:0:0:0:
246,25,86980,1,4,1:2:0:0:
0,62,87180,1,2,1:2:0:0:
0,62,87380,2,0,P|3:148|27:217,1,135.000001573563,0|2,0:0|0:0,0:0:0:0:
16,194,87680,2,0,P|129:173|175:164,1,135.000001573563,2|0,0:0|0:0,0:0:0:0:
205,101,87980,2,0,P|249:110|285:117,1,67.5000007867814,2|0,0:2|0:0,0:0:0:0:
96,301,88180,5,4,1:2:0:0:
333,372,88380,1,2,0:0:0:0:
321,350,88480,1,2,0:0:0:0:
188,199,88780,1,2,0:0:0:0:
176,177,88880,1,0,0:0:0:0:
268,216,88980,2,0,P|254:265|245:304,1,67.5000007867814,4|0,1:2|0:0,0:0:0:0:
31,247,89180,2,0,P|16:295|5:329,1,67.5000007867814,2|0,1:2|0:0,0:0:0:0:
169,275,89380,6,0,P|179:318|189:361,1,67.5000007867814,0|0,1:0|1:0,0:0:0:0:
399,306,89580,1,0,1:0:0:0:
393,315,89680,1,0,1:0:0:0:
292,375,89780,1,4,1:0:0:0:
259,336,89880,1,0,0:0:0:0:
299,307,89980,1,0,0:0:0:0:
330,346,90080,1,0,0:0:0:0:
292,375,90180,5,4,1:0:0:0:
221,25,90380,1,0,0:0:0:0:
29,252,90580,1,0,1:0:0:0:
29,252,91380,5,4,1:2:0:0:
135,210,91480,1,0,0:0:0:0:
195,315,91580,1,2,0:0:0:0:
189,326,91680,1,2,0:0:0:0:
119,375,91780,2,0,P|103:319|102:264,1,89.9999976158143,0|0,1:0|0:0,0:0:0:0:
282,235,91980,2,0,P|294:288|292:352,1,89.9999976158143,2|0,0:0|0:0,0:0:0:0:
205,183,92180,6,0,L|90:208,2,89.9999976158143,0|0|2,1:2|0:0|0:0,0:0:0:0:
317,273,92480,1,2,0:0:0:0:
321,265,92580,2,0,P|404:273|517:234,1,179.999995231629,0|2,1:0|0:0,0:0:0:0:
370,117,92880,5,0,0:0:0:0:
367,108,92980,2,0,P|377:54|389:3,1,89.9999976158143,0|0,1:2|0:0,0:0:0:0:
227,162,93180,2,0,P|238:214|248:280,1,89.9999976158143,2|0,0:0|0:0,0:0:0:0:
444,183,93380,6,0,P|393:192|339:199,1,89.9999976158143,0|0,1:0|0:0,0:0:0:0:
182,91,93580,2,0,P|125:98|75:103,1,89.9999976158143,2|0,0:0|0:0,0:0:0:0:
266,338,93780,6,0,P|257:256|286:157,1,179.999995231629,0|2,1:2|0:0,0:0:0:0:
422,297,94080,2,0,P|415:337|403:396,2,89.9999976158143,2|0|0,0:0|1:0|0:0,0:0:0:0:
179,215,94380,1,2,0:0:0:0:
174,224,94480,1,0,0:0:0:0:
246,279,94580,6,0,P|303:264|346:251,1,89.9999976158143,0|0,1:2|0:0,0:0:0:0:
77,186,94780,2,0,P|127:171|177:154,1,89.9999976158143,2|2,0:0|0:0,0:0:0:0:
9,319,94980,1,0,1:0:0:0:
121,278,95080,1,0,0:0:0:0:
174,376,95180,1,2,0:0:0:0:
181,370,95280,1,0,0:0:0:0:
92,351,95380,6,0,P|81:298|79:251,1,89.9999976158143,0|0,1:2|0:0,0:0:0:0:
303,187,95580,2,0,P|314:240|316:287,1,89.9999976158143,2|2,0:0|0:0,0:0:0:0:
253,335,95780,2,0,P|308:346|372:360,1,89.9999976158143,0|0,1:0|0:0,0:0:0:0:
120,199,95980,2,0,P|175:210|239:224,1,89.9999976158143,2|0,0:0|0:0,0:0:0:0:
16,160,96180,5,2,1:2:0:0:
129,98,96280,1,2,0:0:0:0:
18,78,96380,1,2,0:0:0:0:
97,133,96480,1,2,0:0:0:0:
82,117,96580,2,0,P|88:68|107:12,1,89.9999976158143,0|0,1:0|0:0,0:0:0:0:
268,128,96780,2,0,P|262:177|243:233,1,89.9999976158143,2|0,0:0|0:0,0:0:0:0:
187,274,96980,6,0,P|175:223|163:172,1,89.9999976158143,0|0,1:2|0:0,0:0:0:0:
207,104,97180,2,0,P|258:92|309:80,1,89.9999976158143,2|2,0:0|0:0,0:0:0:0:
509,232,97380,2,0,P|410:230|313:162,1,179.999995231629,2|2,1:3|0:0,0:0:0:0:
340,191,97680,1,0,0:0:0:0:
463,97,97780,5,4,1:2:0:0:
498,14,97880,1,0,0:0:0:0:
358,39,97980,1,2,0:0:0:0:
353,32,98080,1,2,0:0:0:0:
415,167,98180,2,0,P|405:202|387:279,1,89.9999976158143,0|0,1:0|0:0,0:0:0:0:
193,193,98380,2,0,P|203:149|215:105,1,89.9999976158143,2|0,0:0|0:0,0:0:0:0:
356,342,98580,6,0,P|404:334|467:329,2,89.9999976158143,0|0|2,1:2|0:0|0:0,0:0:0:0:
256,269,98880,1,2,0:0:0:0:
250,275,98980,2,0,P|154:282|49:215,1,179.999995231629,0|2,1:0|0:0,0:0:0:0:
318,169,99280,1,0,0:0:0:0:
314,177,99380,2,0,P|326:238|336:287,1,89.9999976158143,0|0,1:2|0:0,0:0:0:0:
138,100,99580,2,0,P|150:161|160:210,1,89.9999976158143,2|0,0:0|0:0,0:0:0:0:
6,334,99780,6,0,P|82:355|141:366,1,89.9999976158143,0|0,1:0|0:0,0:0:0:0:
276,322,99980,2,0,P|232:311|189:298,1,89.9999976158143,2|0,0:0|0:0,0:0:0:0:
402,367,100180,6,0,P|415:260|395:165,1,179.999995231629,0|2,1:2|0:0,0:0:0:0:
239,218,100480,2,0,P|247:181|259:120,2,89.9999976158143,2|0|0,0:0|1:0|0:0,0:0:0:0:
326,269,100780,1,2,0:0:0:0:
332,261,100880,1,0,0:0:0:0:
507,132,100980,6,0,P|448:147|401:160,1,89.9999976158143,0|0,1:2|0:0,0:0:0:0:
280,40,101180,2,0,P|334:27|387:13,1,89.9999976158143,2|2,0:0|0:0,0:0:0:0:
220,130,101380,1,0,1:0:0:0:
110,97,101480,1,0,0:0:0:0:
155,12,101580,1,2,0:0:0:0:
165,17,101680,1,0,0:0:0:0:
300,114,101780,6,0,P|312:145|316:212,1,89.9999976158143,0|0,1:2|0:0,0:0:0:0:
112,261,101980,2,0,P|100:230|96:163,1,89.9999976158143,2|2,0:0|0:0,0:0:0:0:
157,126,102180,2,0,P|110:115|59:102,1,89.9999976158143,0|0,1:0|0:0,0:0:0:0:
296,271,102380,2,0,P|249:260|198:247,1,89.9999976158143,2|0,0:0|0:0,0:0:0:0:
454,144,102580,5,2,1:2:0:0:
381,185,102680,1,2,0:0:0:0:
432,253,102780,1,2,0:0:0:0:
503,212,102880,1,2,0:0:0:0:
503,212,102980,2,0,P|438:192|312:191,2,179.999995231629,0|2|2,0:0|0:0|0:0,0:0:0:0:
422,325,103480,1,2,0:0:0:0:
417,336,103580,1,2,0:0:0:0:
255,164,103780,1,2,0:0:0:0:
182,196,103980,1,2,0:0:0:0:
21,181,104180,1,4,1:2:0:0:
21,181,104380,6,0,P|30:135|43:65,2,89.9999976158143,2|2|0,0:0|0:0|1:2,0:0:0:0:
218,94,104680,2,0,P|228:32|239:-26,1,89.9999976158143,2|0,0:0|0:0,0:0:0:0:
110,159,104880,1,0,0:0:0:0:
288,176,104980,2,0,P|302:273|280:368,1,179.999995231629,0|2,1:2|0:0,0:0:0:0:
144,377,105280,2,0,P|161:278|177:187,1,179.999995231629,2|0,0:0|0:0,0:0:0:0:
78,301,105580,2,0,P|34:292|-22:278,1,89.9999976158143,2|0,0:0|0:0,0:0:0:0:
255,260,105780,1,4,1:2:0:0:
255,260,105980,6,0,P|352:292|438:283,1,179.999995231629,2|0,0:0|1:2,0:0:0:0:
504,228,106280,2,0,P|495:190|480:132,1,89.9999976158143,2|0,0:0|0:0,0:0:0:0:
327,196,106480,1,0,0:0:0:0:
357,334,106580,2,0,P|257:358|149:379,1,179.999995231629,0|2,1:2|0:0,0:0:0:0:
0,241,106880,2,0,P|113:266|199:282,1,179.999995231629,2|0,0:0|0:0,0:0:0:0:
40,345,107180,1,2,0:0:0:0:
40,345,107280,1,0,0:0:0:0:
248,223,107380,1,4,1:2:0:0:
248,223,107580,6,0,P|247:171|237:126,2,89.9999976158143,2|2|0,0:0|0:0|1:2,0:0:0:0:
110,244,107880,2,0,P|111:290|121:346,1,89.9999976158143,2|0,0:0|0:0,0:0:0:0:
280,375,108080,1,0,0:0:0:0:
223,309,108180,2,0,P|310:324|426:349,1,179.999995231629,0|2,1:2|0:0,0:0:0:0:
128,157,108480,2,0,P|215:172|331:197,1,179.999995231629,2|0,0:0|0:0,0:0:0:0:
18,253,108780,2,0,P|87:238|118:233,1,89.9999976158143,2|0,0:0|0:0,0:0:0:0:
378,128,108980,6,0,P|284:144|182:160,1,179.999995231629,4|2,1:2|0:0,0:0:0:0:
408,220,109280,1,2,0:0:0:0:
408,220,109380,2,0,P|463:241|509:237,2,89.9999976158143,4|2|0,1:2|0:0|0:0,0:0:0:0:
478,126,109680,1,0,0:0:0:0:
473,138,109780,1,0,1:2:0:0:
318,174,109880,1,2,0:3:0:0:
301,135,109980,1,2,0:3:0:0:
284,93,110080,1,2,0:3:0:0:
195,205,110180,6,0,P|183:252|168:317,1,89.9999976158143,2|0,1:3|0:0,0:0:0:0:
378,117,110380,2,0,P|388:73|399:29,1,89.9999976158143,2|0,0:0|0:0,0:0:0:0:
319,365,110580,1,4,1:2:0:0:
319,365,110780,2,0,P|322:268|288:184,1,179.999995231629,2|0,0:0|1:2,0:0:0:0:
238,326,111080,2,0,P|175:336|129:343,2,89.9999976158143,2|0|0,0:0|0:0|0:0,0:0:0:0:
512,174,111380,6,0,P|412:151|321:124,1,179.999995231629,0|2,1:2|0:0,0:0:0:0:
120,226,111680,2,0,P|231:225|291:186,1,179.999995231629,2|0,0:0|0:0,0:0:0:0:
87,152,111980,2,0,P|29:165|-16:175,1,89.9999976158143,2|0,0:0|0:0,0:0:0:0:
277,5,112180,1,4,1:2:0:0:
277,5,112380,6,0,P|202:22|166:32,2,89.9999976158143,2|2|0,0:0|0:0|1:2,0:0:0:0:
356,133,112680,2,0,P|368:88|363:37,1,89.9999976158143,2|0,0:0|0:0,0:0:0:0:
238,156,112880,1,0,0:0:0:0:
424,208,112980,2,0,P|408:291|389:394,1,179.999995231629,0|2,1:2|0:0,0:0:0:0:
283,93,113280,2,0,P|267:176|248:279,1,179.999995231629,2|0,0:0|0:0,0:0:0:0:
342,228,113580,1,2,0:0:0:0:
340,218,113680,1,0,0:0:0:0:
117,268,113780,1,4,1:2:0:0:
117,268,113980,6,0,P|175:270|310:317,1,179.999995231629,2|0,0:0|1:2,0:0:0:0:
89,354,114280,2,0,P|46:364|-10:376,2,89.9999976158143,2|0|0,0:0|0:0|0:0,0:0:0:0:
311,376,114580,6,0,P|295:268|283:159,1,179.999995231629,2|2,1:3|0:0,0:0:0:0:
24,242,114880,1,2,0:0:0:0:
18,237,114980,2,0,P|14:177|22:135,1,89.9999976158143,2|0,1:3|0:0,0:0:0:0:
247,66,115180,2,0,P|308:79|361:90,1,89.9999976158143,2|0,0:3|0:0,0:0:0:0:
136,159,115380,6,0,P|57:140|-4:125,1,135.000001573563,4|0,1:2|0:0,0:0:0:0:
83,68,115680,1,0,0:0:0:0:
78,57,115780,1,4,0:0:0:0:
192,251,115980,1,0,0:0:0:0:
0,369,116180,1,0,1:0:0:0:
111,266,116380,5,0,1:0:0:0:
161,341,116480,1,0,1:0:0:0:
376,298,116680,1,0,1:0:0:0:
332,381,116780,1,0,1:0:0:0:
332,381,116980,5,4,1:2:0:0:
256,192,117080,12,0,118380,0:0:0:0:
250,179,118580,6,0,P|181:163|59:146,1,179.999995231629,4|2,1:2|0:0,0:0:0:0:
73,147,118880,1,0,0:0:0:0:
0,212,118980,1,0,1:0:0:0:
174,338,119180,2,0,P|181:297|189:238,1,89.9999976158143
89,24,119380,6,0,P|104:144|135:230,1,179.999995231629,2|2,1:2|0:0,0:0:0:0:
321,142,119680,2,0,P|345:228|354:317,1,179.999995231629,2|0,0:0|0:0,0:0:0:0:
279,384,119980,2,0,P|269:323|262:277,1,89.9999976158143,2|0,0:0|0:0,0:0:0:0:
264,295,120180,6,0,P|396:321|469:336,1,179.999995231629,0|2,1:2|0:0,0:0:0:0:
441,330,120480,1,0,0:0:0:0:
493,254,120580,1,0,1:0:0:0:
194,324,120780,1,2,0:0:0:0:
184,317,120880,1,0,0:0:0:0:
351,357,120980,6,0,P|366:271|361:151,1,179.999995231629,2|2,1:2|0:0,0:0:0:0:
138,252,121280,2,0,P|138:149|155:45,1,179.999995231629,2|0,0:0|0:0,0:0:0:0:
310,0,121580,1,0,0:0:0:0:
318,8,121680,1,0,0:0:0:0:
232,98,121780,6,0,P|241:145|272:290,1,179.999995231629,0|2,1:2|0:0,0:0:0:0:
268,274,122080,1,0,0:0:0:0:
168,183,122180,1,0,1:0:0:0:
418,209,122380,2,0,P|474:194|518:183,1,89.9999976158143,2|0,0:0|0:0,0:0:0:0:
333,155,122580,2,0,P|232:181|135:205,1,179.999995231629,2|2,1:2|0:0,0:0:0:0:
0,328,122880,2,0,P|97:367|188:347,1,179.999995231629,2|0,0:0|0:0,0:0:0:0:
266,372,123180,2,0,P|252:308|243:265,1,89.9999976158143,2|0,0:0|0:0,0:0:0:0:
246,284,123380,6,0,P|360:309|465:327,1,179.999995231629,0|2,1:2|0:0,0:0:0:0:
423,320,123680,1,0,0:0:0:0:
499,262,123780,1,0,1:0:0:0:
327,63,123980,1,2,0:0:0:0:
335,73,124080,1,0,0:0:0:0:
402,178,124180,6,0,P|420:84|425:-19,1,179.999995231629,2|2,1:2|0:0,0:0:0:0:
198,125,124480,2,0,P|180:219|175:322,1,179.999995231629,2|0,0:0|0:0,0:0:0:0:
284,365,124780,2,0,P|272:309|261:254,1,89.9999976158143,0|0,1:0|0:0,0:0:0:0:
265,276,124980,6,0,P|358:259|456:241,1,179.999995231629,4|2,1:2|0:0,0:0:0:0:
197,345,125280,1,0,0:0:0:0:
111,270,125380,1,0,1:0:0:0:
223,171,125580,2,0,P|168:155|122:140,1,89.9999976158143
186,352,125780,6,0,P|75:349|13:313,1,179.999995231629,2|2,1:2|0:0,0:0:0:0:
371,222,126080,2,0,P|252:249|168:265,1,179.999995231629,2|0,0:0|0:0,0:0:0:0:
418,384,126380,2,0,P|407:329|396:275,1,89.9999976158143,2|0,0:0|0:0,0:0:0:0:
228,52,126580,6,0,P|248:156|260:241,1,179.999995231629,0|2,1:2|0:0,0:0:0:0:
258,229,126880,1,0,0:0:0:0:
328,136,126980,1,0,1:0:0:0:
14,81,127180,1,2,0:0:0:0:
21,92,127280,1,0,0:0:0:0:
68,177,127380,6,0,P|115:155|171:134,1,89.9999976158143,2|0,1:2|0:0,0:0:0:0:
81,13,127580,1,2,0:0:0:0:
29,103,127680,2,0,P|139:117|262:160,1,179.999995231629,2|0,0:0|0:0,0:0:0:0:
341,44,127980,2,0,P|297:54|254:66,1,89.9999976158143
191,212,128180,6,0,P|168:108|152:25,1,179.999995231629,0|2,1:2|0:0,0:0:0:0:
324,209,128480,1,0,0:0:0:0:
233,295,128580,1,0,1:0:0:0:
415,298,128780,2,0,P|402:347|384:405,1,89.9999976158143,2|0,0:0|0:0,0:0:0:0:
503,247,128980,6,0,P|414:287|320:282,1,179.999995231629,2|2,1:2|0:0,0:0:0:0:
157,234,129280,2,0,P|267:212|345:192,1,179.999995231629,2|0,0:0|0:0,0:0:0:0:
4,338,129580,2,0,P|77:358|120:367,1,89.9999976158143,2|0,0:0|0:0,0:0:0:0:
255,310,129780,1,0,1:2:0:0:
255,310,129980,2,0,P|251:230|233:164,1,135.000001573563,2|2,0:0|0:0,0:0:0:0:
107,112,130380,1,0,0:0:0:0:
107,112,130580,2,0,P|118:56|127:12,1,89.9999976158143,2|2,0:0|0:0,0:0:0:0:
124,23,130880,6,0,P|204:39|300:58,1,134.999996423721,2|2,0:0|0:0,0:0:0:0:
383,18,131380,5,4,1:2:0:0:
383,18,131580,2,0,P|372:124|336:253,1,179.999995231629,2|0,0:3|1:2,0:0:0:0:
270,244,131880,2,0,P|260:188|252:147,2,89.9999976158143,2|0|0,0:3|0:0|0:0,0:0:0:0:
474,193,132180,6,0,P|491:293|507:400,1,179.999995231629,2|0,1:3|0:0,0:0:0:0:
502,370,132480,2,0,P|408:372|312:333,1,179.999995231629,2|0,0:3|0:0,0:0:0:0:
183,286,132780,2,0,P|231:274|277:261,1,89.9999976158143,2|0,0:3|0:0,0:0:0:0:
27,366,132980,1,4,1:2:0:0:
27,366,133180,6,0,P|84:378|134:384,2,89.9999976158143,2|0|0,0:3|0:0|1:2,0:0:0:0:
227,363,133480,2,0,P|232:255|209:152,1,179.999995231629,2|0,0:3|0:0,0:0:0:0:
33,95,133780,2,0,P|55:204|75:306,1,179.999995231629,2|0,1:3|0:0,0:0:0:0:
68,271,134080,2,0,P|166:251|296:225,1,179.999995231629,2|0,0:3|0:0,0:0:0:0:
280,17,134380,2,0,P|235:8|180:-3,1,89.9999976158143,2|0,0:3|0:0,0:0:0:0:
334,325,134580,1,4,1:2:0:0:
334,325,134780,6,0,P|348:248|343:132,1,179.999995231629,2|0,0:3|1:2,0:0:0:0:
211,300,135080,2,0,P|219:340|227:400,2,89.9999976158143,2|0|0,0:3|0:0|0:0,0:0:0:0:
0,180,135380,6,0,P|106:203|190:223,1,179.999995231629,2|0,1:3|0:0,0:0:0:0:
175,219,135680,2,0,P|281:192|373:166,1,179.999995231629,2|0,0:3|0:0,0:0:0:0:
506,247,135980,2,0,P|439:226|378:204,1,89.9999976158143,2|0,0:3|0:0,0:0:0:0:
93,276,136180,1,4,1:2:0:0:
285,0,136580,1,4,1:2:0:0:
285,0,136980,1,4,1:2:0:0:
249,153,137180,1,4,1:2:0:0:
36,91,137380,1,4,1:2:0:0:
36,91,137780,5,4,1:2:0:0:
36,91,137980,2,0,P|128:70|228:46,1,179.999995231629,2|0,0:3|1:2,0:0:0:0:
210,236,138280,2,0,P|268:251|312:263,2,89.9999976158143,2|0|0,0:3|0:0|0:0,0:0:0:0:
512,150,138580,6,0,P|422:184|321:173,1,179.999995231629,2|0,1:3|0:0,0:0:0:0:
339,178,138880,2,0,P|351:96|367:-36,1,179.999995231629,2|0,0:3|0:0,0:0:0:0:
199,144,139180,1,2,0:3:0:0:
206,153,139280,1,0,0:0:0:0:
409,267,139380,1,4,1:2:0:0:
409,267,139580,6,0,P|360:275|294:287,2,89.9999976158143,2|0|0,0:3|0:0|1:2,0:0:0:0:
211,231,139880,2,0,P|144:251|26:244,1,179.999995231629,2|0,0:3|0:0,0:0:0:0:
337,103,140180,2,0,P|428:125|535:146,1,179.999995231629,2|0,1:3|0:0,0:0:0:0:
512,142,140480,2,0,P|518:243|495:332,1,179.999995231629,2|0,0:3|0:0,0:0:0:0:
287,370,140780,1,2,0:3:0:0:
280,362,140880,1,0,0:0:0:0:
360,287,140980,1,4,1:2:0:0:
360,287,141180,6,0,P|344:183|331:96,1,179.999995231629,2|0,0:3|1:2,0:0:0:0:
183,262,141480,2,0,P|189:318|195:370,2,89.9999976158143,2|0|0,0:3|0:0|0:0,0:0:0:0:
18,269,141780,5,2,1:3:0:0:
17,262,141880,2,0,P|19:201|51:148,1,89.9999976158143
30,175,142080,2,0,P|146:200|227:216,1,179.999995231629,2|0,0:3|0:0,0:0:0:0:
93,371,142380,1,2,0:3:0:0:
87,361,142480,1,0,0:0:0:0:
146,93,142580,1,4,1:2:0:0:
498,182,142980,1,4,1:2:0:0:
261,275,143180,1,4,1:2:0:0:
398,371,143380,1,4,1:2:0:0:
369,344,143580,5,2,0:0:0:0:
369,344,143680,1,2,0:0:0:0:
369,344,143780,2,0,P|376:308|384:279,1,44.9999988079071,2|2,0:0|0:0,0:0:0:0:
494,302,143980,2,0,P|501:266|509:237,1,44.9999988079071,2|2,0:0|0:0,0:0:0:0:
238,175,144180,5,4,1:2:0:0:
417,271,144380,1,2,0:0:0:0:
425,257,144480,1,2,0:0:0:0:
105,338,144780,1,2,0:0:0:0:
116,350,144880,1,0,0:0:0:0:
63,267,144980,6,0,P|28:277|-12:285,1,67.5000007867814
214,374,145180,2,0,P|219:340|223:300,1,67.5000007867814,2|2,0:0|0:0,0:0:0:0:
124,87,145380,2,0,P|129:171|146:268,1,135.000001573563,0|2,0:0|1:2,0:0:0:0:
136,221,145780,5,4,1:2:0:0:
364,19,145980,1,2,0:0:0:0:
354,27,146080,1,2,0:0:0:0:
26,150,146380,1,2,0:0:0:0:
16,160,146480,1,0,0:0:0:0:
63,32,146580,2,0,P|144:47|209:56,1,135.000001573563,0|2,0:0|0:0,0:0:0:0:
268,186,146880,2,0,P|314:175|348:168,2,67.5000007867814,2|0|0,0:0|0:0|0:0,0:0:0:0:
185,128,147180,1,2,0:2:0:0:
165,158,147280,1,0,0:0:0:0:
280,87,147380,5,4,1:2:0:0:
243,348,147580,1,2,0:0:0:0:
255,368,147680,1,2,0:0:0:0:
228,29,147980,1,2,0:0:0:0:
218,11,148080,1,0,0:0:0:0:
176,117,148180,6,0,P|134:107|84:96,1,67.5000007867814
372,51,148380,2,0,P|330:41|280:30,1,67.5000007867814,2|0,0:0|0:0,0:0:0:0:
167,202,148580,1,0,0:0:0:0:
501,115,148780,1,0,0:0:0:0:
332,297,148980,1,4,1:2:0:0:
376,224,149080,1,0,1:0:0:0:
231,154,149180,1,2,1:2:0:0:
256,254,149280,1,2,1:2:0:0:
256,254,149380,6,0,P|247:297|240:345,1,67.5000007867814,0|0,1:0|0:0,0:0:0:0:
455,260,149580,2,0,P|464:217|471:169,1,67.5000007867814,0|0,1:0|0:0,0:0:0:0:
375,376,149780,2,0,P|368:288|348:223,1,135.000001573563,4|2,1:2|0:0,0:0:0:0:
356,243,150080,1,2,0:0:0:0:
182,182,150180,1,2,0:3:0:0:
350,11,150380,2,0,P|342:56|334:92,1,67.5000007867814,2|0,0:0|0:0,0:0:0:0:
260,33,150580,5,4,1:2:0:0:
495,124,150780,1,2,0:0:0:0:
488,136,150880,1,2,0:0:0:0:
21,213,151180,1,2,0:0:0:0:
27,200,151280,1,0,0:0:0:0:
98,149,151380,6,0,P|107:185|117:228,1,67.5000007867814
36,366,151580,2,0,P|24:322|22:294,1,67.5000007867814,2|2,0:0|0:0,0:0:0:0:
177,273,151780,2,0,P|246:285|327:299,1,135.000001573563,0|2,0:0|1:2,0:0:0:0:
310,296,152080,1,0,0:0:0:0:
173,188,152180,2,0,P|97:215|22:212,1,135.000001573563,4|2,1:2|0:0,0:0:0:0:
1,129,152480,1,2,0:0:0:0:
114,68,152580,1,4,1:2:0:0:
44,362,152780,1,2,1:2:0:0:
44,362,152980,6,0,P|31:277|29:186,1,135.000001573563,0|2,0:0|0:0,0:0:0:0:
28,228,153280,2,0,P|114:214|174:205,1,135.000001573563,2|0,0:0|0:0,0:0:0:0:
261,322,153580,2,0,P|202:308|164:300,1,67.5000007867814,2|0,0:2|0:0,0:0:0:0:
296,114,153780,5,4,1:2:0:0:
129,363,153980,1,2,0:0:0:0:
114,343,154080,1,2,0:0:0:0:
490,293,154380,1,2,0:0:0:0:
476,277,154480,1,0,0:0:0:0:
381,364,154580,6,0,P|395:314|405:271,1,67.5000007867814,4|0,1:2|0:0,0:0:0:0:
194,241,154780,2,0,P|208:191|218:148,1,67.5000007867814,2|0,1:2|0:0,0:0:0:0:
281,265,154980,6,0,P|291:308|300:346,1,67.5000007867814,0|0,1:0|1:0,0:0:0:0:
39,285,155180,1,0,1:0:0:0:
25,303,155280,1,0,1:0:0:0:
130,373,155380,1,4,1:0:0:0:
158,331,155480,1,0,0:0:0:0:
115,307,155580,1,0,0:0:0:0:
86,345,155680,1,0,0:0:0:0:
130,373,155780,5,4,1:0:0:0:
241,10,155980,1,0,0:0:0:0:
361,274,156180,1,0,1:0:0:0:
361,274,156980,5,4,1:2:0:0:
269,219,157080,1,0,0:0:0:0:
212,312,157180,1,2,0:0:0:0:
219,322,157280,1,2,0:0:0:0:
312,378,157380,2,0,P|319:328|321:279,1,89.9999976158143,0|0,1:0|0:0,0:0:0:0:
123,224,157580,2,0,P|116:274|114:323,1,89.9999976158143,2|0,0:0|0:0,0:0:0:0:
383,218,157780,6,0,P|447:203|493:194,2,89.9999976158143,0|0|2,1:2|0:0|0:0,0:0:0:0:
196,97,158080,1,2,0:0:0:0:
190,103,158180,2,0,P|282:141|381:117,1,179.999995231629,0|2,1:0|0:0,0:0:0:0:
33,244,158480,5,0,0:0:0:0:
27,249,158580,2,0,P|39:302|48:357,1,89.9999976158143,0|0,1:2|0:0,0:0:0:0:
277,249,158780,2,0,P|269:204|258:160,1,89.9999976158143,2|0,0:0|0:0,0:0:0:0:
130,353,158980,6,0,P|192:366|239:377,1,89.9999976158143,0|0,1:0|0:0,0:0:0:0:
174,18,159180,2,0,P|130:8|86:0,1,89.9999976158143,2|0,0:0|0:0,0:0:0:0:
4,265,159380,2,0,P|109:270|184:239,1,179.999995231629,0|2,1:2|0:0,0:0:0:0:
293,283,159680,2,0,P|305:336|315:388,2,89.9999976158143,2|0|0,0:0|1:0|0:0,0:0:0:0:
103,185,159980,1,2,0:0:0:0:
95,176,160080,1,0,0:0:0:0:
210,121,160180,6,0,P|194:193|181:240,1,89.9999976158143,0|0,1:2|0:0,0:0:0:0:
491,209,160380,2,0,P|475:281|462:328,1,89.9999976158143,2|2,0:0|0:0,0:0:0:0:
234,288,160580,5,0,1:0:0:0:
341,343,160680,1,0,0:0:0:0:
397,227,160780,1,2,0:0:0:0:
387,216,160880,1,0,0:0:0:0:
304,256,160980,6,0,P|252:242|199:218,1,89.9999976158143,0|0,1:2|0:0,0:0:0:0:
420,112,161180,2,0,P|470:101|513:90,1,89.9999976158143,2|2,0:0|0:0,0:0:0:0:
290,3,161380,2,0,P|278:60|280:126,1,89.9999976158143,0|0,1:0|0:0,0:0:0:0:
422,281,161580,2,0,P|434:224|432:158,1,89.9999976158143,2|0,0:0|0:0,0:0:0:0:
209,327,161780,5,2,1:2:0:0:
267,237,161880,1,2,0:0:0:0:
342,311,161980,1,2,0:0:0:0:
284,368,162080,1,2,0:0:0:0:
265,344,162180,2,0,P|255:291|248:250,1,89.9999976158143,0|0,1:0|0:0,0:0:0:0:
501,274,162380,2,0,P|510:332|520:380,1,89.9999976158143,2|0,0:0|0:0,0:0:0:0:
365,144,162580,6,0,P|322:133|265:118,1,89.9999976158143,0|0,1:2|0:0,0:0:0:0:
224,178,162780,2,0,P|214:215|213:278,1,89.9999976158143,2|2,0:0|0:0,0:0:0:0:
402,384,162980,2,0,P|416:272|428:176,1,179.999995231629,2|2,1:3|0:0,0:0:0:0:
424,205,163280,1,0,0:0:0:0:
277,243,163380,5,4,1:2:0:0:
216,171,163480,1,0,0:0:0:0:
343,203,163580,1,2,0:0:0:0:
352,214,163680,1,2,0:0:0:0:
209,335,163780,2,0,P|262:321|320:308,1,89.9999976158143,0|0,1:0|0:0,0:0:0:0:
37,201,163980,2,0,P|90:187|148:174,1,89.9999976158143,2|0,0:0|0:0,0:0:0:0:
122,379,164180,6,0,P|134:330|136:275,2,89.9999976158143,0|0|2,1:2|0:0|0:0,0:0:0:0:
375,257,164480,1,2,0:0:0:0:
381,253,164580,2,0,P|274:232|192:215,1,179.999995231629,0|2,1:0|0:0,0:0:0:0:
204,217,164880,1,0,0:0:0:0:
34,164,164980,6,0,P|45:216|55:273,1,89.9999976158143,0|0,1:2|0:0,0:0:0:0:
246,57,165180,2,0,P|257:109|267:166,1,89.9999976158143,2|0,0:0|0:0,0:0:0:0:
419,171,165380,6,0,P|477:182|524:162,1,89.9999976158143,0|0,1:0|0:0,0:0:0:0:
178,100,165580,2,0,P|127:101|80:121,1,89.9999976158143,2|0,0:0|0:0,0:0:0:0:
325,263,165780,6,0,P|344:147|357:60,1,179.999995231629,0|2,1:2|0:0,0:0:0:0:
170,91,166080,2,0,P|178:43|193:-30,2,89.9999976158143,2|0|0,0:0|1:0|0:0,0:0:0:0:
276,59,166380,1,2,0:0:0:0:
271,48,166480,1,0,0:0:0:0:
29,102,166580,6,0,P|25:161|45:208,1,89.9999976158143,0|0,1:2|0:0,0:0:0:0:
248,247,166780,2,0,P|252:188|232:141,1,89.9999976158143,2|2,0:0|0:0,0:0:0:0:
126,220,166980,1,0,1:0:0:0:
48,333,167080,1,0,0:0:0:0:
199,379,167180,1,2,0:0:0:0:
210,360,167280,1,0,0:0:0:0:
136,302,167380,6,0,P|198:285|236:275,1,89.9999976158143,0|0,1:2|0:0,0:0:0:0:
495,340,167580,2,0,P|452:352|409:364,1,89.9999976158143,2|2,0:0|0:0,0:0:0:0:
351,0,167780,6,0,P|338:58|336:121,1,89.9999976158143,0|0,1:0|0:0,0:0:0:0:
467,267,167980,2,0,P|479:225|484:169,1,89.9999976158143,2|0,0:0|0:0,0:0:0:0:
313,373,168180,5,2,1:2:0:0:
222,325,168280,1,2,0:0:0:0:
276,252,168380,1,2,0:0:0:0:
357,302,168480,1,2,0:0:0:0:
307,367,168580,2,0,P|283:265|281:180,2,179.999995231629,0|2|2,0:0|0:0|0:0,0:0:0:0:
204,308,169080,5,2,0:0:0:0:
196,300,169180,1,2,0:0:0:0:
113,361,169380,1,2,0:0:0:0:
12,192,169580,1,2,0:0:0:0:
512,120,169780,1,6,1:2:0:0:
426,151,170080,1,2,0:0:0:0:
364,99,170380,1,2,0:0:0:0:
275,206,170780,6,0,P|214:218|158:231,1,89.9999976158143,2|0,0:0|0:0,0:0:0:0:
61,308,171080,1,2,0:0:0:0:
61,308,171180,2,0,P|27:295|0:291,1,44.9999988079071,0|0,1:0|0:0,0:0:0:0:
224,373,171380,6,0,P|230:342|238:297,1,44.9999988079071,2|0,1:2|0:0,0:0:0:0:
443,284,171580,1,2,0:0:0:0:
435,276,171680,1,0,0:0:0:0:
367,324,171780,1,2,0:0:0:0:
500,356,171980,1,2,0:0:0:0:
500,356,172180,2,0,P|482:284|465:228,1,89.9999976158143,2|0,0:0|0:0,0:0:0:0:
486,257,172480,2,0,P|423:275|329:264,1,134.999996423721,2|0,0:0|0:0,0:0:0:0:
224,332,172980,6,0,P|167:318|106:302,1,89.9999976158143,6|0,1:2|0:0,0:0:0:0:
14,223,173280,2,0,P|49:207|123:210,1,89.9999976158143,2|0,0:0|0:0,0:0:0:0:
19,378,173580,1,2,0:0:0:0:
19,378,173980,2,0,P|36:311|51:262,1,89.9999976158143,2|0,0:0|0:0,0:0:0:0:
205,217,174280,1,2,0:0:0:0:
205,217,174380,2,0,P|196:185|190:158,1,44.9999988079071
19,69,174580,5,4,1:2:0:0:
86,124,174680,1,0,1:2:0:0:
144,65,174780,1,2,1:2:0:0:
80,10,174880,1,2,1:2:0:0:
13,78,174980,1,2,1:2:0:0:
250,25,175180,1,2,1:2:0:0:
414,136,175380,2,0,P|403:194|389:249,1,89.9999976158143,0|0,1:0|0:0,0:0:0:0:
269,171,175680,1,0,0:0:0:0:
269,171,175780,2,0,P|211:166|136:136,1,134.999996423721,2|0,0:3|0:0,0:0:0:0:
16,290,176180,5,6,1:2:0:0:
121,250,176480,1,2,0:2:0:0:
199,339,176780,1,2,0:2:0:0:
199,339,177180,2,0,P|213:274|224:218,1,89.9999976158143,2|0,0:0|0:0,0:0:0:0:
376,324,177480,1,2,0:0:0:0:
376,324,177580,2,0,P|385:353|390:390,1,44.9999988079071
501,244,177780,6,0,P|453:235|388:219,1,89.9999976158143,6|0,1:2|0:0,0:0:0:0:
412,225,178080,1,2,0:0:0:0:
292,285,178180,1,0,1:0:0:0:
431,93,178380,1,0,1:0:0:0:
204,1,178580,2,0,P|204:59|223:129,1,89.9999976158143,2|0,0:0|0:0,0:0:0:0:
299,68,178880,2,0,P|287:139|273:229,1,134.999996423721,2|0,0:0|0:0,0:0:0:0:
277,201,179380,6,0,P|220:190|162:178,1,89.9999976158143,6|0,1:2|0:0,0:0:0:0:
333,315,179680,2,0,P|385:317|423:303,1,89.9999976158143,2|0,0:0|0:0,0:0:0:0:
497,172,179980,1,2,0:0:0:0:
371,234,180180,1,4,1:2:0:0:
284,5,180380,1,0,1:0:0:0:
216,179,180580,1,0,1:0:0:0:
0,97,180780,1,0,1:0:0:0:
113,327,180980,5,0,1:2:0:0:
157,305,181080,1,0,0:0:0:0:
184,349,181180,1,0,0:0:0:0:
140,368,181280,1,0,0:0:0:0:
107,329,181380,5,4,1:2:0:0:
242,19,181580,1,0,0:0:0:0:
363,267,181780,1,4,1:2:0:0:
363,267,182580,6,0,P|312:252|158:222,1,179.999995231629,4|2,1:2|0:0,0:0:0:0:
187,226,182880,1,2,0:0:0:0:
51,355,182980,6,0,P|38:309|26:256,1,89.9999976158143,0|0,1:0|0:0,0:0:0:0:
113,83,183180,1,2,0:0:0:0:
120,89,183280,1,0,0:0:0:0:
90,175,183380,6,0,P|139:163|200:145,1,89.9999976158143,0|0,1:2|0:0,0:0:0:0:
254,229,183580,1,2,0:0:0:0:
285,262,183680,1,2,0:0:0:0:
393,201,183780,2,0,P|404:245|403:290,2,89.9999976158143,0|0|2,1:0|0:0|0:0,0:0:0:0:
155,350,184080,5,0,0:0:0:0:
152,342,184180,2,0,P|168:232|182:144,1,179.999995231629,0|2,1:2|0:0,0:0:0:0:
320,231,184480,2,0,P|336:121|350:33,1,179.999995231629
108,7,184780,1,2,0:0:0:0:
113,15,184880,1,0,0:0:0:0:
91,105,184980,6,0,P|40:98|-5:74,1,89.9999976158143,0|0,1:2|0:0,0:0:0:0:
178,67,185180,1,2,0:0:0:0:
211,101,185280,1,2,0:0:0:0:
310,79,185380,2,0,P|300:122|283:192,2,89.9999976158143,0|0|2,1:0|0:0|0:0,0:0:0:0:
186,329,185680,5,0,0:0:0:0:
178,324,185780,2,0,P|146:240|155:146,1,179.999995231629,0|2,1:2|0:3,0:0:0:0:
153,151,186080,1,2,0:0:0:0:
273,246,186180,2,0,P|326:234|384:221,1,89.9999976158143,0|0,1:0|0:0,0:0:0:0:
172,233,186380,1,2,0:3:0:0:
164,230,186480,1,0,0:0:0:0:
91,290,186580,2,0,P|40:299|-8:309,1,89.9999976158143,0|0,1:2|0:0,0:0:0:0:
217,377,186780,5,2,0:3:0:0:
296,337,186880,1,2,0:3:0:0:
249,261,186980,2,0,P|251:204|235:158,1,89.9999976158143,0|0,1:3|0:0,0:0:0:0:
125,115,187180,2,0,P|123:172|140:219,1,89.9999976158143,2|0,0:3|0:0,0:0:0:0:
275,93,187380,5,2,1:2:0:0:
363,50,187480,1,2,0:0:0:0:
180,44,187580,1,2,0:0:0:0:
268,1,187680,1,2,0:0:0:0:
268,1,187780,2,0,P|253:63|242:121,1,89.9999976158143,0|0,1:0|0:0,0:0:0:0:
28,98,187980,2,0,P|13:160|2:218,1,89.9999976158143,2|0,0:0|0:0,0:0:0:0:
64,252,188180,6,0,P|119:263|184:279,1,89.9999976158143,0|0,1:2|0:0,0:0:0:0:
222,214,188380,2,0,P|219:171|203:115,1,89.9999976158143,2|2,0:0|0:0,0:0:0:0:
35,363,188580,2,0,P|22:276|5:169,1,179.999995231629,2|2,1:3|0:0,0:0:0:0:
7,185,188880,1,0,0:0:0:0:
132,298,188980,6,0,P|203:271|320:273,1,179.999995231629,4|2,1:2|0:0,0:0:0:0:
306,269,189280,1,2,0:0:0:0:
253,365,189380,2,0,P|299:375|368:391,1,89.9999976158143,0|0,1:0|0:0,0:0:0:0:
224,153,189580,1,2,0:0:0:0:
230,163,189680,1,0,0:0:0:0:
315,193,189780,2,0,P|362:182|422:167,1,89.9999976158143,0|0,1:2|0:0,0:0:0:0:
499,314,189980,5,2,0:0:0:0:
423,349,190080,1,2,0:0:0:0:
378,270,190180,2,0,P|380:212|395:169,2,89.9999976158143,0|0|2,1:0|0:0|0:0,0:0:0:0:
161,305,190480,1,0,0:0:0:0:
222,371,190580,6,0,P|206:276|184:168,1,179.999995231629,0|2,1:2|0:0,0:0:0:0:
289,193,190880,2,0,P|272:97|251:-10,1,179.999995231629
15,142,191180,1,2,0:0:0:0:
24,148,191280,1,0,0:0:0:0:
96,204,191380,6,0,P|156:198|203:180,1,89.9999976158143,0|0,1:2|0:0,0:0:0:0:
233,86,191580,1,2,0:0:0:0:
278,101,191680,1,2,0:0:0:0:
128,121,191780,2,0,P|137:81|149:22,2,89.9999976158143,0|0|2,1:0|0:0|0:0,0:0:0:0:
323,185,192080,5,0,0:0:0:0:
329,192,192180,2,0,P|337:300|274:406,1,179.999995231629,0|2,1:2|0:3,0:0:0:0:
310,364,192480,1,2,0:0:0:0:
235,321,192580,2,0,P|224:272|212:219,1,89.9999976158143,0|0,1:0|0:0,0:0:0:0:
494,299,192780,1,2,0:3:0:0:
486,304,192880,1,0,0:0:0:0:
414,352,192980,2,0,P|399:293|388:249,1,89.9999976158143,0|0,1:2|0:0,0:0:0:0:
492,14,193180,5,2,0:3:0:0:
416,61,193280,1,0,0:3:0:0:
486,114,193380,2,0,P|498:154|498:216,1,89.9999976158143,0|0,1:0|0:0,0:0:0:0:
295,256,193580,2,0,P|283:216|283:154,1,89.9999976158143,2|0,0:3|0:0,0:0:0:0:
26,99,193780,5,2,1:2:0:0:
97,142,193880,1,2,0:0:0:0:
143,78,193980,1,2,0:0:0:0:
76,34,194080,1,2,0:0:0:0:
26,99,194180,2,0,P|118:72|219:51,2,179.999995231629,0|2|2,0:0|0:0|0:0,0:0:0:0:
193,141,194680,5,2,0:0:0:0:
201,151,194780,1,2,0:0:0:0:
358,96,194980,1,2,0:0:0:0:
500,197,195180,1,2,0:0:0:0:
322,244,195380,1,4,1:2:0:0:
256,192,195480,12,4,196980,1:2:0:0:
256,192,208180,5,4,1:2:0:0:
256,192,208280,12,0,209580,0:0:0:0:
339,144,209780,5,4,1:2:0:0:
339,144,209980,2,0,P|253:127|225:121,2,89.9999976158143,2|2|0,0:0|0:0|1:2,0:0:0:0:
492,246,210280,2,0,P|438:235|373:220,1,89.9999976158143,2|0,0:0|0:0,0:0:0:0:
447,55,210480,1,0,0:0:0:0:
239,109,210580,6,0,P|235:201|260:298,1,179.999995231629,0|2,1:2|0:0,0:0:0:0:
372,374,210880,2,0,P|350:266|330:175,1,179.999995231629,2|0,0:0|0:0,0:0:0:0:
146,273,211180,1,2,0:0:0:0:
153,281,211280,1,0,0:0:0:0:
277,304,211380,1,4,1:2:0:0:
277,304,211580,6,0,P|229:314|166:331,2,89.9999976158143,2|0|0,0:0|0:0|1:2,0:0:0:0:
218,201,211880,2,0,P|166:191|104:176,1,89.9999976158143,2|0,0:0|0:0,0:0:0:0:
2,298,212080,1,0,0:0:0:0:
88,339,212180,6,0,P|172:343|270:394,1,179.999995231629,0|2,1:2|0:0,0:0:0:0:
417,241,212480,2,0,P|290:267|201:285,1,179.999995231629,2|0,0:0|0:0,0:0:0:0:
399,344,212780,1,2,0:0:0:0:
410,342,212880,1,0,0:0:0:0:
292,175,212980,1,4,1:2:0:0:
292,175,213180,6,0,P|231:161|178:149,2,89.9999976158143,2|2|0,0:0|0:0|1:2,0:0:0:0:
488,282,213480,2,0,P|427:268|374:256,1,89.9999976158143,2|0,0:0|0:0,0:0:0:0:
462,175,213680,1,0,0:0:0:0:
353,61,213780,2,0,P|318:153|324:257,1,179.999995231629,0|2,1:2|0:0,0:0:0:0:
472,183,214080,2,0,P|487:84|501:-20,1,179.999995231629,2|0,0:0|0:0,0:0:0:0:
214,50,214380,2,0,P|229:107|246:166,1,89.9999976158143,2|0,0:0|0:0,0:0:0:0:
334,334,214580,6,0,P|335:229|312:131,1,179.999995231629,4|2,1:2|0:0,0:0:0:0:
165,273,214880,1,2,0:0:0:0:
172,278,214980,2,0,P|163:324|152:387,2,89.9999976158143,4|2|0,1:2|0:0|0:0,0:0:0:0:
251,236,215280,1,0,0:0:0:0:
244,223,215380,1,0,1:2:0:0:
27,305,215480,1,2,0:3:0:0:
73,322,215580,1,2,0:3:0:0:
117,337,215680,1,2,0:3:0:0:
105,210,215780,6,0,P|115:162|125:116,1,89.9999976158143,2|0,1:3|0:0,0:0:0:0:
373,285,215980,2,0,P|383:237|393:191,1,89.9999976158143,2|0,0:0|0:0,0:0:0:0:
205,367,216180,1,4,1:2:0:0:
205,367,216380,2,0,P|188:316|192:262,2,89.9999976158143,2|0|0,0:0|0:0|1:2,0:0:0:0:
431,331,216680,2,0,P|388:322|328:307,1,89.9999976158143,2|0,0:0|0:0,0:0:0:0:
115,249,216880,1,0,0:0:0:0:
280,211,216980,6,0,P|285:107|257:-3,1,179.999995231629,0|2,1:2|0:0,0:0:0:0:
21,144,217280,2,0,P|34:240|46:340,1,179.999995231629,2|0,0:0|0:0,0:0:0:0:
201,187,217580,1,2,0:0:0:0:
193,180,217680,1,0,0:0:0:0:
316,367,217780,1,4,1:2:0:0:
316,367,217980,6,0,P|266:357|217:345,2,89.9999976158143,2|2|0,0:0|0:0|1:2,0:0:0:0:
495,301,218280,2,0,P|436:288|385:278,1,89.9999976158143,2|0,0:0|0:0,0:0:0:0:
289,174,218480,1,0,0:0:0:0:
226,315,218580,6,0,P|160:339|44:337,1,179.999995231629,0|2,1:2|0:0,0:0:0:0:
298,170,218880,2,0,P|316:280|337:371,1,179.999995231629,2|0,0:0|0:0,0:0:0:0:
142,99,219180,1,2,0:0:0:0:
152,107,219280,1,0,0:0:0:0:
84,212,219380,1,4,1:2:0:0:
84,212,219580,6,0,P|37:211|-11:191,2,89.9999976158143,2|0|0,0:0|0:0|1:2,0:0:0:0:
213,160,219880,2,0,P|263:169|315:180,1,89.9999976158143,2|0,0:0|0:0,0:0:0:0:
417,246,220080,1,0,0:0:0:0:
498,113,220180,6,0,P|415:139|306:135,1,179.999995231629,2|2,1:3|0:0,0:0:0:0:
248,277,220480,1,2,0:0:0:0:
248,277,220580,2,0,P|303:263|365:247,1,89.9999976158143,2|0,1:3|0:0,0:0:0:0:
398,14,220780,2,0,P|354:25|310:36,1,89.9999976158143,2|0,0:3|0:0,0:0:0:0:
494,330,220980,1,4,1:2:0:0:
96,256,221380,1,4,1:2:0:0:
335,352,221580,1,4,1:2:0:0:
0,384,221780,1,4,1:2:0:0:
33,359,221980,5,2,0:0:0:0:
33,359,222080,1,2,0:0:0:0:
33,359,222180,2,0,P|23:327|12:294,1,44.9999988079071,2|2,0:0|0:0,0:0:0:0:
234,295,222380,2,0,P|224:263|213:230,1,44.9999988079071,2|2,0:0|0:0,0:0:0:0:
108,377,222580,6,0,P|123:306|146:237,1,135.000001573563,4|2,1:2|0:0,0:0:0:0:
142,246,222880,1,2,0:0:0:0:
75,191,222980,1,0,0:0:0:0:
321,217,223180,1,2,0:0:0:0:
316,231,223280,1,0,0:0:0:0:
235,220,223380,6,0,P|247:262|261:313,1,67.5000007867814
162,177,223580,1,2,0:0:0:0:
176,167,223680,1,2,0:0:0:0:
246,90,223780,2,0,P|308:112|399:109,1,135.000001573563,0|2,0:0|1:2,0:0:0:0:
376,113,224180,5,4,1:2:0:0:
448,8,224380,1,2,0:0:0:0:
457,7,224480,1,2,0:0:0:0:
506,71,224580,1,0,0:0:0:0:
360,207,224780,1,2,0:0:0:0:
353,202,224880,1,0,0:0:0:0:
435,178,224980,6,0,P|446:242|448:331,1,135.000001573563,0|2,0:0|0:0,0:0:0:0:
281,179,225280,2,0,P|289:138|296:98,2,67.5000007867814,2|0|0,0:0|0:0|0:0,0:0:0:0:
195,206,225580,1,2,0:2:0:0:
207,226,225680,1,0,0:0:0:0:
356,248,225780,6,0,P|278:263|197:281,1,135.000001573563,4|2,1:2|0:0,0:0:0:0:
223,274,226080,1,2,0:0:0:0:
151,328,226180,1,0,0:0:0:0:
16,167,226380,1,2,0:0:0:0:
27,176,226480,1,0,0:0:0:0:
90,237,226580,6,0,P|100:202|110:155,1,67.5000007867814
60,7,226780,2,0,P|52:39|43:72,1,67.5000007867814,2|0,0:0|0:0,0:0:0:0:
7,293,226980,1,0,0:0:0:0:
133,58,227180,1,0,0:0:0:0:
158,316,227380,5,4,1:2:0:0:
223,360,227480,1,0,1:0:0:0:
300,281,227580,1,2,1:2:0:0:
209,235,227680,1,2,1:2:0:0:
209,235,227780,6,0,P|198:192|185:151,1,67.5000007867814,0|0,1:0|0:0,0:0:0:0:
79,298,227980,2,0,P|68:255|55:214,1,67.5000007867814,0|0,1:0|0:0,0:0:0:0:
332,354,228180,1,4,1:2:0:0:
486,222,228380,1,2,0:0:0:0:
503,230,228480,1,2,0:0:0:0:
361,239,228580,2,0,P|281:211|188:199,1,135.000001573563,2|2,0:3|0:0,0:0:0:0:
18,110,228880,5,0,0:0:0:0:
26,117,228980,2,0,P|72:104|122:92,1,67.5000007867814,4|0,1:2|0:0,0:0:0:0:
186,260,229180,2,0,P|140:247|90:235,1,67.5000007867814,2|2,0:0|0:0,0:0:0:0:
0,224,229380,1,0,0:0:0:0:
301,127,229580,1,2,0:0:0:0:
292,140,229680,1,0,0:0:0:0:
256,210,229780,6,0,P|268:245|272:293,1,67.5000007867814
221,65,229980,2,0,P|209:30|205:-18,1,67.5000007867814,2|2,0:0|0:0,0:0:0:0:
173,251,230180,1,0,0:0:0:0:
302,34,230380,1,2,1:2:0:0:
500,292,230580,6,0,P|410:308|329:321,1,135.000001573563,4|2,1:2|0:0,0:0:0:0:
366,315,230880,1,2,0:0:0:0:
244,370,230980,1,4,1:2:0:0:
381,130,231180,1,2,1:2:0:0:
391,135,231280,1,0,0:0:0:0:
446,198,231380,6,0,P|485:205|521:211,2,67.5000007867814,0|0|2,0:0|0:0|0:0,0:0:0:0:
321,226,231680,2,0,P|254:244|169:240,1,135.000001573563,2|0,0:0|0:0,0:0:0:0:
26,190,231980,1,2,0:2:0:0:
18,182,232080,1,0,0:0:0:0:
109,223,232180,6,0,P|126:295|139:361,1,135.000001573563,4|2,1:2|0:0,0:0:0:0:
137,354,232480,1,2,0:0:0:0:
216,326,232580,1,0,0:0:0:0:
93,93,232780,1,2,0:0:0:0:
102,100,232880,1,0,0:0:0:0:
204,69,232980,6,0,P|216:40|237:-20,1,67.5000007867814,4|0,1:2|0:0,0:0:0:0:
0,173,233180,2,0,P|12:144|33:84,1,67.5000007867814,2|0,1:2|0:0,0:0:0:0:
175,227,233380,6,0,P|159:184|144:144,1,67.5000007867814,0|0,1:0|1:0,0:0:0:0:
387,83,233580,1,0,1:0:0:0:
376,103,233680,1,0,1:0:0:0:
314,163,233780,1,4,1:0:0:0:
273,143,233880,1,0,0:0:0:0:
244,181,233980,1,0,0:0:0:0:
289,205,234080,1,0,0:0:0:0:
318,157,234180,5,4,1:0:0:0:
15,97,234380,1,0,0:0:0:0:
361,294,234580,1,0,1:0:0:0:
361,294,235380,5,4,1:2:0:0:
272,257,235480,1,0,0:0:0:0:
253,359,235580,1,2,0:0:0:0:
271,353,235680,1,2,0:0:0:0:
396,373,235780,2,0,P|380:305|368:249,1,89.9999976158143,0|0,1:0|0:0,0:0:0:0:
177,329,235980,2,0,P|161:261|149:205,1,89.9999976158143,2|0,0:0|0:0,0:0:0:0:
416,201,236180,6,0,P|473:220|533:222,2,89.9999976158143,0|0|2,1:2|0:0|0:0,0:0:0:0:
196,129,236480,1,2,0:0:0:0:
202,121,236580,2,0,P|296:108|412:92,1,179.999995231629,0|2,1:0|0:0,0:0:0:0:
124,254,236880,1,0,0:0:0:0:
18,229,236980,6,0,P|7:164|15:103,1,89.9999976158143,0|0,1:2|0:0,0:0:0:0:
132,251,237180,2,0,P|121:316|113:380,1,89.9999976158143,2|0,0:0|0:0,0:0:0:0:
212,12,237380,2,0,P|160:25|103:39,1,89.9999976158143,0|0,1:0|0:0,0:0:0:0:
202,374,237580,2,0,P|254:361|311:347,1,89.9999976158143,2|0,0:0|0:0,0:0:0:0:
496,173,237780,6,0,P|402:171|302:135,1,179.999995231629,0|2,1:2|0:0,0:0:0:0:
176,285,238080,2,0,P|167:235|156:178,2,89.9999976158143,2|0|0,0:0|1:0|0:0,0:0:0:0:
327,230,238380,1,2,0:0:0:0:
317,237,238480,1,0,0:0:0:0:
239,379,238580,6,0,P|253:320|263:275,1,89.9999976158143,0|0,1:2|0:0,0:0:0:0:
39,244,238780,2,0,P|29:287|18:331,1,89.9999976158143,2|2,0:0|0:0,0:0:0:0:
121,263,238980,5,0,1:0:0:0:
220,206,239080,1,0,0:0:0:0:
152,108,239180,1,2,0:0:0:0:
143,114,239280,1,0,0:0:0:0:
26,150,239380,6,0,P|70:152|112:177,1,89.9999976158143,0|0,1:2|0:0,0:0:0:0:
305,231,239580,2,0,P|343:253|388:255,1,89.9999976158143,2|2,0:0|0:0,0:0:0:0:
196,367,239780,2,0,P|182:303|171:245,1,89.9999976158143,0|0,1:0|0:0,0:0:0:0:
480,195,239980,2,0,P|494:259|505:317,1,89.9999976158143,2|0,0:0|0:0,0:0:0:0:
279,310,240180,5,2,1:2:0:0:
390,348,240280,1,2,0:0:0:0:
312,377,240380,1,2,0:0:0:0:
369,310,240480,1,2,0:0:0:0:
356,315,240580,2,0,P|366:264|364:213,1,89.9999976158143,0|0,1:0|0:0,0:0:0:0:
109,174,240780,2,0,P|99:225|101:276,1,89.9999976158143,2|0,0:0|0:0,0:0:0:0:
166,314,240980,6,0,P|220:300|267:286,1,89.9999976158143,0|0,1:2|0:0,0:0:0:0:
292,219,241180,2,0,P|272:155|261:109,1,89.9999976158143,2|2,0:0|0:0,0:0:0:0:
490,368,241380,2,0,P|509:271|499:169,1,179.999995231629,2|2,1:3|0:0,0:0:0:0:
503,190,241680,1,0,0:0:0:0:
376,237,241780,5,4,1:2:0:0:
318,137,241880,1,0,0:0:0:0:
430,88,241980,1,2,0:0:0:0:
437,100,242080,1,2,0:0:0:0:
387,193,242180,2,0,P|404:246|421:310,1,89.9999976158143,0|0,1:0|0:0,0:0:0:0:
149,279,242380,2,0,P|166:332|183:396,1,89.9999976158143,2|0,0:0|0:0,0:0:0:0:
334,329,242580,6,0,P|288:313|223:311,2,89.9999976158143,0|0|2,1:2|0:0|0:0,0:0:0:0:
178,52,242880,1,2,0:0:0:0:
184,59,242980,2,0,P|292:42|381:14,1,179.999995231629,0|2,1:0|0:0,0:0:0:0:
129,145,243280,1,0,0:0:0:0:
216,173,243380,6,0,P|231:226|244:292,1,89.9999976158143,0|0,1:2|0:0,0:0:0:0:
15,71,243580,2,0,P|30:124|43:190,1,89.9999976158143,2|0,0:0|0:0,0:0:0:0:
20,340,243780,6,0,P|70:356|138:368,1,89.9999976158143,0|0,1:0|0:0,0:0:0:0:
178,52,243980,2,0,P|128:36|60:24,1,89.9999976158143,2|0,0:0|0:0,0:0:0:0:
328,237,244180,6,0,P|247:254|121:281,1,179.999995231629,0|2,1:2|0:0,0:0:0:0:
501,137,244480,2,0,P|441:147|388:159,2,89.9999976158143,2|0|0,0:0|1:0|0:0,0:0:0:0:
379,312,244780,1,2,0:0:0:0:
389,321,244880,1,0,0:0:0:0:
245,272,244980,6,0,P|247:225|263:167,1,89.9999976158143,0|0,1:2|0:0,0:0:0:0:
476,244,245180,2,0,P|474:291|458:349,1,89.9999976158143,2|2,0:0|0:0,0:0:0:0:
327,154,245380,1,0,1:0:0:0:
410,109,245480,1,0,0:0:0:0:
248,59,245580,1,2,0:0:0:0:
256,70,245680,1,0,0:0:0:0:
226,180,245780,6,0,P|189:167|112:145,1,89.9999976158143,0|0,1:2|0:0,0:0:0:0:
324,0,245980,2,0,P|361:13|438:35,1,89.9999976158143,2|2,0:0|0:0,0:0:0:0:
53,147,246180,6,0,P|37:83|36:35,1,89.9999976158143,0|0,1:0|0:0,0:0:0:0:
473,173,246380,2,0,P|489:237|490:285,1,89.9999976158143,2|0,0:0|0:0,0:0:0:0:
212,341,246580,5,2,1:2:0:0:
259,263,246680,1,2,0:0:0:0:
334,322,246780,1,2,0:0:0:0:
284,382,246880,1,2,0:0:0:0:
206,331,246980,2,0,P|225:227|243:139,2,179.999995231629,0|2|2,0:0|0:0|0:0,0:0:0:0:
325,219,247480,1,2,0:0:0:0:
332,210,247580,1,2,0:0:0:0:
181,95,247780,1,2,0:0:0:0:
271,2,247980,1,2,0:0:0:0:
497,71,248180,1,4,1:2:0:0:
497,71,248380,6,0,P|433:85|371:101,2,89.9999976158143,2|2|0,0:0|0:0|1:2,0:0:0:0:
257,170,248680,2,0,P|306:177|360:191,1,89.9999976158143,2|0,0:0|0:0,0:0:0:0:
465,249,248880,1,0,0:0:0:0:
351,303,248980,6,0,P|324:204|321:125,1,179.999995231629,0|2,1:2|0:0,0:0:0:0:
502,175,249280,2,0,P|496:85|471:0,1,179.999995231629,2|0,0:0|0:0,0:0:0:0:
269,46,249580,1,2,0:0:0:0:
276,55,249680,1,0,0:0:0:0:
359,114,249780,1,4,1:2:0:0:
359,114,249980,6,0,P|366:58|373:9,2,89.9999976158143,2|0|0,0:0|0:0|1:2,0:0:0:0:
182,148,250280,2,0,P|189:204|196:253,1,89.9999976158143,2|0,0:0|0:0,0:0:0:0:
316,273,250480,1,0,0:0:0:0:
270,164,250580,6,0,P|163:195|64:196,1,179.999995231629,0|2,1:2|0:0,0:0:0:0:
317,282,250880,2,0,P|424:313|523:314,1,179.999995231629,2|0,0:0|0:0,0:0:0:0:
196,384,251180,1,2,0:0:0:0:
145,300,251280,1,0,0:0:0:0:
241,255,251380,1,4,1:2:0:0:
241,255,251580,6,0,P|292:246|353:234,2,89.9999976158143,2|2|0,0:0|0:0|1:2,0:0:0:0:
59,322,251880,2,0,P|125:313|180:306,1,89.9999976158143,2|0,0:0|0:0,0:0:0:0:
266,349,252080,1,0,0:0:0:0:
174,203,252180,2,0,P|175:100|195:9,1,179.999995231629,0|2,1:2|0:0,0:0:0:0:
364,149,252480,2,0,P|348:241|333:338,1,179.999995231629,2|0,0:0|0:0,0:0:0:0:
257,75,252780,1,2,0:0:0:0:
266,82,252880,1,0,0:0:0:0:
338,135,252980,6,0,P|426:139|552:86,1,179.999995231629,4|2,1:2|0:0,0:0:0:0:
192,5,253280,1,2,0:0:0:0:
201,13,253380,2,0,P|190:66|176:132,2,89.9999976158143,4|2|0,1:2|0:0|0:0,0:0:0:0:
274,202,253680,1,0,0:0:0:0:
268,191,253780,1,0,1:2:0:0:
114,233,253880,5,2,0:3:0:0:
97,191,253980,1,2,0:3:0:0:
80,151,254080,1,2,0:3:0:0:
193,225,254180,2,0,P|193:274|169:335,1,89.9999976158143,2|0,1:3|0:0,0:0:0:0:
0,275,254380,2,0,P|0:226|24:165,1,89.9999976158143,2|0,0:0|0:0,0:0:0:0:
318,102,254580,1,4,1:2:0:0:
318,102,254780,6,0,P|329:161|342:220,2,89.9999976158143,2|0|0,0:0|0:0|1:2,0:0:0:0:
152,109,255080,2,0,P|165:47|176:1,1,89.9999976158143,2|0,0:0|0:0,0:0:0:0:
398,127,255280,1,0,0:0:0:0:
287,170,255380,6,0,P|276:238|285:351,1,179.999995231629,0|2,1:2|0:0,0:0:0:0:
193,266,255680,2,0,P|89:282|-21:297,1,179.999995231629,2|0,0:0|0:0,0:0:0:0:
195,365,255980,1,2,0:0:0:0:
201,374,256080,1,0,0:0:0:0:
303,315,256180,1,4,1:2:0:0:
303,315,256380,6,0,P|363:324|423:334,2,89.9999976158143,2|2|0,0:0|0:0|1:2,0:0:0:0:
100,244,256680,2,0,P|105:287|126:356,1,89.9999976158143,2|0,0:0|0:0,0:0:0:0:
238,206,256880,1,0,0:0:0:0:
335,241,256980,6,0,P|410:228|539:207,1,179.999995231629,0|2,1:2|0:0,0:0:0:0:
311,110,257280,2,0,P|199:127|99:141,1,179.999995231629,2|0,0:0|0:0,0:0:0:0:
0,185,257580,1,2,0:0:0:0:
8,191,257680,1,0,0:0:0:0:
93,256,257780,1,4,1:2:0:0:
93,256,257980,6,0,P|107:203|103:144,2,89.9999976158143,2|0|0,0:0|0:0|1:2,0:0:0:0:
290,276,258280,2,0,P|276:329|280:388,1,89.9999976158143,2|0,0:0|0:0,0:0:0:0:
186,230,258480,1,0,0:0:0:0:
349,195,258580,6,0,P|337:88|321:-10,1,179.999995231629,2|2,1:3|0:0,0:0:0:0:
112,277,258880,1,2,0:0:0:0:
118,286,258980,2,0,P|185:306|222:316,1,89.9999976158143,2|0,1:3|0:0,0:0:0:0:
505,130,259180,2,0,P|438:110|401:100,1,89.9999976158143,2|0,0:3|0:0,0:0:0:0:
19,214,259380,1,4,1:2:0:0:
256,192,259480,12,4,260980,1:2:0:0:
