osu file format v14

[General]
AudioFilename: audio.mp3
AudioLeadIn: 0
PreviewTime: 50577
Countdown: 0
SampleSet: Soft
StackLeniency: 0.4
Mode: 0
LetterboxInBreaks: 0
WidescreenStoryboard: 1

[Editor]
DistanceSpacing: 1
BeatDivisor: 4
GridSize: 32
TimelineZoom: 1.9

[Metadata]
Title:Wonderland (TV Size)
TitleUnicode:ワンダーランド (TV Size)
Artist:FLiP
ArtistUnicode:FLiP
Creator:Smoke
Version:Normal
Source:銀魂’
Tags:opening op 11 odd jobs shinsengumi baragaki thorny arc gintama gintama' japanese anime rock j-rock kagura 神楽 Gintoki Sakata 坂田 銀時 Shinpachi Shimura 志村 新八 Kondou Isao 近藤 勲 Hijikata Toushirou 土方 十四郎 Okita Sougo 沖田 総悟 attendant
BeatmapID:2240611
BeatmapSetID:1070398

[Difficulty]
HPDrainRate:4
CircleSize:3.2
OverallDifficulty:4.2
ApproachRate:5.2
SliderMultiplier:1
SliderTickRate:1

[Events]
//Background and Video events
0,0,"gintoki all characters.jpg",0,0
Video,-1298,"OP 11.mp4"
//Break Periods
//Storyboard Layer 0 (Background)
//Storyboard Layer 1 (Fail)
//Storyboard Layer 2 (Pass)
//Storyboard Layer 3 (Foreground)
//Storyboard Layer 4 (Overlay)
//Storyboard Sound Samples

[TimingPoints]
379,340.909090909091,4,2,1,55,1,0
379,-100,4,2,1,55,0,0
1558,340.909090909091,4,2,1,55,1,0
1558,-100,4,2,1,65,0,0
1728,340.909090909091,4,2,1,55,1,0
1728,-100,4,2,1,65,0,0
12651,340.909090909091,4,2,1,55,1,0
12651,-100,4,2,1,65,0,0
21174,-100,4,2,1,65,0,0
23475,-100,4,2,1,5,0,0
23560,-100,4,2,1,65,0,0
32083,-100,4,2,1,65,0,0
34299,-100,4,2,1,65,0,0
45379,-100,4,2,1,65,0,0
48106,-100,4,2,1,65,0,0
50662,-90.9090909090909,4,2,1,75,0,1
71969,-90.9090909090909,4,2,1,70,0,0
72480,-90.9090909090909,4,2,1,75,0,1
83560,-100,4,2,1,70,0,0

[Colours]
Combo1 : 190,102,227
Combo2 : 94,154,227
Combo3 : 105,194,214
Combo4 : 238,134,202

[HitObjects]
394,301,379,6,0,L|328:294,1,50,4|0,3:2|3:2,0:0:0:0:
294,289,719,1,8,3:2:0:0:
228,214,1060,1,8,3:2:0:0:
228,214,1231,2,0,L|234:157,1,50,8|8,3:2|3:2,0:0:0:0:
201,125,1558,6,0,P|143:116|101:142,1,100,6|0,3:2|3:2,0:0:0:0:
75,172,2068,2,0,P|86:208|90:235,1,50,10|0,3:2|3:2,0:0:0:0:
94,269,2409,1,10,3:2:0:0:
161,337,2750,2,0,P|185:327|226:321,1,50,2|8,0:0|3:2,0:0:0:0:
252,297,3091,2,0,P|276:307|317:313,1,50,2|0,0:0|3:2,0:0:0:0:
349,318,3432,1,10,3:2:0:0:
425,253,3773,2,0,L|419:192,1,50,2|0,3:2|3:2,0:0:0:0:
415,153,4114,1,10,3:2:0:0:
349,77,4455,6,0,P|312:71|280:69,1,50,6|2,3:2|3:2,0:0:0:0:
256,43,4796,2,0,P|219:49|187:51,1,50,10|0,3:2|3:2,0:0:0:0:
156,52,5137,1,10,3:2:0:0:
77,113,5478,2,0,P|91:145|97:170,1,50,2|8,0:0|3:2,0:0:0:0:
105,208,5818,1,2,0:0:0:0:
77,304,6159,1,10,3:2:0:0:
152,369,6500,2,0,L|216:361,1,50,2|0,3:2|3:2,0:0:0:0:
251,356,6841,1,10,3:2:0:0:
319,283,7182,6,0,L|309:215,1,50,4|2,3:2|3:2,0:0:0:0:
338,191,7523,2,0,L|398:180,1,50,10|0,3:2|3:2,0:0:0:0:
436,172,7864,1,10,3:2:0:0:
464,76,8205,2,0,L|407:68,1,50,2|8,0:0|3:2,0:0:0:0:
365,59,8546,1,2,0:0:0:0:
271,94,8887,1,10,3:2:0:0:
192,31,9228,2,0,L|131:39,1,50,2|0,3:2|3:2,0:0:0:0:
93,46,9568,1,10,3:2:0:0:
20,115,9909,6,0,P|30:142|35:167,1,50,4|0,3:2|3:2,0:0:0:0:
65,201,10250,2,0,P|55:228|50:253,1,50,10|0,3:2|3:2,0:0:0:0:
41,298,10591,1,10,3:2:0:0:
128,345,10932,2,0,L|183:335,1,50,2|8,0:0|3:2,0:0:0:0:
217,305,11273,2,0,L|280:314,1,50,2|0,0:0|3:2,0:0:0:0:
316,319,11614,1,10,3:2:0:0:
410,286,11955,2,0,L|418:348,2,50,10|8|8,3:2|3:2|3:2,0:0:0:0:
441,246,12466,5,8,3:2:0:0:
441,246,12651,2,0,L|454:135,1,100,6|10,3:2|3:2,0:0:0:0:
407,57,13332,2,0,L|352:66,1,50,0|0,3:2|3:2,0:0:0:0:
308,75,13673,1,10,3:2:0:0:
215,37,14014,2,0,P|171:14|100:25,1,100,2|10,3:2|3:2,0:0:0:0:
90,54,14526,2,0,P|107:107|118:170,1,100,2|0,3:2|3:2,0:0:0:0:
119,200,15037,1,8,3:2:0:0:
86,294,15378,6,0,P|136:285|186:280,1,100,2|10,3:2|3:2,0:0:0:0:
276,239,16060,2,0,L|338:249,1,50,0|0,3:2|3:2,0:0:0:0:
374,255,16401,1,10,3:2:0:0:
449,189,16741,1,2,3:2:0:0:
417,94,17082,1,10,3:2:0:0:
417,94,17253,2,0,L|312:107,1,100,2|0,3:2|3:2,0:0:0:0:
268,113,17764,1,8,3:2:0:0:
168,101,18105,6,0,L|177:158,1,50,2|2,3:2|3:2,0:0:0:0:
208,188,18446,1,10,3:2:0:0:
208,188,18616,2,0,L|193:300,1,100,2|2,3:2|3:2,0:0:0:0:
190,337,19128,1,8,3:2:0:0:
190,337,19298,1,2,3:2:0:0:
92,357,19639,1,2,3:2:0:0:
30,278,19980,1,2,3:2:0:0:
73,187,20321,1,2,3:2:0:0:
49,89,20662,2,0,L|117:85,1,50,2|0,3:2|3:2,0:0:0:0:
144,64,21003,5,0,3:2:0:0:
144,64,21173,2,0,P|196:79|252:74,1,100,10|10,3:2|3:2,0:0:0:0:
338,100,21855,1,0,1:2:0:0:
338,100,22026,2,0,P|389:77|439:87,1,100,10|0,3:2|3:2,0:0:0:0:
474,109,22537,1,10,3:2:0:0:
441,203,22878,2,0,L|450:272,1,50,0|0,3:2|3:2,0:0:0:0:
456,302,23219,1,10,3:2:0:0:
374,360,23560,6,0,P|328:349|260:338,1,100,6|10,3:2|3:2,0:0:0:0:
218,257,24241,2,0,P|228:234|234:203,1,50,0|0,3:2|3:2,0:0:0:0:
238,159,24582,1,10,3:2:0:0:
177,79,24923,2,0,P|127:69|82:100,1,100,2|10,3:2|3:2,0:0:0:0:
64,137,25435,2,0,P|83:183|97:232,1,100,2|0,3:2|3:2,0:0:0:0:
109,280,25946,1,10,3:2:0:0:
206,255,26287,5,0,3:2:0:0:
206,255,26457,2,0,P|253:281|313:272,1,100,2|2,3:2|3:2,0:0:0:0:
344,259,26969,2,0,L|337:170,2,75,2|2|2,3:2|0:0|3:2,0:0:0:0:
390,278,27651,2,0,L|395:352,2,75,2|2|2,3:2|0:0|3:2,0:0:0:0:
435,257,28332,1,2,3:2:0:0:
488,172,28673,1,8,3:2:0:0:
444,81,29014,6,0,L|376:89,1,50,2|2,3:2|3:2,0:0:0:0:
350,110,29355,1,8,3:2:0:0:
350,110,29526,2,0,P|301:95|243:86,1,100,2|2,3:2|3:2,0:0:0:0:
203,80,30037,1,8,3:2:0:0:
203,80,30207,1,2,3:2:0:0:
132,150,30548,1,2,3:2:0:0:
169,242,30889,1,2,3:2:0:0:
104,318,31230,1,2,3:2:0:0:
7,290,31571,2,0,L|1:222,1,50,2|0,3:2|3:2,0:0:0:0:
1,190,31912,5,0,3:2:0:0:
1,190,32082,2,0,P|49:205|106:200,1,100,10|10,3:2|3:2,0:0:0:0:
182,147,32764,1,0,1:2:0:0:
182,147,32935,2,0,P|230:134|288:156,1,100,10|0,3:2|3:2,0:0:0:0:
322,183,33446,1,10,3:2:0:0:
412,203,33787,2,0,L|482:195,1,50,8|8,3:2|3:2,0:0:0:0:
505,221,34128,5,8,3:2:0:0:
505,221,34298,2,0,P|484:271|473:323,1,100,4|0,3:2|3:2,0:0:0:0:
466,365,34810,1,8,3:2:0:0:
384,306,35151,1,2,0:0:0:0:
293,348,35491,1,10,3:2:0:0:
293,348,35662,2,0,L|283:237,1,100,4|0,3:2|3:2,0:0:0:0:
281,198,36173,1,8,3:2:0:0:
319,105,36514,1,2,0:0:0:0:
239,44,36855,1,10,3:2:0:0:
239,44,37026,2,0,P|191:25|131:40,1,100,4|0,3:2|3:2,0:0:0:0:
99,55,37537,1,8,3:2:0:0:
29,127,37878,6,0,L|38:197,1,50,10|0,3:2|3:2,0:0:0:0:
38,226,38219,1,2,0:0:0:0:
114,289,38560,2,0,B|165:299|165:299|209:282,1,100,2|10,0:0|3:2,0:0:0:0:
302,242,39241,2,0,L|294:296,1,50,10|8,3:2|3:2,0:0:0:0:
328,328,39582,5,10,3:2:0:0:
328,328,39753,2,0,P|382:317|440:314,1,100,4|0,3:2|3:2,0:0:0:0:
476,309,40264,1,8,3:2:0:0:
508,214,40605,1,2,0:0:0:0:
456,128,40946,1,10,3:2:0:0:
456,128,41116,2,0,P|464:76|477:21,1,100,4|0,3:2|3:2,0:0:0:0:
433,0,41628,1,8,3:2:0:0:
343,43,41969,1,2,0:0:0:0:
250,3,42310,1,10,3:2:0:0:
250,3,42480,2,0,B|205:23|205:23|150:17,1,100,4|0,3:2|3:2,0:0:0:0:
104,13,42991,1,8,3:2:0:0:
29,79,43332,6,0,L|39:184,1,100,14|2,3:2|0:0,0:0:0:0:
69,225,43844,1,4,3:2:0:0:
69,225,44014,2,0,P|131:229|167:210,1,100,2|10,0:0|3:2,0:0:0:0:
243,151,44696,1,8,3:3:0:0:
342,154,45037,1,12,3:3:0:0:
408,228,45378,6,0,P|392:276|379:333,1,100,4|0,3:2|3:2,0:0:0:0:
291,368,46060,2,0,L|188:351,1,100,10|0,3:2|3:2,0:0:0:0:
143,340,46571,1,8,3:3:0:0:
84,258,46912,1,8,3:2:0:0:
128,168,47253,1,0,3:2:0:0:
128,168,47423,2,0,P|180:172|222:139,1,100,10|0,3:2|3:2,0:0:0:0:
274,63,48105,6,0,L|340:75,1,50,4|8,3:2|3:2,0:0:0:0:
371,84,48446,1,8,3:2:0:0:
433,161,48787,2,0,L|421:227,1,50,10|8,3:2|3:3,0:0:0:0:
384,241,49128,2,0,L|396:307,1,50,4|12,3:3|3:3,0:0:0:0:
404,338,49469,1,10,3:2:0:0:
55,367,50662,6,0,L|71:249,1,110.000003356934,6|0,3:2|3:2,0:0:0:0:
95,209,51173,2,0,L|87:142,1,55.0000016784668,10|2,3:2|0:0,0:0:0:0:
82,99,51514,1,2,3:2:0:0:
187,131,51855,2,0,L|251:123,1,55.0000016784668,10|6,3:2|3:2,0:0:0:0:
281,86,52196,2,0,L|267:15,2,55.0000016784668,2|2|8,0:0|3:2|3:2,0:0:0:0:
331,108,52707,2,0,P|390:95|455:87,1,110.000003356934,2|2,0:0|3:2,0:0:0:0:
498,95,53219,5,8,3:2:0:0:
498,95,53389,1,6,3:2:0:0:
502,204,53730,2,0,L|491:264,1,55.0000016784668,2|8,3:2|3:2,0:0:0:0:
482,312,54071,1,6,0:0:0:0:
383,262,54412,2,0,L|314:255,1,55.0000016784668,2|8,3:2|3:2,0:0:0:0:
273,248,54753,1,6,3:2:0:0:
174,211,55094,1,0,3:2:0:0:
174,211,55264,2,0,L|167:288,2,55.0000016784668,8|8|0,3:2|3:2|3:2,0:0:0:0:
229,117,55946,5,8,3:2:0:0:
229,117,56116,2,0,P|170:97|116:116,1,110.000003356934,6|2,3:2|3:2,0:0:0:0:
77,136,56628,2,0,L|72:191,1,55.0000016784668,10|2,3:2|0:0,0:0:0:0:
67,245,56969,1,2,3:2:0:0:
164,306,57310,1,10,3:2:0:0:
164,306,57480,1,6,3:2:0:0:
248,236,57821,2,0,L|306:244,1,55.0000016784668,2|8,3:2|3:2,0:0:0:0:
357,250,58162,2,0,P|407:276|477:252,1,110.000003356934,2|2,0:0|3:2,0:0:0:0:
500,231,58673,5,8,3:2:0:0:
500,231,58844,1,6,3:2:0:0:
505,121,59185,2,0,L|442:113,1,55.0000016784668,2|8,3:2|3:2,0:0:0:0:
395,110,59526,1,2,3:2:0:0:
298,58,59866,2,0,L|241:63,1,55.0000016784668,2|8,3:2|3:2,0:0:0:0:
198,94,60207,2,0,P|143:80|87:73,1,110.000003356934,6|0,3:2|3:2,0:0:0:0:
34,75,60719,1,8,3:2:0:0:
7,181,61060,2,0,L|26:249,1,55.0000016784668,2|2,3:2|3:2,0:0:0:0:
46,289,61401,5,8,3:2:0:0:
46,289,61571,2,0,P|99:276|162:267,1,110.000003356934,6|0,3:2|3:2,0:0:0:0:
208,265,62082,1,8,3:2:0:0:
301,322,62423,2,0,L|309:255,1,55.0000016784668,2|2,3:2|3:2,0:0:0:0:
359,244,62764,1,8,3:2:0:0:
359,244,62935,2,0,P|411:268|473:247,1,110.000003356934,6|0,3:2|3:2,0:0:0:0:
502,221,63446,1,8,3:2:0:0:
469,115,63787,2,0,L|398:125,1,55.0000016784668,2|2,3:2|3:2,0:0:0:0:
371,97,64128,1,8,3:2:0:0:
371,97,64298,2,0,P|313:62|258:71,1,110.000003356934,6|0,3:2|3:2,0:0:0:0:
219,79,64810,1,8,3:2:0:0:
270,176,65151,6,0,P|280:212|286:248,1,55.0000016784668,2|2,3:2|3:2,0:0:0:0:
248,272,65491,1,8,3:2:0:0:
248,272,65662,2,0,P|221:327|204:372,1,110.000003356934,6|2,3:2|3:2,0:0:0:0:
153,381,66173,1,8,3:2:0:0:
153,381,66344,2,0,P|102:355|34:366,1,110.000003356934,6|2,3:2|3:2,0:0:0:0:
0,364,66855,1,8,3:2:0:0:
19,255,67196,6,0,L|13:192,1,55.0000016784668,6|0,3:2|3:2,0:0:0:0:
7,146,67537,1,8,3:2:0:0:
96,81,67878,2,0,L|159:87,1,55.0000016784668,2|0,3:2|3:2,0:0:0:0:
205,93,68219,1,8,3:2:0:0:
314,104,68560,2,0,P|330:46|349:-13,2,110.000003356934,2|10|2,3:2|3:2|3:2,0:0:0:0:
376,201,69582,1,10,3:2:0:0:
376,201,69753,1,2,0:0:0:0:
461,131,70094,5,2,3:2:0:0:
461,131,70264,2,0,P|484:186|475:246,1,110.000003356934,10|14,3:2|3:2,0:0:0:0:
436,270,70776,2,0,P|377:254|325:247,1,110.000003356934,2|10,3:2|3:2,0:0:0:0:
273,246,71287,2,0,P|242:254|212:259,1,55.0000016784668,6|8,1:2|3:2,0:0:0:0:
165,270,71628,1,12,3:2:0:0:
207,371,71969,2,0,P|237:364|270:358,1,55.0000016784668,4|8,3:2|3:2,0:0:0:0:
314,340,72310,5,12,3:2:0:0:
314,340,72480,2,0,P|368:301|417:313,1,110.000003356934,6|0,3:2|3:2,0:0:0:0:
454,280,72991,2,0,L|444:216,1,55.0000016784668,10|2,3:2|0:0,0:0:0:0:
434,171,73332,1,2,3:2:0:0:
444,61,73673,2,0,L|380:71,1,55.0000016784668,10|6,3:2|3:2,0:0:0:0:
337,50,74014,2,0,P|328:16|314:-9,2,55.0000016784668,2|2|8,0:0|3:2|3:2,0:0:0:0:
295,86,74526,2,0,P|248:77|178:72,1,110.000003356934,2|2,0:0|3:2,0:0:0:0:
145,43,75037,5,8,3:2:0:0:
145,43,75207,1,6,3:2:0:0:
58,110,75548,2,0,L|45:174,1,55.0000016784668,2|8,3:2|3:2,0:0:0:0:
34,217,75889,1,6,0:0:0:0:
131,267,76230,2,0,L|144:331,1,55.0000016784668,2|8,3:2|3:2,0:0:0:0:
155,374,76571,1,6,3:2:0:0:
258,330,76912,1,0,3:2:0:0:
258,330,77082,2,0,L|271:256,2,55.0000016784668,8|8|0,3:2|3:2|3:2,0:0:0:0:
358,375,77764,1,8,3:2:0:0:
424,287,78105,6,0,L|436:213,1,55.0000016784668,6|0,3:2|3:2,0:0:0:0:
444,178,78446,1,8,3:2:0:0:
367,99,78787,2,0,L|293:111,1,55.0000016784668,2|0,3:2|3:2,0:0:0:0:
258,119,79128,1,8,3:2:0:0:
166,180,79469,2,0,P|118:184|59:137,2,110.000003356934,2|10|2,3:2|3:2|3:2,0:0:0:0:
260,245,80491,1,10,3:2:0:0:
260,245,80662,1,2,0:0:0:0:
225,349,81003,5,2,3:2:0:0:
225,349,81173,2,0,P|282:352|335:318,1,110.000003356934,10|10,3:2|3:2,0:0:0:0:
370,292,81685,2,0,P|358:243|347:175,1,110.000003356934,2|2,3:2|3:2,0:0:0:0:
375,135,82196,2,0,P|384:108|387:69,1,55.0000016784668,2|0,1:2|3:2,0:0:0:0:
382,26,82537,1,12,3:2:0:0:
275,54,82878,2,0,L|217:60,1,55.0000016784668,10|8,3:2|3:2,0:0:0:0:
187,104,83219,2,0,L|181:162,1,55.0000016784668,10|8,3:2|3:2,0:0:0:0:
212,205,83560,5,6,3:2:0:0:
212,205,83730,2,0,L|233:310,1,100,2|2,3:2|3:2,0:0:0:0:
198,340,84241,2,0,L|93:320,1,100,10|2,3:2|1:2,0:0:0:0:
50,309,84753,1,10,3:2:0:0:
100,224,85094,1,2,3:2:0:0:
100,224,85264,2,0,P|113:186|99:119,1,100,10|2,3:2|3:2,0:0:0:0:
87,80,85776,1,2,3:2:0:0:
167,19,86116,5,2,0:0:0:0:
167,19,86287,2,0,B|213:-2|213:-2|266:11,1,100,6|10,3:2|3:2,0:0:0:0:
297,44,86798,2,0,P|347:52|406:57,1,100,2|2,3:2|3:2,0:0:0:0:
446,56,87310,1,2,1:2:0:0:
496,148,87651,5,2,1:2:0:0:
496,148,87821,2,0,P|467:190|478:253,1,100,2|2,3:2|3:2,0:0:0:0:
432,270,88332,2,0,P|406:261|373:253,1,50,10|10,3:2|3:2,0:0:0:0:
340,243,88673,1,10,3:2:0:0:
340,243,88844,1,12,3:2:0:0:
