osu file format v14

[General]
AudioFilename: audio.mp3
AudioLeadIn: 0
PreviewTime: 50577
Countdown: 0
SampleSet: Soft
StackLeniency: 0.4
Mode: 0
LetterboxInBreaks: 0
WidescreenStoryboard: 1

[Editor]
DistanceSpacing: 1.4
BeatDivisor: 4
GridSize: 32
TimelineZoom: 1.9

[Metadata]
Title:Wonderland (TV Size)
TitleUnicode:ワンダーランド (TV Size)
Artist:FLiP
ArtistUnicode:FLiP
Creator:Smoke
Version:Hard
Source:銀魂’
Tags:opening op 11 odd jobs shinsengumi baragaki thorny arc gintama gintama' japanese anime rock j-rock kagura 神楽 Gintoki Sakata 坂田 銀時 Shinpachi Shimura 志村 新八 Kondou Isao 近藤 勲 Hijikata Toushirou 土方 十四郎 Okita Sougo 沖田 総悟 attendant
BeatmapID:2240609
BeatmapSetID:1070398

[Difficulty]
HPDrainRate:5.2
CircleSize:4
OverallDifficulty:6.2
ApproachRate:7.5
SliderMultiplier:1.3
SliderTickRate:1

[Events]
//Background and Video events
0,0,"gintoki all characters.jpg",0,0
Video,-1298,"OP 11.mp4"
//Break Periods
//Storyboard Layer 0 (Background)
//Storyboard Layer 1 (Fail)
//Storyboard Layer 2 (Pass)
//Storyboard Layer 3 (Foreground)
//Storyboard Layer 4 (Overlay)
//Storyboard Sound Samples

[TimingPoints]
379,340.909090909091,4,2,1,55,1,0
379,-125,4,2,1,55,0,0
1558,340.909090909091,4,2,1,55,1,0
1558,-100,4,2,1,65,0,0
1728,340.909090909091,4,2,1,55,1,0
1728,-100,4,2,1,65,0,0
12651,340.909090909091,4,2,1,55,1,0
12651,-125,4,2,1,65,0,0
21174,-111.111111111111,4,2,1,65,0,0
23475,-111.111111111111,4,2,1,5,0,0
23560,-125,4,2,1,65,0,0
32083,-111.111111111111,4,2,1,65,0,0
34298,-99.9999999999999,4,2,1,65,0,0
45378,-125,4,2,1,65,0,0
48105,-100,4,2,1,65,0,0
50662,-90.9090909090909,4,2,1,75,0,1
53646,-90.9090909090909,4,2,1,5,0,1
53731,-90.9090909090909,4,2,1,75,0,1
54327,-90.9090909090909,4,2,1,5,0,1
54412,-90.9090909090909,4,2,1,75,0,1
59100,-90.9090909090909,4,2,1,5,0,1
59185,-90.9090909090909,4,2,1,75,0,1
65918,-90.9090909090909,4,2,1,5,0,1
66003,-90.9090909090909,4,2,1,75,0,1
66600,-90.9090909090909,4,2,1,5,0,1
66685,-90.9090909090909,4,2,1,75,0,1
69157,-90.9090909090909,4,2,1,5,0,1
69242,-90.9090909090909,4,2,1,75,0,1
71969,-100,4,2,1,70,0,0
72480,-86.9565217391304,4,2,1,75,0,1
75464,-86.9565217391304,4,2,1,5,0,1
75549,-86.9565217391304,4,2,1,75,0,1
76146,-86.9565217391304,4,2,1,5,0,1
76231,-86.9565217391304,4,2,1,75,0,1
78702,-86.9565217391304,4,2,1,5,0,1
78787,-86.9565217391304,4,2,1,75,0,1
79384,-86.9565217391304,4,2,1,5,0,1
79469,-86.9565217391304,4,2,1,75,0,1
80066,-86.9565217391304,4,2,1,5,0,1
80151,-86.9565217391304,4,2,1,75,0,1
83560,-90.9090909090909,4,2,1,70,0,0

[Colours]
Combo1 : 190,102,227
Combo2 : 94,154,227
Combo3 : 105,194,214
Combo4 : 238,134,202

[HitObjects]
17,230,379,6,0,L|86:222,1,52,4|0,3:2|3:2,0:0:0:0:
163,196,719,2,0,P|151:232|155:269,1,52,8|8,3:2|3:2,0:0:0:0:
180,285,975,1,8,3:2:0:0:
189,294,1060,1,8,3:2:0:0:
270,275,1231,1,8,3:2:0:0:
350,256,1401,1,8,3:2:0:0:
448,291,1558,6,0,L|434:156,1,130,6|0,3:2|3:2,0:0:0:0:
369,97,2068,2,0,P|325:112|291:116,1,65,10|0,3:2|3:2,0:0:0:0:
216,130,2409,2,0,P|172:115|125:112,1,65,10|0,3:2|3:2,0:0:0:0:
62,112,2750,1,2,0:0:0:0:
62,112,2921,1,8,3:2:0:0:
5,191,3091,2,0,B|20:226|20:226|12:268,1,65,2|0,0:0|3:2,0:0:0:0:
75,320,3432,2,0,L|159:305,1,65,10|0,3:2|1:2,0:0:0:0:
214,257,3773,1,2,3:2:0:0:
214,257,3943,1,0,3:2:0:0:
286,312,4114,2,0,L|374:331,1,65,10|0,3:2|1:2,0:0:0:0:
423,272,4455,6,0,L|410:178,1,65,6|2,3:2|3:2,0:0:0:0:
374,125,4796,2,0,B|342:140|342:140|304:132,1,65,10|0,3:2|3:2,0:0:0:0:
251,66,5137,2,0,B|221:59|221:59|189:74,1,65,10|0,3:2|3:2,0:0:0:0:
111,120,5478,1,2,0:0:0:0:
111,120,5648,1,8,3:2:0:0:
166,191,5818,2,0,P|207:177|252:181,1,65,2|0,0:0|3:2,0:0:0:0:
286,247,6159,2,0,P|270:292|263:324,1,65,10|0,3:2|1:2,0:0:0:0:
184,350,6500,1,2,3:2:0:0:
184,350,6671,1,0,3:2:0:0:
100,313,6841,2,0,B|83:280|83:280|95:231,1,65,10|0,3:2|3:2,0:0:0:0:
106,163,7182,6,0,P|63:174|24:160,1,65,4|2,3:2|3:2,0:0:0:0:
84,71,7523,2,0,L|172:80,1,65,10|0,3:2|3:2,0:0:0:0:
234,108,7864,2,0,L|327:98,1,65,10|0,3:2|0:0,0:0:0:0:
379,59,8205,1,2,0:0:0:0:
379,59,8375,1,8,3:2:0:0:
445,124,8546,2,0,P|432:167|425:208,1,65,2|0,0:0|3:2,0:0:0:0:
431,280,8887,2,0,B|400:270|400:270|360:281,1,65,10|0,3:2|1:2,0:0:0:0:
281,312,9228,1,2,3:2:0:0:
281,312,9398,1,0,3:2:0:0:
225,239,9568,2,0,B|237:207|237:207|231:154,1,65,10|0,3:2|1:2,0:0:0:0:
266,71,9909,6,0,P|228:79|191:81,1,65,4|0,3:2|3:2,0:0:0:0:
112,46,10250,2,0,L|102:131,1,65,10|0,3:2|3:2,0:0:0:0:
29,162,10591,2,0,L|41:253,1,65,10|0,3:2|0:0,0:0:0:0:
86,303,10932,1,2,0:0:0:0:
86,303,11103,1,8,3:2:0:0:
174,280,11273,2,0,P|216:290|264:296,1,65,2|0,0:0|3:2,0:0:0:0:
320,330,11614,2,0,P|362:320|408:316,1,65,10|0,3:2|0:0,0:0:0:0:
419,289,11870,1,8,3:2:0:0:
416,276,11955,1,10,3:2:0:0:
404,185,12125,1,8,3:2:0:0:
450,106,12296,1,8,3:2:0:0:
450,106,12466,1,8,3:2:0:0:
380,36,12651,6,0,L|308:42,1,52,6|0,3:2|3:2,0:0:0:0:
250,83,12991,2,0,P|188:87|152:49,1,104,10|0,3:2|3:2,0:0:0:0:
81,106,13503,1,0,3:2:0:0:
81,106,13673,2,0,B|91:132|91:132|81:163,1,52,10|0,3:2|3:2,0:0:0:0:
31,227,14014,2,0,P|76:193|131:210,1,104,2|10,3:2|3:2,0:0:0:0:
178,268,14526,2,0,P|240:258|297:256,1,104,2|0,3:2|3:2,0:0:0:0:
368,237,15037,2,0,L|359:296,1,52,8|0,3:2|3:2,0:0:0:0:
420,353,15378,6,0,P|446:340|480:334,1,52,2|0,3:2|3:2,0:0:0:0:
508,256,15719,2,0,P|495:205|498:154,1,104,10|0,3:2|3:2,0:0:0:0:
442,84,16230,1,0,3:2:0:0:
442,84,16401,2,0,B|417:96|417:96|385:90,1,52,10|0,3:2|3:2,0:0:0:0:
321,39,16741,2,0,P|273:21|206:30,1,104,2|10,3:2|3:2,0:0:0:0:
160,90,17253,2,0,P|179:151|190:204,1,104,2|0,3:2|3:2,0:0:0:0:
206,276,17764,1,8,3:2:0:0:
45,349,18105,6,0,L|58:275,1,52,2|2,3:2|3:2,0:0:0:0:
12,219,18446,1,10,3:2:0:0:
12,219,18616,2,0,L|7:106,1,104,2|2,3:2|3:2,0:0:0:0:
60,43,19128,1,8,3:2:0:0:
60,43,19298,2,0,L|114:39,1,52,2|0,3:2|3:2,0:0:0:0:
196,11,19639,2,0,L|250:15,1,52,2|8,3:2|3:2,0:0:0:0:
310,77,19980,2,0,P|300:102|294:127,1,52,2|0,3:2|3:2,0:0:0:0:
358,187,20321,2,0,P|383:177|408:171,1,52,2|8,3:2|3:2,0:0:0:0:
495,163,20662,1,2,3:2:0:0:
498,175,20747,1,8,3:2:0:0:
501,187,20832,2,0,L|493:255,1,52,0|0,3:2|3:2,0:0:0:0:
484,326,21173,5,10,3:2:0:0:
399,300,21344,1,0,3:2:0:0:
399,300,21514,2,0,B|369:292|369:292|333:309,1,58.4999982147217,10|0,3:2|3:2,0:0:0:0:
269,349,21855,1,0,1:2:0:0:
269,349,22026,2,0,B|244:360|244:360|214:352,1,58.4999982147217,10|0,3:2|1:2,0:0:0:0:
128,330,22366,1,0,3:2:0:0:
128,330,22537,2,0,B|98:322|98:322|73:333,1,58.4999982147217,10|8,3:2|3:2,0:0:0:0:
2,279,22878,1,0,3:2:0:0:
52,207,23048,1,0,3:2:0:0:
52,207,23219,2,0,P|43:159|42:113,1,87.7499973220826,10|0,3:2|0:0,0:0:0:0:
71,86,23560,6,0,P|98:94|139:101,1,52,6|0,3:2|3:2,0:0:0:0:
202,61,23901,2,0,P|265:40|306:54,1,104,10|0,3:2|3:2,0:0:0:0:
365,110,24412,1,0,3:2:0:0:
365,110,24582,2,0,P|392:104|424:103,1,52,10|0,3:2|3:2,0:0:0:0:
489,53,24923,2,0,P|459:97|478:156,1,104,2|10,3:2|3:2,0:0:0:0:
489,230,25435,2,0,L|369:220,1,104,2|0,3:2|3:2,0:0:0:0:
296,211,25946,1,10,3:2:0:0:
384,364,26287,5,0,3:2:0:0:
384,364,26457,2,0,L|391:298,1,52,2|8,3:2|3:2,0:0:0:0:
303,333,26798,1,2,3:2:0:0:
303,333,26969,2,0,P|278:337|240:325,1,52,2|0,3:2|3:2,0:0:0:0:
212,310,27224,1,2,0:0:0:0:
203,300,27310,2,0,L|210:231,1,52,8|2,3:2|3:2,0:0:0:0:
158,174,27651,2,0,L|91:182,1,52,2|0,3:2|3:2,0:0:0:0:
67,159,27906,1,2,0:0:0:0:
59,148,27991,2,0,P|70:114|76:90,1,52,8|2,3:2|3:2,0:0:0:0:
24,24,28332,2,0,P|64:56|120:47,1,104,2|8,3:2|3:2,0:0:0:0:
192,10,28844,5,2,3:2:0:0:
204,13,28929,1,8,3:2:0:0:
216,16,29014,2,0,L|279:30,1,52,2|2,3:2|3:2,0:0:0:0:
330,88,29355,1,8,3:2:0:0:
330,88,29526,2,0,P|361:80|398:76,1,52,2|0,3:2|3:2,0:0:0:0:
467,59,29866,2,0,L|461:116,1,52,2|8,3:2|3:2,0:0:0:0:
451,198,30207,2,0,B|427:189|427:189|395:195,1,52,2|0,3:2|3:2,0:0:0:0:
314,211,30548,2,0,B|288:215|288:215|264:206,1,52,2|8,3:2|3:2,0:0:0:0:
181,174,30889,2,0,L|187:250,1,52,2|0,3:2|3:2,0:0:0:0:
117,283,31230,2,0,P|91:274|55:269,1,52,2|8,3:2|3:2,0:0:0:0:
5,205,31571,1,2,3:2:0:0:
7,192,31656,1,8,3:2:0:0:
9,179,31741,2,0,L|18:109,1,52,0|0,3:2|3:2,0:0:0:0:
31,40,32082,5,10,3:2:0:0:
114,67,32253,1,0,3:2:0:0:
114,67,32423,2,0,B|145:77|145:77|173:69,1,58.4999982147217,10|0,3:2|3:2,0:0:0:0:
254,44,32764,1,0,1:2:0:0:
254,44,32935,2,0,B|278:36|278:36|309:46,1,58.4999982147217,10|0,3:2|1:2,0:0:0:0:
392,75,33276,1,0,3:2:0:0:
392,75,33446,2,0,B|423:85|423:85|447:77,1,58.4999982147217,10|8,3:2|3:2,0:0:0:0:
483,102,33702,1,8,3:2:0:0:
485,116,33787,1,8,3:2:0:0:
495,202,33957,1,8,3:2:0:0:
505,289,34128,1,8,3:2:0:0:
426,346,34298,6,0,P|368:332|297:322,1,130,4|0,3:2|3:2,0:0:0:0:
209,344,34810,1,8,3:2:0:0:
51,252,35151,2,0,L|42:333,2,65,2|0|10,0:0|3:2|3:2,0:0:0:0:
110,182,35662,6,0,P|121:123|81:61,1,130,4|0,3:2|3:2,0:0:0:0:
5,22,36173,1,8,3:2:0:0:
186,38,36514,2,0,L|261:26,2,65,2|0|10,0:0|3:2|3:2,0:0:0:0:
230,117,37026,6,0,L|372:96,1,130,4|0,3:2|3:2,0:0:0:0:
449,84,37537,1,8,3:2:0:0:
512,242,37878,2,0,P|481:236|448:234,1,65,10|0,3:2|3:2,0:0:0:0:
364,194,38219,1,2,0:0:0:0:
310,272,38389,1,4,3:2:0:0:
220,258,38560,2,0,L|130:244,1,65,2|0,0:0|3:2,0:0:0:0:
56,272,38901,2,0,L|70:182,1,65,10|8,3:2|3:2,0:0:0:0:
59,162,39156,1,8,3:2:0:0:
62,149,39241,1,10,3:2:0:0:
116,84,39412,1,8,3:2:0:0:
200,79,39582,1,10,3:2:0:0:
285,150,39753,6,0,P|354:135|430:127,1,130,4|0,3:2|3:2,0:0:0:0:
496,164,40264,1,8,3:2:0:0:
392,313,40605,2,0,L|400:244,2,65,2|0|10,0:0|3:2|3:2,0:0:0:0:
310,354,41116,6,0,P|251:360|199:308,1,130,4|0,3:2|3:2,0:0:0:0:
176,226,41628,1,8,3:2:0:0:
10,299,41969,2,0,L|22:376,2,65,2|0|10,0:0|3:2|3:2,0:0:0:0:
49,215,42480,6,0,B|62:154|62:154|42:87,1,130,4|0,3:2|3:2,0:0:0:0:
15,2,42991,1,8,3:2:0:0:
181,74,43332,2,0,L|248:65,1,65,14|0,3:2|3:2,0:0:0:0:
329,30,43673,2,0,L|396:39,1,65,2|4,0:0|3:2,0:0:0:0:
458,103,44014,2,0,P|445:139|434:188,1,65,2|0,0:0|3:2,0:0:0:0:
479,246,44355,2,0,P|485:280|488:320,1,65,10|8,3:2|3:2,0:0:0:0:
460,350,44611,1,8,3:2:0:0:
448,356,44696,1,8,3:3:0:0:
367,379,44866,1,4,3:3:0:0:
290,341,45037,1,12,3:3:0:0:
271,258,45207,1,0,3:2:0:0:
173,296,45378,6,0,P|120:285|57:277,1,104,4|0,3:2|3:2,0:0:0:0:
2,326,45889,1,0,3:2:0:0:
2,326,46060,2,0,P|32:276|15:218,1,104,10|0,3:2|3:2,0:0:0:0:
74,165,46571,2,0,P|105:172|141:175,1,52,8|2,3:3|3:2,0:0:0:0:
196,130,46912,2,0,B|180:81|180:81|200:28,1,104,8|0,3:2|3:2,0:0:0:0:
281,22,47423,2,0,P|335:37|395:42,1,104,10|0,3:2|3:2,0:0:0:0:
464,28,47935,5,8,3:2:0:0:
466,40,48020,1,8,3:2:0:0:
468,52,48105,2,0,L|454:138,1,65,4|8,3:2|3:2,0:0:0:0:
392,180,48446,2,0,P|400:218|404:260,1,65,8|8,3:2|3:2,0:0:0:0:
409,288,48702,1,8,3:2:0:0:
411,300,48787,1,10,3:2:0:0:
348,357,48957,1,8,3:3:0:0:
265,339,49128,1,4,3:3:0:0:
242,257,49298,1,12,3:3:0:0:
339,194,49469,1,10,3:2:0:0:
21,359,50662,6,0,P|19:284|6:202,1,143.000004364014,6|0,3:2|3:2,0:0:0:0:
63,132,51173,1,10,3:2:0:0:
156,180,51344,1,2,0:0:0:0:
156,180,51514,2,0,L|250:170,1,71.5000021820069,2|0,3:2|3:2,0:0:0:0:
307,112,51855,1,10,3:2:0:0:
401,144,52026,1,6,3:2:0:0:
466,68,52196,1,2,0:0:0:0:
466,68,52366,2,0,P|428:61|385:57,1,71.5000021820069,2|8,3:2|3:2,0:0:0:0:
299,5,52707,2,0,P|260:5|217:19,1,71.5000021820069,2|0,0:0|3:2,0:0:0:0:
142,67,53048,1,2,3:2:0:0:
200,154,53219,1,8,3:2:0:0:
200,154,53389,6,0,B|236:141|236:141|276:149,1,71.5000021820069,6|0,3:2|0:0,0:0:0:0:
366,168,53730,2,0,B|398:174|398:174|434:161,1,71.5000021820069,2|8,3:2|3:2,0:0:0:0:
507,249,54071,2,0,P|498:290|494:326,1,71.5000021820069,6|0,0:0|3:2,0:0:0:0:
394,348,54412,2,0,P|353:339|317:334,1,71.5000021820069,2|8,3:2|3:2,0:0:0:0:
222,279,54753,2,0,P|162:314|80:292,1,143.000004364014,6|0,3:2|3:2,0:0:0:0:
35,218,55264,2,0,L|-3:222,2,35.7500010910034,8|8|8,3:2|3:2|3:2,0:0:0:0:
120,164,55605,1,0,3:2:0:0:
120,164,55776,1,0,3:2:0:0:
63,81,55946,1,8,3:2:0:0:
135,12,56116,6,0,P|193:27|296:30,1,143.000004364014,6|2,3:2|3:2,0:0:0:0:
374,9,56628,1,10,3:2:0:0:
462,55,56798,1,2,0:0:0:0:
462,55,56969,2,0,L|446:139,1,71.5000021820069,2|0,3:2|3:2,0:0:0:0:
381,199,57310,1,10,3:2:0:0:
381,199,57480,2,0,B|400:233|400:233|393:278,1,71.5000021820069,6|0,3:2|0:0,0:0:0:0:
323,339,57821,1,2,3:2:0:0:
225,332,57991,1,8,3:2:0:0:
163,256,58162,2,0,L|180:170,1,71.5000021820069,2|0,0:0|3:2,0:0:0:0:
237,106,58503,2,0,L|220:20,1,71.5000021820069,2|8,3:2|3:2,0:0:0:0:
126,12,58844,6,0,P|96:22|46:31,1,71.5000021820069,6|0,3:2|0:0,0:0:0:0:
7,117,59185,2,0,B|23:151|23:151|13:191,1,71.5000021820069,2|8,3:2|3:2,0:0:0:0:
85,255,59526,2,0,B|119:239|119:239|159:249,1,71.5000021820069,2|8,3:2|3:2,0:0:0:0:
248,274,59866,2,0,L|335:259,1,71.5000021820069,2|8,3:2|3:2,0:0:0:0:
396,198,60207,2,0,P|355:235|387:318,1,143.000004364014,6|0,3:2|3:2,0:0:0:0:
468,354,60719,1,8,3:2:0:0:
468,354,60889,1,0,3:2:0:0:
507,262,61060,2,0,L|496:170,1,71.5000021820069,2|2,3:2|3:2,0:0:0:0:
450,103,61401,1,8,3:2:0:0:
351,123,61571,6,0,P|283:107|201:97,1,143.000004364014,6|0,3:2|3:2,0:0:0:0:
132,34,62082,1,8,3:2:0:0:
18,199,62423,2,0,P|55:191|102:184,1,71.5000021820069,2|2,3:2|3:2,0:0:0:0:
178,230,62764,1,8,3:2:0:0:
122,312,62935,6,0,P|182:275|252:300,1,143.000004364014,6|0,3:2|3:2,0:0:0:0:
323,361,63446,1,8,3:2:0:0:
403,301,63616,1,2,0:0:0:0:
403,301,63787,2,0,L|391:201,1,71.5000021820069,2|2,3:2|3:2,0:0:0:0:
349,140,64128,1,8,3:2:0:0:
415,65,64298,6,0,P|371:106|266:91,1,143.000004364014,6|0,3:2|3:2,0:0:0:0:
331,14,64810,1,8,3:2:0:0:
131,2,65151,2,0,L|144:73,1,71.5000021820069,2|2,3:2|3:2,0:0:0:0:
211,146,65491,1,8,3:2:0:0:
144,221,65662,2,0,P|105:212|57:207,1,71.5000021820069,6|0,3:2|0:0,0:0:0:0:
8,289,66003,1,2,3:2:0:0:
89,359,66173,1,8,3:2:0:0:
89,359,66344,2,0,P|128:350|169:344,1,71.5000021820069,6|0,3:2|3:2,0:0:0:0:
257,305,66685,2,0,B|240:273|240:273|246:235,1,71.5000021820069,2|8,3:2|3:2,0:0:0:0:
313,164,67026,1,8,3:2:0:0:
398,217,67196,6,0,P|457:222|511:152,1,143.000004364014,6|8,3:2|3:2,0:0:0:0:
470,70,67707,1,0,0:0:0:0:
470,70,67878,2,0,L|305:57,1,143.000004364014,2|8,3:2|3:2,0:0:0:0:
230,32,68389,1,0,0:0:0:0:
230,32,68560,2,0,L|245:112,1,71.5000021820069,2|0,3:2|3:2,0:0:0:0:
168,169,68901,2,0,B|136:155|136:155|91:160,1,71.5000021820069,10|0,3:2|0:0,0:0:0:0:
15,213,69241,2,0,L|34:288,1,71.5000021820069,2|0,3:2|3:2,0:0:0:0:
108,348,69582,1,10,3:2:0:0:
108,348,69753,2,0,L|186:336,1,71.5000021820069,2|4,0:0|3:2,0:0:0:0:
270,292,70094,5,2,3:2:0:0:
270,292,70264,2,0,P|305:307|347:310,1,71.5000021820069,10|0,3:2|3:2,0:0:0:0:
442,300,70605,1,14,3:2:0:0:
456,198,70776,2,0,P|451:162|437:130,1,71.5000021820069,2|8,3:2|3:2,0:0:0:0:
366,53,71116,1,10,3:2:0:0:
270,88,71287,2,0,P|241:109|220:138,1,71.5000021820069,6|8,1:2|3:2,0:0:0:0:
139,218,71628,2,0,P|133:175|123:135,1,71.5000021820069,12|8,3:2|3:2,0:0:0:0:
110,100,71883,1,8,3:2:0:0:
104,88,71969,1,4,3:2:0:0:
160,16,72139,1,8,3:2:0:0:
250,7,72310,1,12,3:2:0:0:
335,68,72480,6,0,P|396:50|478:107,1,149.500002851486,6|0,3:2|3:2,0:0:0:0:
506,186,72991,1,10,3:2:0:0:
419,245,73162,1,2,0:0:0:0:
419,245,73332,2,0,P|379:237|329:234,1,74.7500014257431,2|0,3:2|3:2,0:0:0:0:
248,274,73673,1,10,3:2:0:0:
271,365,73844,1,6,3:2:0:0:
176,343,74014,1,2,0:0:0:0:
176,343,74185,2,0,P|138:336|92:331,1,74.7500014257431,2|8,3:2|3:2,0:0:0:0:
27,254,74526,2,0,L|16:168,1,74.7500014257431,2|0,0:0|3:2,0:0:0:0:
8,79,74866,1,2,3:2:0:0:
92,18,75037,1,8,3:2:0:0:
92,18,75207,6,0,P|130:39|175:44,1,74.7500014257431,6|0,3:2|0:0,0:0:0:0:
262,40,75548,2,0,B|242:77|242:77|251:118,1,74.7500014257431,2|8,3:2|3:2,0:0:0:0:
365,160,75889,2,0,L|442:144,1,74.7500014257431,6|0,0:0|3:2,0:0:0:0:
504,222,76230,2,0,L|487:309,1,74.7500014257431,2|8,3:2|3:2,0:0:0:0:
376,333,76571,2,0,P|311:317|228:306,1,149.500002851486,6|0,3:2|3:2,0:0:0:0:
132,347,77082,2,0,L|138:397,2,37.3750007128716,8|8|8,3:2|3:2|3:2,0:0:0:0:
65,266,77423,1,0,3:2:0:0:
65,266,77594,1,0,3:2:0:0:
124,179,77764,2,0,L|116:99,1,74.7500014257431,8|0,3:2|3:2,0:0:0:0:
140,65,78020,5,0,3:2:0:0:
154,61,78105,2,0,P|205:102|288:74,1,149.500002851486,6|8,3:2|3:2,0:0:0:0:
367,141,78616,1,0,0:0:0:0:
367,141,78787,2,0,P|345:206|330:309,1,149.500002851486,2|8,3:2|3:2,0:0:0:0:
240,338,79298,1,0,0:0:0:0:
240,338,79469,2,0,P|209:318|141:318,1,74.7500014257431,2|0,3:2|3:2,0:0:0:0:
68,327,79810,2,0,P|88:296|88:228,1,74.7500014257431,10|0,3:2|0:0,0:0:0:0:
74,156,80151,2,0,P|105:175|173:175,1,74.7500014257431,2|0,3:2|3:2,0:0:0:0:
230,125,80491,1,10,3:2:0:0:
230,125,80662,2,0,L|222:47,1,74.7500014257431,2|0,0:0|3:2,0:0:0:0:
311,0,81003,5,2,3:2:0:0:
311,0,81173,2,0,B|340:26|340:26|382:32,1,74.7500014257431,10|0,3:2|3:2,0:0:0:0:
451,102,81514,1,10,3:2:0:0:
451,102,81685,2,0,B|413:114|413:114|387:147,1,74.7500014257431,2|0,3:2|1:2,0:0:0:0:
436,236,82026,1,2,3:2:0:0:
436,236,82196,2,0,B|453:271|453:271|447:313,1,74.7500014257431,2|0,1:2|3:2,0:0:0:0:
353,351,82537,2,0,P|321:342|279:335,1,74.7500014257431,12|0,3:2|3:2,0:0:0:0:
236,323,82793,1,0,3:2:0:0:
230,312,82878,2,0,B|218:275|218:275|227:237,1,74.7500014257431,10|8,3:2|3:2,0:0:0:0:
256,140,83219,2,0,B|264:105|264:105|252:68,1,74.7500014257431,10|8,3:2|3:2,0:0:0:0:
170,17,83560,5,6,3:2:0:0:
170,17,83730,2,0,P|136:25|93:27,1,71.5000021820069,2|8,3:2|3:2,0:0:0:0:
36,105,84071,1,2,3:2:0:0:
36,105,84241,2,0,P|57:142|68:179,1,71.5000021820069,10|0,3:2|3:2,0:0:0:0:
67,269,84582,1,2,1:2:0:0:
67,269,84753,2,0,P|117:235|203:261,1,143.000004364014,10|2,3:2|3:2,0:0:0:0:
268,318,85264,2,0,P|308:304|347:300,1,71.5000021820069,10|8,3:2|3:2,0:0:0:0:
432,329,85605,1,2,3:2:0:0:
432,329,85776,2,0,B|418:293|418:293|429:258,1,71.5000021820069,2|8,3:2|3:2,0:0:0:0:
458,166,86116,5,2,0:0:0:0:
458,166,86287,2,0,L|446:81,1,71.5000021820069,6|0,3:2|3:2,0:0:0:0:
377,23,86628,1,10,3:2:0:0:
377,23,86798,2,0,L|306:13,1,71.5000021820069,2|12,3:2|3:2,0:0:0:0:
225,72,87139,1,2,3:2:0:0:
225,72,87310,2,0,P|244:106|254:147,1,71.5000021820069,2|8,1:2|3:2,0:0:0:0:
180,207,87651,5,2,1:2:0:0:
83,179,87821,2,0,L|91:253,1,71.5000021820069,2|8,3:2|3:2,0:0:0:0:
172,307,88162,1,2,3:2:0:0:
272,269,88332,1,10,3:2:0:0:
272,269,88503,1,10,3:2:0:0:
370,325,88673,1,10,3:2:0:0:
476,276,88844,1,12,3:2:0:0:
