osu file format v14

[General]
AudioFilename: audio.mp3
AudioLeadIn: 0
PreviewTime: -1
Countdown: 1
SampleSet: Normal
StackLeniency: 0.7
Mode: 2
LetterboxInBreaks: 0
WidescreenStoryboard: 0

[Editor]
Bookmarks: 29000,31500,32374,36416,36833,37500,38250
DistanceSpacing: 0.9
BeatDivisor: 16
GridSize: 32
TimelineZoom: 7.299994

[Metadata]
Title:CTB MAZE
TitleUnicode:CTB MAZE
Artist:FLOWEY BATTLE
ArtistUnicode:FLOWEY BATTLE
Creator:Grundle
Version:just an idea :/ (YOU NEED NOFAIL)
Source:
Tags:
BeatmapID:952794
BeatmapSetID:443117

[Difficulty]
HPDrainRate:0
CircleSize:7
OverallDifficulty:10
ApproachRate:9
SliderMultiplier:1.4
SliderTickRate:1

[Events]
//Background and Video events
//Break Periods
//Storyboard Layer 0 (Background)
//Storyboard Layer 1 (Fail)
//Storyboard Layer 2 (Pass)
//Storyboard Layer 3 (Foreground)
//Storyboard Sound Samples

[TimingPoints]
0,500,4,1,0,100,1,0
34742,-50,4,1,0,100,0,0
39593,250,4,1,0,100,1,0

[HitObjects]
192,352,29125,5,0,0:0:0:0:
320,352,29125,1,0,0:0:0:0:
64,352,29125,1,0,0:0:0:0:
448,352,29125,1,0,0:0:0:0:
128,256,29334,5,0,0:0:0:0:
0,256,29334,1,0,0:0:0:0:
384,256,29334,1,0,0:0:0:0:
256,256,29334,1,0,0:0:0:0:
512,256,29334,1,0,0:0:0:0:
448,160,29459,5,0,0:0:0:0:
0,160,29459,1,0,0:0:0:0:
128,160,29459,1,0,0:0:0:0:
288,160,29459,1,0,0:0:0:0:
160,128,29500,5,0,0:0:0:0:
288,128,29500,1,0,0:0:0:0:
416,128,29500,1,0,0:0:0:0:
0,128,29500,1,0,0:0:0:0:
448,64,29667,5,0,0:0:0:0:
32,64,29667,1,0,0:0:0:0:
320,64,29667,1,0,0:0:0:0:
192,64,29667,1,0,0:0:0:0:
160,32,29708,5,0,0:0:0:0:
0,32,29708,1,0,0:0:0:0:
352,32,29708,1,0,0:0:0:0:
480,32,29708,1,0,0:0:0:0:
32,352,29875,5,0,0:0:0:0:
64,352,29875,1,0,0:0:0:0:
320,352,29875,1,0,0:0:0:0:
480,352,29875,1,0,0:0:0:0:
192,352,29875,1,0,0:0:0:0:
352,352,29875,1,0,0:0:0:0:
352,256,30084,5,0,0:0:0:0:
64,256,30084,1,0,0:0:0:0:
512,256,30084,1,0,0:0:0:0:
224,256,30084,1,0,0:0:0:0:
384,224,30125,5,0,0:0:0:0:
96,224,30125,1,0,0:0:0:0:
192,128,30292,5,0,0:0:0:0:
64,128,30292,1,0,0:0:0:0:
320,128,30292,1,0,0:0:0:0:
448,128,30292,1,0,0:0:0:0:
128,32,30501,5,0,0:0:0:0:
256,32,30501,1,0,0:0:0:0:
512,32,30501,1,0,0:0:0:0:
384,32,30501,1,0,0:0:0:0:
0,32,30501,1,0,0:0:0:0:
192,384,32000,5,0,0:0:0:0:
320,384,32000,5,0,0:0:0:0:
64,288,32124,1,0,0:0:0:0:
448,288,32124,1,0,0:0:0:0:
192,192,32249,1,0,0:0:0:0:
320,192,32249,1,0,0:0:0:0:
0,128,32458,5,0,0:0:0:0:
128,128,32458,1,0,0:0:0:0:
256,128,32458,1,0,0:0:0:0:
384,128,32458,1,0,0:0:0:0:
512,128,32458,1,0,0:0:0:0:
64,96,32666,1,0,0:0:0:0:
512,96,32666,1,0,0:0:0:0:
224,96,32666,1,0,0:0:0:0:
352,96,32666,1,0,0:0:0:0:
384,64,32749,5,0,0:0:0:0:
128,64,32749,1,0,0:0:0:0:
256,64,32749,1,0,0:0:0:0:
512,64,32749,1,0,0:0:0:0:
0,64,32749,1,0,0:0:0:0:
512,32,32791,5,0,0:0:0:0:
256,32,32791,1,0,0:0:0:0:
128,32,32791,1,0,0:0:0:0:
384,32,32791,1,0,0:0:0:0:
0,32,32791,1,0,0:0:0:0:
64,0,35000,2,0,B|448:96|448:96|64:192|64:192|448:288|448:288|256:384|256:384,1,1400
384,64,36833,5,0,0:0:0:0:
64,64,36834,5,0,0:0:0:0:
352,96,36874,5,0,0:0:0:0:
32,96,36875,5,0,0:0:0:0:
320,128,36916,5,0,0:0:0:0:
0,128,36917,1,0,0:0:0:0:
448,64,37208,5,0,0:0:0:0:
192,32,37209,5,0,0:0:0:0:
448,96,37249,5,0,0:0:0:0:
224,64,37250,5,0,0:0:0:0:
448,128,37291,5,0,0:0:0:0:
256,96,37291,5,0,0:0:0:0:
352,32,37915,1,0,0:0:0:0:
128,32,37916,5,0,0:0:0:0:
384,64,37956,5,0,0:0:0:0:
128,64,37957,1,0,0:0:0:0:
416,96,37998,5,0,0:0:0:0:
128,90,37999,5,0,0:0:0:0:
128,32,38666,5,0,0:0:0:0:
384,32,38667,5,0,0:0:0:0:
160,64,38707,5,0,0:0:0:0:
352,64,38708,5,0,0:0:0:0:
192,96,38749,5,0,0:0:0:0:
320,96,38750,5,0,0:0:0:0:
0,384,39593,1,0,0:0:0:0:
32,352,39608,1,0,0:0:0:0:
64,320,39624,1,0,0:0:0:0:
96,288,39639,1,0,0:0:0:0:
128,256,39655,1,0,0:0:0:0:
160,224,39671,1,0,0:0:0:0:
192,192,39686,1,0,0:0:0:0:
224,160,39702,1,0,0:0:0:0:
256,128,39718,1,0,0:0:0:0:
288,96,39733,1,0,0:0:0:0:
320,64,39749,1,0,0:0:0:0:
352,32,39764,1,0,0:0:0:0:
384,0,39780,1,0,0:0:0:0:
512,384,40374,1,0,0:0:0:0:
480,352,40389,1,0,0:0:0:0:
448,320,40405,1,0,0:0:0:0:
416,288,40420,1,0,0:0:0:0:
384,256,40436,1,0,0:0:0:0:
352,224,40452,1,0,0:0:0:0:
320,192,40467,1,0,0:0:0:0:
288,160,40483,1,0,0:0:0:0:
256,128,40499,1,0,0:0:0:0:
224,96,40514,1,0,0:0:0:0:
192,64,40530,1,0,0:0:0:0:
160,32,40545,1,0,0:0:0:0:
128,0,40561,1,0,0:0:0:0:
0,384,41093,1,0,0:0:0:0:
32,352,41108,1,0,0:0:0:0:
64,320,41124,1,0,0:0:0:0:
96,288,41139,1,0,0:0:0:0:
128,256,41155,1,0,0:0:0:0:
160,224,41171,1,0,0:0:0:0:
192,192,41186,1,0,0:0:0:0:
224,160,41202,1,0,0:0:0:0:
256,128,41218,1,0,0:0:0:0:
288,96,41233,1,0,0:0:0:0:
320,64,41249,1,0,0:0:0:0:
352,32,41264,1,0,0:0:0:0:
384,0,41280,1,0,0:0:0:0:
192,352,42030,5,0,0:0:0:0:
64,352,42030,1,0,0:0:0:0:
448,352,42030,1,0,0:0:0:0:
320,352,42030,1,0,0:0:0:0:
128,256,42239,5,0,0:0:0:0:
0,256,42239,1,0,0:0:0:0:
384,256,42239,1,0,0:0:0:0:
512,256,42239,1,0,0:0:0:0:
256,256,42239,1,0,0:0:0:0:
448,160,42364,5,0,0:0:0:0:
128,160,42364,1,0,0:0:0:0:
288,160,42364,1,0,0:0:0:0:
0,160,42364,1,0,0:0:0:0:
160,128,42405,5,0,0:0:0:0:
416,128,42405,1,0,0:0:0:0:
288,128,42405,1,0,0:0:0:0:
0,128,42405,1,0,0:0:0:0:
448,64,42572,5,0,0:0:0:0:
320,64,42572,1,0,0:0:0:0:
192,64,42572,1,0,0:0:0:0:
32,64,42572,1,0,0:0:0:0:
160,32,42613,5,0,0:0:0:0:
352,32,42613,1,0,0:0:0:0:
0,32,42613,1,0,0:0:0:0:
480,32,42613,1,0,0:0:0:0:
32,352,42780,5,0,0:0:0:0:
480,352,42780,1,0,0:0:0:0:
192,352,42780,1,0,0:0:0:0:
352,352,42780,1,0,0:0:0:0:
64,352,42780,1,0,0:0:0:0:
320,352,42780,1,0,0:0:0:0:
352,256,42989,5,0,0:0:0:0:
512,256,42989,1,0,0:0:0:0:
64,256,42989,1,0,0:0:0:0:
224,256,42989,1,0,0:0:0:0:
384,224,43030,5,0,0:0:0:0:
96,224,43030,1,0,0:0:0:0:
192,128,43197,5,0,0:0:0:0:
320,128,43197,1,0,0:0:0:0:
64,128,43197,1,0,0:0:0:0:
448,128,43197,1,0,0:0:0:0:
128,32,43406,5,0,0:0:0:0:
384,32,43406,1,0,0:0:0:0:
0,32,43406,1,0,0:0:0:0:
512,32,43406,1,0,0:0:0:0:
256,32,43406,1,0,0:0:0:0:
192,352,43561,5,0,0:0:0:0:
320,352,43561,1,0,0:0:0:0:
64,352,43561,1,0,0:0:0:0:
448,352,43561,1,0,0:0:0:0:
128,256,43770,5,0,0:0:0:0:
0,256,43770,1,0,0:0:0:0:
512,256,43770,1,0,0:0:0:0:
384,256,43770,1,0,0:0:0:0:
256,256,43770,1,0,0:0:0:0:
448,160,43895,5,0,0:0:0:0:
0,160,43895,1,0,0:0:0:0:
288,160,43895,1,0,0:0:0:0:
128,160,43895,1,0,0:0:0:0:
160,128,43936,5,0,0:0:0:0:
288,128,43936,1,0,0:0:0:0:
0,128,43936,1,0,0:0:0:0:
416,128,43936,1,0,0:0:0:0:
448,64,44103,5,0,0:0:0:0:
320,64,44103,1,0,0:0:0:0:
192,64,44103,1,0,0:0:0:0:
32,64,44103,1,0,0:0:0:0:
160,32,44144,5,0,0:0:0:0:
352,32,44144,1,0,0:0:0:0:
480,32,44144,1,0,0:0:0:0:
0,32,44144,1,0,0:0:0:0:
32,352,44311,5,0,0:0:0:0:
192,352,44311,1,0,0:0:0:0:
480,352,44311,1,0,0:0:0:0:
352,352,44311,1,0,0:0:0:0:
320,352,44311,1,0,0:0:0:0:
64,352,44311,1,0,0:0:0:0:
352,256,44520,5,0,0:0:0:0:
224,256,44520,1,0,0:0:0:0:
64,256,44520,1,0,0:0:0:0:
512,256,44520,1,0,0:0:0:0:
384,224,44561,5,0,0:0:0:0:
96,224,44561,1,0,0:0:0:0:
