osu file format v14

[General]
AudioFilename: audio.mp3
AudioLeadIn: 0
PreviewTime: 52500
Countdown: 0
SampleSet: None
StackLeniency: 0.7
Mode: 0
LetterboxInBreaks: 0
WidescreenStoryboard: 1

[Editor]
DistanceSpacing: 1
BeatDivisor: 4
GridSize: 16
TimelineZoom: 2.3

[Metadata]
Title:Howling
TitleUnicode:Howling
Artist:FLOW x GRANRODEO
ArtistUnicode:FLOW x GRANRODEO
Creator:Zeroloph
Version:Insane
Source:七つの大罪 戒めの復活
Tags:七つの大罪/romanised. Nanatsu no Taizai/eng. The Seven Deadly Sins
BeatmapID:1540914
BeatmapSetID:724983

[Difficulty]
HPDrainRate:6
CircleSize:4
OverallDifficulty:2
ApproachRate:9
SliderMultiplier:1.4
SliderTickRate:1

[Events]
//Background and Video events
Video,0,"Howling by FLOW x GRANRODEO [ OPENING ] Nanatsu no Taizai - Imashime no Fukkatsu Joshou.mp4"
0,0,"X4HFJm3.jpg",0,0
//Break Periods
//Storyboard Layer 0 (Background)
//Storyboard Layer 1 (Fail)
//Storyboard Layer 2 (Pass)
//Storyboard Layer 3 (Foreground)
//Storyboard Sound Samples

[TimingPoints]
499.997433265056,300,4,3,1,55,1,0
8864,-100,4,3,1,55,0,0
10075,-100,4,3,1,55,0,0
12470,-100,4,3,1,55,0,0
14853,-100,4,3,1,55,0,0
17253,-100,4,3,1,55,0,0
19646,-100,4,3,1,55,0,0
22071,-100,4,3,1,55,0,0
22677,-100,4,3,1,55,0,0
23257,-100,4,3,1,55,0,0
24463,-100,4,3,1,55,0,0
30443,-100,4,3,1,55,0,0
31658,-100,4,3,1,55,0,0
32853,-100,4,3,1,55,0,0
33446,-100,4,3,1,55,0,0
34077,-100,4,3,1,55,0,0
34677,-125,4,3,1,55,0,0
35878,-125,4,3,1,55,0,0
37078,-125,4,3,1,55,0,0
38277,-100,4,3,1,55,0,0
43676,-100,4,3,1,55,0,0
44277,-125,4,3,1,55,0,0
45478,-125,4,3,1,55,0,0
46659,-125,4,3,1,55,0,0
48475,-100,4,3,1,55,0,0
50865,-100,4,3,1,55,0,0
52549,-83.3333333333333,4,3,1,55,0,1
55650,-83.3333333333333,4,3,1,55,0,1
58074,-83.3333333333333,4,3,1,55,0,1
60476,-83.3333333333333,4,3,1,55,0,1
62899,-100,4,3,1,55,0,0
65306,-100,4,3,1,55,0,0
65893,-100,4,3,1,55,0,0
66486,-100,4,3,1,55,0,0
67699,-83.3333333333333,4,3,1,55,0,1
68874,-83.3333333333333,4,3,1,55,0,1
70076,-83.3333333333333,4,3,1,55,0,1
71270,-83.3333333333333,4,3,1,55,0,1
72444,-83.3333333333333,4,3,1,55,0,1
73650,-83.3333333333333,4,3,1,55,0,1
74879,-83.3333333333333,4,3,1,55,0,1
77299,-100,4,3,1,55,0,0
82077,-100,4,3,1,55,0,0
82678,-100,4,3,1,55,0,0
83278,-100,4,3,1,55,0,0
84477,-100,4,3,1,55,0,0

[Colours]
Combo1 : 128,0,64
Combo2 : 242,242,0
Combo3 : 221,0,0
Combo4 : 128,128,255
Combo5 : 255,128,0
Combo6 : 139,139,139
Combo7 : 201,201,201
Combo8 : 128,0,128

[HitObjects]
72,60,499,6,8,P|52:100|56:212,1,140,8|0,0:0|0:0,0:0:0:0:
132,324,1099,2,8,P|164:288|368:320,1,280
456,180,1999,2,8,L|420:40,1,140,0|8,0:0|0:0,0:0:0:0:
192,116,2899,6,8,P|120:104|32:132,1,140,8|0,0:0|0:0,0:0:0:0:
272,196,3499,2,8,P|292:284|264:348,1,140,8|0,0:0|0:0,0:0:0:0:
112,300,4099,2,8,B|180:276|180:276|244:316|244:316|368:268,1,280,0|8,0:0|0:0,0:0:0:0:
424,160,5299,6,8,L|296:80,1,140,8|0,0:0|0:0,0:0:0:0:
192,32,5899,2,8,P|96:124|96:140,1,140,8|0,0:0|0:0,0:0:0:0:
48,248,6499,1,8,0:0:0:0:
168,292,6799,2,8,L|328:280,1,140,0|8,0:0|0:0,0:0:0:0:
356,88,7699,5,8,0:0:0:0:
200,164,7849,1,0,0:0:0:0:
200,164,7924,1,0,0:0:0:0:
200,164,7999,2,8,B|224:244|224:244|204:316,2,140,0|8|0,0:0|0:0|0:0,0:0:0:0:
400,48,8899,2,8,B|400:85|400:85|388:165|388:165|432:221|432:221|400:305,1,280
448,216,10099,5,0,0:0:0:0:
364,184,10249,2,0,L|316:180,2,35
440,124,10549,1,0,0:0:0:0:
388,236,10699,2,0,B|328:288|328:288|236:288,1,140
192,204,11299,6,0,P|120:180|40:216,1,140,0|0,0:0|0:0,0:0:0:0:
16,268,11749,2,0,P|-8:216|12:112,1,140
48,40,12199,1,0,0:0:0:0:
248,104,12499,6,0,L|340:108,2,70,0|0|4,0:0|0:0|0:0,0:0:0:0:
320,188,12949,2,0,L|404:192,1,70,0|8,0:0|0:0,0:0:0:0:
260,264,13249,2,0,L|176:264,1,70,0|4,0:0|0:0,0:0:0:0:
72,248,13549,1,0,0:0:0:0:
216,132,13699,1,8,0:0:0:0:
176,316,13849,1,0,0:0:0:0:
296,216,13999,2,0,P|396:196|432:232,2,140,4|8|4,0:0|0:0|0:0,0:0:0:0:
315,336,14899,6,0,P|274:318|163:355,1,140,8|4,0:0|0:0,0:0:0:0:
96,336,15349,2,0,B|36:314|36:314|14:221,1,140
18,136,15799,1,4,0:0:0:0:
114,58,15949,1,0,0:0:0:0:
99,192,16099,6,0,B|151:244|151:244|241:244,1,140,8|4,0:0|0:0,0:0:0:0:
384,224,16549,2,0,L|384:128,1,70,0|8,0:0|0:0,0:0:0:0:
432,48,16849,1,0,0:0:0:0:
288,16,16999,1,4,0:0:0:0:
208,96,17149,2,0,P|160:192|208:304,1,210,0|4,0:0|0:0,0:0:0:0:
384,224,17749,5,0,0:0:0:0:
288,320,17899,2,0,L|208:320,1,70,8|0,0:0|0:0,0:0:0:0:
112,224,18199,2,0,L|208:224,1,70,4|0,0:0|0:0,0:0:0:0:
368,224,18499,2,0,P|384:288|352:352,1,140,8|4,0:0|0:0,0:0:0:0:
256,272,18949,2,0,P|236:228|264:136,1,140
352,32,19399,1,4,0:0:0:0:
272,144,19549,2,0,B|240:208|240:208|240:288|240:288|240:368,1,210,0|4,0:0|0:0,0:0:0:0:
388,352,20299,6,0,P|304:340|236:360,1,140,8|4,0:0|0:0,0:0:0:0:
128,372,20749,1,0,0:0:0:0:
36,328,20899,2,0,P|4:272|16:200,1,140,8|4,0:0|0:0,0:0:0:0:
72,120,21349,1,0,0:0:0:0:
164,216,21499,1,8,0:0:0:0:
156,48,21649,1,0,0:0:0:0:
164,216,21799,2,0,P|200:240|300:208,1,140,4|8,0:0|0:0,0:0:0:0:
336,120,22399,2,0,P|344:80|432:40,2,140,4|8|4,0:0|0:0|0:0,0:0:0:0:
400,112,23299,5,8,0:0:0:0:
400,144,23374,1,0,0:0:0:0:
400,176,23449,1,0,0:0:0:0:
400,208,23524,1,0,0:0:0:0:
400,256,23599,2,0,L|400:352,1,70,4|0,0:0|0:0,0:0:0:0:
288,336,23899,1,8,0:0:0:0:
272,304,23974,1,0,0:0:0:0:
240,288,24049,1,0,0:0:0:0:
208,288,24124,1,0,0:0:0:0:
176,304,24199,2,0,B|112:352|112:352|48:352,1,140,4|8,0:0|0:0,0:0:0:0:
48,272,24649,6,0,L|32:192,1,70,0|4,0:0|0:0,0:0:0:0:
80,96,24949,1,0,0:0:0:0:
176,224,25099,1,8,0:0:0:0:
192,64,25249,2,0,P|256:64|272:64,1,70,0|4,0:0|0:0,0:0:0:0:
352,112,25549,2,0,L|272:112,1,70
144,128,25849,2,0,B|92:188|92:188|88:264,1,140
176,320,26299,2,0,P|268:348|304:324,2,140,8|4|8,0:0|0:0|0:0,0:0:0:0:
272,288,27049,6,0,L|272:192,1,70
208,96,27349,1,0,0:0:0:0:
368,176,27499,1,8,0:0:0:0:
224,276,27649,1,0,0:0:0:0:
224,276,27724,1,0,0:0:0:0:
224,276,27799,2,0,L|384:268,1,140,4|8,0:0|0:0,0:0:0:0:
484,264,28249,1,0,0:0:0:0:
416,132,28399,1,4,0:0:0:0:
368,216,28549,2,0,P|348:264|356:392,2,175,0|0|8,0:0|0:0|0:0,0:0:0:0:
416,128,29449,6,0,L|416:48,1,70,0|4,0:0|0:0,0:0:0:0:
336,80,29749,2,0,P|272:96|176:80,1,140
112,16,30199,1,4,0:0:0:0:
32,256,30499,1,8,0:0:0:0:
64,80,30799,2,0,P|128:64|208:80,1,140
336,160,31399,1,4,0:0:0:0:
240,304,31699,2,0,P|172:288|107:310,1,140
48,368,32299,2,0,B|0:352|0:352|0:240,1,140
144,272,32899,5,8,0:0:0:0:
176,240,32974,1,0,0:0:0:0:
192,208,33049,1,0,0:0:0:0:
192,160,33124,1,0,0:0:0:0:
192,128,33199,2,0,L|192:64,3,35,4|0|0|0,0:0|0:0|0:0|0:0,0:0:0:0:
144,80,33499,2,0,L|80:64,3,35,8|0|0|0,0:0|0:0|0:0|0:0,0:0:0:0:
144,64,33799,2,0,L|176:32,2,35,4|0|0,0:0|0:0|0:0,0:0:0:0:
240,32,34099,5,8,0:0:0:0:
432,224,34399,1,4,0:0:0:0:
240,32,34699,2,0,B|176:16|176:16|112:32,1,112,8|4,0:0|0:0,0:0:0:0:
48,240,35299,1,8,0:0:0:0:
320,144,35599,1,4,0:0:0:0:
48,240,35899,2,0,B|32:304|32:304|48:352,1,112,8|4,0:0|0:0,0:0:0:0:
352,336,36499,1,8,0:0:0:0:
176,96,36799,1,4,0:0:0:0:
352,336,37099,2,0,B|304:368|304:368|224:368,1,112,8|4,0:0|0:0,0:0:0:0:
16,336,37699,5,8,0:0:0:0:
96,112,37999,1,4,0:0:0:0:
144,0,38299,2,0,P|184:44|148:264,1,280,8|8,0:0|0:0,0:0:0:0:
100,132,39499,6,0,L|100:212,1,70,8|0,0:0|0:0,0:0:0:0:
144,324,39799,1,4,0:0:0:0:
272,352,39949,1,0,0:0:0:0:
232,272,40099,2,0,P|176:160|224:96,1,210,8|0,0:0|0:0,0:0:0:0:
272,16,40699,2,0,P|320:80|288:160,1,140,0|4,0:0|0:0,0:0:0:0:
192,352,41299,6,0,B|108:352|108:352|52:312,1,140,8|4,0:0|0:0,0:0:0:0:
112,240,41899,2,0,P|132:196|116:100,2,140,8|4|8,0:0|0:0|0:0,0:0:0:0:
160,176,42799,1,4,0:0:0:0:
32,336,42949,1,0,0:0:0:0:
224,272,43099,1,8,0:0:0:0:
32,224,43249,1,0,0:0:0:0:
160,368,43399,1,4,0:0:0:0:
368,272,43699,5,8,0:0:0:0:
416,112,43999,1,4,0:0:0:0:
320,368,44299,2,0,L|192:368,1,112,8|4,0:0|0:0,0:0:0:0:
0,352,44899,1,8,0:0:0:0:
288,352,45199,1,4,0:0:0:0:
0,352,45499,2,0,B|36:304|36:304|40:244,1,112,8|4,0:0|0:0,0:0:0:0:
144,48,46099,1,8,0:0:0:0:
64,256,46399,1,4,0:0:0:0:
144,48,46699,6,0,P|180:24|240:48,1,112,8|4,0:0|0:0,0:0:0:0:
304,128,47149,1,0,0:0:0:0:
224,160,47299,2,0,B|192:228|192:228|212:380,2,224,8|8|8,0:0|0:0|0:0,0:0:0:0:
144,48,49099,6,0,P|112:96|128:192,1,140
192,256,49699,1,0,0:0:0:0:
64,352,49999,1,4,0:0:0:0:
192,256,50299,2,0,B|240:224|240:224|320:208,1,140
256,304,50899,5,8,0:0:0:0:
288,320,50974,1,0,0:0:0:0:
320,320,51049,1,0,0:0:0:0:
352,304,51124,1,0,0:0:0:0:
384,288,51199,2,0,L|448:240,1,70,4|0,0:0|0:0,0:0:0:0:
496,160,51499,1,8,0:0:0:0:
512,128,51574,1,0,0:0:0:0:
512,96,51649,1,0,0:0:0:0:
496,64,51724,1,0,0:0:0:0:
464,48,51799,2,0,B|384:32|384:32|304:32,1,140,4|8,0:0|0:0,0:0:0:0:
176,32,52699,5,0,0:0:0:0:
64,176,52849,1,0,0:0:0:0:
128,320,52999,2,0,L|224:320,1,83.9999974365235
352,336,53299,2,0,P|400:256|336:192,1,167.999994873047,8|0,0:0|0:0,0:0:0:0:
320,112,53749,1,0,0:0:0:0:
400,48,53899,2,0,P|480:32|528:96,1,167.999994873047,8|0,0:0|0:0,0:0:0:0:
432,144,54349,2,0,L|432:240,1,83.9999974365235,0|8,0:0|0:0,0:0:0:0:
336,272,54649,6,0,P|288:240|96:288,1,251.999992309571,0|8,0:0|0:0,0:0:0:0:
64,368,55249,1,0,0:0:0:0:
32,224,55399,1,0,0:0:0:0:
176,288,55549,1,0,0:0:0:0:
176,144,55699,2,0,P|224:64|160:0,1,167.999994873047,8|0,0:0|0:0,0:0:0:0:
96,0,56149,1,0,0:0:0:0:
208,80,56299,2,0,L|304:80,1,83.9999974365235,8|0,0:0|0:0,0:0:0:0:
400,32,56599,1,0,0:0:0:0:
400,128,56749,2,0,L|400:224,1,83.9999974365235,0|8,0:0|0:0,0:0:0:0:
368,304,57049,2,0,P|256:352|128:304,1,251.999992309571,0|8,0:0|0:0,0:0:0:0:
48,208,57649,5,0,0:0:0:0:
144,80,57799,1,0,0:0:0:0:
224,208,57949,1,0,0:0:0:0:
352,160,58099,2,0,P|400:80|336:16,1,167.999994873047,8|0,0:0|0:0,0:0:0:0:
256,16,58549,1,0,0:0:0:0:
192,96,58699,2,0,P|144:128|32:80,1,167.999994873047,8|0,0:0|0:0,0:0:0:0:
16,16,59149,1,0,0:0:0:0:
128,96,59299,1,8,0:0:0:0:
224,16,59449,2,0,B|336:-16|336:-16|400:16|400:16|496:16,1,251.999992309571,0|8,0:0|0:0,0:0:0:0:
256,96,60199,5,0,0:0:0:0:
160,160,60499,2,0,B|96:224|96:224|96:304,1,167.999994873047,8|0,0:0|0:0,0:0:0:0:
208,352,60949,2,0,P|256:320|368:352,1,167.999994873047
464,368,61399,1,0,0:0:0:0:
416,224,61549,1,0,0:0:0:0:
320,320,61699,2,0,P|240:352|144:304,1,167.999994873047,8|0,0:0|0:0,0:0:0:0:
96,304,62299,6,0,P|112:208|320:224,1,335.999989746094,8|8,0:0|0:0,0:0:0:0:
312,280,63499,6,0,P|356:216|352:148,1,140,8|0,0:0|0:0,0:0:0:0:
304,48,63949,1,0,0:0:0:0:
268,136,64099,2,0,B|180:112|180:112|128:144|128:144|60:128|60:128|-12:128,1,280,8|8,0:0|0:0,0:0:0:0:
4,216,64999,1,0,0:0:0:0:
136,260,65299,5,8,0:0:0:0:
136,260,65374,1,0,0:0:0:0:
136,260,65449,1,0,0:0:0:0:
272,128,65749,1,0,0:0:0:0:
272,128,65824,1,0,0:0:0:0:
272,128,65899,1,8,0:0:0:0:
88,140,66199,1,0,0:0:0:0:
88,140,66274,1,0,0:0:0:0:
88,140,66349,1,0,0:0:0:0:
136,220,66499,2,0,P|176:176|168:92,1,140,8|0,0:0|0:0,0:0:0:0:
256,96,67099,6,0,L|256:8,1,70,8|0,0:0|0:0,0:0:0:0:
352,176,67399,2,0,L|352:252,1,70
416,352,67699,2,0,P|464:272|400:208,1,167.999994873047,8|0,0:0|0:0,0:0:0:0:
320,304,68149,1,0,0:0:0:0:
240,208,68299,2,0,B|192:144|192:144|192:32,1,167.999994873047,8|0,0:0|0:0,0:0:0:0:
272,16,68749,2,0,L|368:16,1,83.9999974365235,0|8,0:0|0:0,0:0:0:0:
448,32,69049,2,0,P|480:112|448:288,1,251.999992309571,0|8,0:0|0:0,0:0:0:0:
352,320,69649,5,0,0:0:0:0:
272,176,69799,1,0,0:0:0:0:
192,320,69949,1,0,0:0:0:0:
288,368,70099,2,0,L|400:368,1,83.9999974365235,8|0,0:0|0:0,0:0:0:0:
464,368,70399,2,0,P|512:320|480:224,1,167.999994873047,0|8,0:0|0:0,0:0:0:0:
400,160,70849,1,0,0:0:0:0:
320,48,70999,2,0,B|240:16|240:16|144:16,1,167.999994873047,0|8,0:0|0:0,0:0:0:0:
64,64,71449,2,0,P|32:144|128:96,1,251.999992309571,0|8,0:0|0:0,0:0:0:0:
272,32,72049,6,0,L|356:32,1,83.9999974365235
448,128,72349,1,0,0:0:0:0:
336,208,72499,2,0,P|372:278|323:342,1,167.999994873047,8|0,0:0|0:0,0:0:0:0:
192,368,72949,1,0,0:0:0:0:
288,304,73099,2,0,P|368:272|464:320,1,167.999994873047,8|0,0:0|0:0,0:0:0:0:
480,176,73549,2,0,L|480:92,1,83.9999974365235,0|8,0:0|0:0,0:0:0:0:
384,32,73849,2,0,B|288:0|288:0|224:32|224:32|144:32,1,251.999992309571,0|8,0:0|0:0,0:0:0:0:
192,256,74599,5,0,0:0:0:0:
384,320,74899,2,0,L|432:160,1,167.999994873047,8|0,0:0|0:0,0:0:0:0:
448,48,75349,1,0,0:0:0:0:
320,64,75499,2,0,P|240:80|128:48,1,167.999994873047,8|0,0:0|0:0,0:0:0:0:
64,32,75949,1,0,0:0:0:0:
32,128,76099,2,0,P|16:176|32:304,1,167.999994873047,8|0,0:0|0:0,0:0:0:0:
96,352,76549,2,0,L|192:352,1,83.9999974365235,0|8,0:0|0:0,0:0:0:0:
336,272,76849,6,0,P|288:240|96:288,1,251.999992309571,0|8,0:0|0:0,0:0:0:0:
136,60,77899,6,0,P|88:108|84:200,1,140,8|4,0:0|0:0,0:0:0:0:
80,272,78499,2,0,P|76:340|8:384,2,140,8|4|8,0:0|0:0|0:0,0:0:0:0:
20,216,79249,1,0,0:0:0:0:
84,180,79399,2,0,B|188:168|188:168|272:204|272:204|384:196,1,280,4|4,0:0|0:0,0:0:0:0:
400,96,80299,6,0,P|380:160|396:244,1,140,8|4,0:0|0:0,0:0:0:0:
472,324,80749,1,0,0:0:0:0:
364,352,80899,1,8,0:0:0:0:
280,320,81049,2,0,L|184:312,2,70,0|4|0,0:0|0:0|0:0,0:0:0:0:
392,304,81499,2,0,L|484:304,2,70,8|0|4,0:0|0:0|0:0,0:0:0:0:
256,344,82099,5,8,0:0:0:0:
256,344,82174,1,0,0:0:0:0:
256,344,82249,1,0,0:0:0:0:
172,136,82549,1,0,0:0:0:0:
172,136,82624,1,0,0:0:0:0:
172,136,82699,1,8,0:0:0:0:
100,200,82999,6,0,B|68:268|68:268|128:324,1,140,4|8,0:0|0:0,0:0:0:0:
192,384,83449,1,0,0:0:0:0:
272,320,83599,2,0,P|344:296|436:308,2,140,4|8|4,0:0|0:0|0:0,0:0:0:0:
192,384,84349,1,0,0:0:0:0:
76,312,84499,2,0,P|184:260|336:324,1,280,8|8,0:0|0:0,0:0:0:0:
256,192,85249,12,0,89299,0:0:0:0:
