osu file format v14

[General]
AudioFilename: audio.mp3
AudioLeadIn: 0
PreviewTime: 52519
Countdown: 0
SampleSet: Normal
StackLeniency: 0.7
Mode: 0
LetterboxInBreaks: 0
WidescreenStoryboard: 1

[Editor]
DistanceSpacing: 1.7
BeatDivisor: 4
GridSize: 16
TimelineZoom: 1.6

[Metadata]
Title:Howling (TV Size)
TitleUnicode:Howling (TV Size)
Artist:FLOW x GRANRODEO
ArtistUnicode:FLOW × GRANRODEO
Creator:Nevo
Version:Glaceon's Normal
Source:七つの大罪 戒めの復活
Tags:nanatsu no taizai imashime fukkatsu seven deadly sins revival of the commandments agatsu sotarks airincat azunyan- glaceon smokelind xchorse yudragen chaoticred anime japanese armin a_r_m_i_n hypercyte Mayu Sakuma kujinn xexyz
BeatmapID:2172170
BeatmapSetID:1033492

[Difficulty]
HPDrainRate:4
CircleSize:3
OverallDifficulty:4
ApproachRate:5.5
SliderMultiplier:1.1
SliderTickRate:1

[Events]
//Background and Video events
0,0,"65927 (1).jpg",0,0
Video,0,"l.mp4"
//Break Periods
//Storyboard Layer 0 (Background)
//Storyboard Layer 1 (Fail)
//Storyboard Layer 2 (Pass)
//Storyboard Layer 3 (Foreground)
//Storyboard Layer 4 (Overlay)
//Storyboard Sound Samples

[TimingPoints]
447,300,4,1,22,72,1,0
8847,-100,4,1,22,72,0,0
9147,-100,4,1,22,72,0,0
9447,-100,4,1,22,72,0,0
10027,-100,4,1,22,72,0,0
10047,-100,4,2,22,62,0,0
14827,-100,4,2,22,62,0,0
14847,-100,4,1,22,62,0,0
24447,-100,4,1,22,72,0,0
34027,-100,4,1,22,72,0,0
34047,-100,4,1,22,62,0,0
53227,-100,4,1,22,62,0,0
53247,-100,4,1,22,82,0,1
77247,-100,4,1,22,82,0,0
84502,-100,4,1,22,82,0,0
84522,-100,4,1,22,22,0,0
89097,-100,4,1,22,5,0,0

[Colours]
Combo1 : 240,224,115
Combo2 : 193,255,6
Combo3 : 173,88,88
Combo4 : 210,68,0

[HitObjects]
46,364,447,6,0,L|166:360,1,110,6|0,0:2|0:2,0:2:0:0:
266,359,1047,1,10,0:2:0:0:
457,251,1647,2,0,P|473:199|456:148,1,110,2|2,3:2|3:2,0:2:0:0:
377,71,2247,1,0,0:0:0:0:
163,16,2847,6,0,P|146:67|163:118,1,110,2|2,3:2|3:2,0:2:0:0:
243,196,3447,1,0,0:0:0:0:
412,336,4047,2,0,L|302:339,1,110,0|0,0:2|0:2,0:2:0:0:
192,344,4647,1,8,0:2:0:0:
20,206,5247,6,0,L|140:202,1,110,6|0,0:2|0:2,0:2:0:0:
240,201,5847,1,8,0:2:0:0:
408,58,6447,2,0,L|298:61,1,110,0|0,0:2|0:2,0:2:0:0:
188,66,7047,1,8,0:2:0:0:
69,251,7647,6,0,P|120:267|171:250,1,110,2|2,3:2|3:2,0:2:0:0:
262,188,8247,2,0,P|313:170|364:187,1,110,2|2,3:2|3:2,0:2:0:0:
460,241,8847,2,0,L|457:131,1,110,0|0,0:2|0:2,0:2:0:0:
384,47,9447,2,0,P|311:81|238:48,1,165,8|0,0:2|2:2,0:2:0:0:
191,20,10047,6,0,L|136:18,1,55,10|10,0:2|0:2,0:0:0:0:
423,55,12447,6,0,L|421:109,1,55,10|10,0:2|0:2,0:0:0:0:
492,194,12897,1,2,1:2:0:0:
430,285,13197,1,2,1:2:0:0:
325,251,13497,2,0,L|208:249,1,110,2|2,1:2|1:2,0:0:0:0:
160,247,13947,1,10,0:2:0:0:
55,213,14247,2,0,L|53:267,1,55,2|0,0:2|1:2,0:0:0:0:
49,323,14547,1,10,0:2:0:0:
142,380,14847,6,0,L|251:381,1,110,4|8,0:2|0:2,0:2:0:0:
361,381,15447,2,0,L|360:317,1,55,2|2,0:2|0:2,0:0:0:0:
361,275,15747,1,8,0:2:0:0:
361,275,15897,2,0,P|378:225|344:156,1,110,2|2,0:2|0:2,0:2:0:0:
262,122,16497,2,0,L|133:124,1,110,2|2,0:2|0:2,0:2:0:0:
97,124,16947,1,10,0:2:0:0:
41,28,17247,6,0,L|150:26,1,110,0|8,0:2|0:2,0:2:0:0:
260,24,17847,2,0,L|334:23,1,55,2|2,0:2|0:2,0:0:0:0:
374,28,18147,1,8,0:2:0:0:
374,28,18297,2,0,P|357:78|391:147,1,110,2|2,0:2|0:2,0:2:0:0:
430,225,18897,2,0,L|321:227,1,110,2|2,0:2|0:2,0:2:0:0:
264,225,19347,1,10,0:2:0:0:
192,140,19647,6,0,P|142:123|73:157,1,110,0|8,0:2|0:2,0:2:0:0:
27,231,20247,2,0,L|28:297,1,55,0|0,0:2|0:2,0:0:0:0:
28,341,20547,1,10,0:2:0:0:
132,375,20847,2,0,L|130:254,1,110,2|10,0:2|0:2,0:0:0:0:
193,175,21447,2,0,P|243:192|312:158,1,110,2|10,0:2|0:2,0:0:0:0:
396,131,22047,6,0,L|393:254,1,110,2|10,0:2|0:2,0:0:0:0:
337,335,22647,1,2,0:2:0:0:
229,310,22947,1,10,0:2:0:0:
213,201,23247,1,6,0:2:0:0:
213,201,23397,2,0,L|215:142,1,55,8|8,0:2|0:2,0:0:0:0:
121,87,23847,2,0,L|119:155,1,55,10|8,0:2|0:2,0:0:0:0:
75,175,24147,2,0,L|73:243,1,55,8|10,0:2|0:2,0:0:0:0:
105,274,24447,6,0,L|103:342,1,55,0|0,0:2|3:2,0:0:0:0:
101,383,24747,1,0,3:2:0:0:
208,361,25047,1,0,0:0:0:0:
208,361,25197,2,0,L|328:358,1,110,2|10,0:2|0:2,0:0:0:0:
401,287,25797,1,0,0:0:0:0:
340,195,26097,2,0,P|288:212|237:195,1,110,2|2,3:2|3:2,0:2:0:0:
195,159,26547,1,10,0:2:0:0:
167,52,26847,6,0,L|246:54,1,55,0|0,0:2|3:2,0:0:0:0:
276,55,27147,1,8,0:2:0:0:
374,6,27447,1,2,0:2:0:0:
374,6,27597,2,0,P|391:57|374:108,1,110,0|2,3:2|3:2,0:0:0:0:
313,200,28197,1,2,3:2:0:0:
207,169,28497,2,0,L|87:167,1,110,2|2,3:2|3:2,0:2:0:0:
42,166,28947,1,10,0:2:0:0:
14,272,29247,6,0,L|85:273,1,55,0|0,0:2|0:0,0:2:0:0:
116,310,29547,1,8,0:2:0:0:
116,310,29697,2,0,P|167:327|218:310,1,110,0|0,3:2|3:2,0:2:0:0:
263,278,30147,1,10,0:2:0:0:
242,169,30447,2,0,L|247:38,1,110,2|10,0:2|0:2,0:0:0:0:
342,6,31047,1,2,0:2:0:0:
438,59,31347,1,10,0:2:0:0:
425,168,31647,6,0,L|420:277,1,110,6|10,0:2|0:2,0:0:0:0:
341,353,32247,2,0,L|263:349,1,55,2|0,0:2|0:2,0:0:0:0:
231,347,32547,1,10,0:2:0:0:
179,249,32847,1,2,0:2:0:0:
179,249,32997,2,0,L|233:251,1,55,8|8,0:2|0:2,0:0:0:0:
326,192,33447,2,0,L|329:118,1,55,10|8,0:2|0:2,0:0:0:0:
278,113,33747,2,0,L|281:39,1,55,8|8,0:2|0:2,0:0:0:0:
305,9,34047,6,0,L|174:8,1,110,6|4,0:3|0:3,0:2:0:0:
95,55,34647,2,0,P|62:113|103:204,1,165,8|0,0:2|2:2,0:2:0:0:
146,221,35247,2,0,L|255:221,1,110,4|4,0:3|0:3,0:2:0:0:
359,185,35847,1,8,0:2:0:0:
426,271,36147,1,0,0:0:0:0:
374,368,36447,6,0,L|264:367,1,110,6|4,0:3|0:3,0:2:0:0:
151,379,37047,2,0,B|128:323|128:323|149:199,1,165,8|0,0:2|2:2,0:2:0:0:
159,166,37647,2,0,L|268:166,1,110,4|4,0:3|0:3,0:2:0:0:
369,211,38247,1,8,0:2:0:0:
447,134,38547,1,0,0:0:0:0:
395,36,38847,6,0,P|343:18|292:35,1,110,4|0,0:2|0:0,0:0:0:0:
268,85,39297,1,0,0:0:0:0:
268,85,39447,2,0,L|271:206,1,110,2|0,0:2|0:0,0:0:0:0:
273,304,40047,2,0,P|221:321|170:303,1,110,2|0,0:2|0:0,0:0:0:0:
102,216,40647,2,0,L|100:91,1,110,2|0,0:2|0:0,0:0:0:0:
0,59,41247,6,0,L|4:290,2,220,6|2|6,0:2|0:2|0:2,0:0:0:0:
98,10,42747,2,0,L|172:11,1,55,8|8,0:2|0:2,0:0:0:0:
193,47,43047,2,0,L|267:48,1,55,10|8,0:3|0:3,0:0:0:0:
293,17,43347,2,0,L|367:18,1,55,4|4,0:3|0:3,0:0:0:0:
390,53,43647,6,0,L|386:171,1,110,4|4,0:3|0:3,0:2:0:0:
378,272,44247,2,0,P|306:306|234:272,1,165,8|0,0:2|2:2,0:2:0:0:
203,226,44847,2,0,L|77:227,1,110,4|4,0:3|0:3,0:2:0:0:
8,157,45447,1,8,0:2:0:0:
49,55,45747,1,0,0:0:0:0:
158,66,46047,6,0,L|267:65,1,110,4|4,0:3|0:3,0:2:0:0:
377,68,46647,2,0,P|394:120|376:171,1,110,8|0,0:2|0:0,0:2:0:0:
292,241,47247,1,4,0:3:0:0:
193,193,47547,1,4,0:3:0:0:
89,229,47847,2,0,L|91:156,1,55,8|8,0:2|0:3,0:0:0:0:
57,130,48147,2,0,L|59:57,1,55,4|4,0:3|0:3,0:0:0:0:
92,32,48447,6,0,P|144:15|195:33,1,110,4|0,0:2|0:2,0:0:0:0:
242,69,48897,1,0,0:0:0:0:
242,69,49047,2,0,L|237:192,1,110,2|0,0:2|0:2,0:0:0:0:
232,288,49647,2,0,P|283:305|334:288,1,110,2|0,0:2|0:2,0:0:0:0:
421,219,50247,2,0,L|425:109,1,110,2|0,0:2|0:2,0:0:0:0:
347,30,50847,5,2,0:2:0:0:
242,69,51147,1,0,0:2:0:0:
245,178,51447,2,0,L|242:248,1,55,10|8,0:2|0:2,0:0:0:0:
277,276,51747,2,0,L|274:346,1,55,8|8,0:2|0:2,0:0:0:0:
237,371,52047,2,0,L|106:366,1,110,10|8,0:2|0:2,0:0:0:0:
46,292,52647,2,0,L|48:237,1,55,10|8,0:2|0:2,0:0:0:0:
84,195,52947,2,0,L|86:140,1,55,10|10,0:2|0:2,0:0:0:0:
73,86,53247,6,0,P|124:68|175:85,1,110,6|10,0:2|0:2,0:2:0:0:
259,156,53847,2,0,L|253:273,1,110,2|10,0:2|0:2,0:2:0:0:
250,320,54297,2,0,P|301:337|352:319,1,110,2|2,0:2|0:2,0:2:0:0:
396,285,54747,1,8,0:2:0:0:
478,211,55047,2,0,L|477:136,1,55,2|2,0:2|0:2,0:0:0:0:
432,123,55347,2,0,L|431:48,1,55,10|2,0:2|0:2,0:0:0:0:
454,18,55647,6,0,L|329:14,1,110,2|10,0:2|0:2,0:2:0:0:
240,52,56247,2,0,P|222:103|240:154,1,110,2|10,0:2|0:2,0:2:0:0:
274,198,56697,2,0,L|146:194,1,110,2|2,0:2|0:2,0:2:0:0:
108,192,57147,1,8,0:2:0:0:
67,294,57447,2,0,L|127:296,1,55,2|2,0:2|0:2,0:0:0:0:
157,338,57747,2,0,L|217:340,1,55,10|10,0:2|0:2,0:0:0:0:
254,304,58047,6,0,L|363:307,1,110,2|10,0:2|0:2,0:2:0:0:
462,256,58647,2,0,P|478:202|461:153,1,110,2|10,0:2|0:2,0:2:0:0:
423,113,59097,2,0,L|300:114,1,110,2|2,0:2|0:2,0:2:0:0:
258,113,59547,1,8,0:2:0:0:
196,204,59847,2,0,L|126:205,1,55,0|0,0:2|0:2,0:0:0:0:
85,207,60147,1,10,0:2:0:0:
0,137,60447,6,0,P|-16:85|0:33,1,110,2|8,0:2|0:2,0:2:0:0:
47,6,60897,2,0,L|166:8,1,110,2|0,0:2|0:2,0:0:0:0:
211,8,61347,1,10,0:2:0:0:
290,84,61647,2,0,P|306:136|290:188,1,110,0|8,0:2|0:2,0:0:0:0:
213,266,62247,1,2,0:2:0:0:
259,365,62547,2,0,L|326:363,1,55,10|8,0:2|0:2,0:0:0:0:
349,321,62847,6,0,L|416:319,1,55,4|0,0:2|0:2,0:2:0:0:
458,316,63147,1,8,0:2:0:0:
507,217,63447,2,0,L|452:218,1,55,0|0,0:2|0:2,0:0:0:0:
397,220,63747,1,8,0:2:0:0:
348,121,64047,2,0,L|293:122,2,55,0|0|0,0:2|0:2|0:0,0:0:0:0:
412,31,64647,2,0,L|467:30,2,55,0|0|0,0:2|0:2|0:0,0:0:0:0:
302,20,65247,6,0,P|250:4|198:20,1,110,12|0,0:2|0:2,0:0:0:0:
159,58,65697,2,0,L|162:183,1,110,12|0,0:2|0:2,0:0:0:0:
162,223,66147,1,12,0:2:0:0:
209,321,66447,2,0,P|260:336|312:320,1,110,0|8,0:2|0:2,0:0:0:0:
371,226,67047,2,0,L|369:146,1,55,10|10,0:2|0:2,0:0:0:0:
332,130,67347,2,0,L|330:50,1,55,10|10,0:2|0:2,0:0:0:0:
359,28,67647,6,0,P|410:12|462:27,1,110,6|10,0:2|0:2,0:2:0:0:
508,127,68247,2,0,L|511:249,1,110,2|10,0:2|0:2,0:2:0:0:
510,291,68697,2,2,P|458:306|406:291,1,110,2|2,0:2|0:2,0:2:0:0:
361,258,69147,1,8,0:2:0:0:
297,168,69447,2,0,L|228:169,1,55,2|2,0:2|0:2,0:0:0:0:
198,202,69747,2,0,L|129:203,1,55,10|2,0:2|0:2,0:0:0:0:
95,175,70047,6,0,L|99:53,1,110,2|10,0:2|0:2,0:2:0:0:
198,18,70647,2,0,P|250:3|302:18,1,110,2|10,0:2|0:2,0:2:0:0:
341,57,71097,2,2,L|337:166,1,110,2|2,0:2|0:2,0:2:0:0:
334,222,71547,1,8,0:2:0:0:
318,330,71847,2,0,L|383:328,1,55,2|2,0:2|0:2,0:0:0:0:
408,370,72147,2,0,L|473:368,1,55,10|2,0:2|0:2,0:0:0:0:
501,329,72447,6,0,L|504:219,1,110,2|10,0:2|0:2,0:2:0:0:
476,112,73047,2,0,P|424:127|372:112,1,110,2|10,0:2|0:2,0:0:0:0:
327,78,73497,2,0,L|198:78,1,110,2|2,0:2|0:2,0:2:0:0:
162,79,73947,1,8,0:2:0:0:
64,130,74247,2,0,L|65:199,1,55,0|0,0:2|0:2,0:0:0:0:
66,239,74547,1,10,0:2:0:0:
71,348,74847,6,0,P|123:333|175:348,1,110,2|8,0:2|0:2,0:2:0:0:
225,370,75297,2,0,L|222:238,1,110,2|0,0:2|0:2,0:2:0:0:
220,205,75747,1,10,0:2:0:0:
316,151,76047,2,0,L|318:260,1,110,2|8,0:2|0:2,0:0:0:0:
403,330,76647,1,2,0:2:0:0:
496,271,76947,2,0,L|495:203,1,55,10|8,0:2|0:2,0:0:0:0:
456,175,77247,6,0,L|453:48,1,110,4|8,0:2|0:2,0:2:0:0:
352,20,77847,2,0,P|300:35|248:20,1,110,2|10,0:2|0:2,0:0:0:0:
138,7,78447,2,0,L|140:127,1,110,2|8,0:2|0:2,0:0:0:0:
182,151,78897,2,0,L|184:271,1,110,2|0,0:2|0:2,0:0:0:0:
184,315,79347,1,10,0:2:0:0:
96,381,79647,5,4,0:2:0:0:
5,318,79947,1,8,0:2:0:0:
37,212,80247,2,0,P|52:160|37:108,1,110,2|10,0:2|0:2,0:0:0:0:
3,2,80847,2,0,L|134:5,1,110,2|8,0:2|0:2,0:0:0:0:
153,41,81297,2,0,L|284:44,1,110,2|0,0:2|0:2,0:0:0:0:
318,43,81747,1,0,0:0:0:0:
427,51,82047,6,0,P|412:103|427:155,1,110,12|0,0:2|0:2,0:0:0:0:
466,194,82497,2,0,L|460:326,1,110,12|0,0:2|0:2,0:0:0:0:
457,358,82947,1,14,0:2:0:0:
352,382,83247,1,2,0:2:0:0:
352,382,83397,2,0,L|290:379,1,55,8|10,0:2|0:2,0:0:0:0:
231,290,83847,2,0,L|169:287,1,55,10|8,0:2|0:2,0:0:0:0:
131,319,84147,2,0,L|69:316,1,55,10|8,0:2|0:2,0:0:0:0:
35,279,84447,1,6,0:2:0:0:
256,192,84597,12,0,89097,0:0:0:0:
