osu file format v14

[General]
AudioFilename: audio.mp3
AudioLeadIn: 0
PreviewTime: 52519
Countdown: 0
SampleSet: Normal
StackLeniency: 0.7
Mode: 0
LetterboxInBreaks: 0
WidescreenStoryboard: 0

[Editor]
DistanceSpacing: 1.7
BeatDivisor: 4
GridSize: 4
TimelineZoom: 1.6

[Metadata]
Title:Howling (TV Size)
TitleUnicode:Howling (TV Size)
Artist:FLOW x GRANRODEO
ArtistUnicode:FLOW × GRANRODEO
Creator:Nevo
Version:Expert
Source:七つの大罪 戒めの復活
Tags:nanatsu no taizai imashime fukkatsu seven deadly sins revival of the commandments agatsu sotarks airincat azunyan- glaceon smokelind xchorse yudragen chaoticred anime japanese armin a_r_m_i_n hypercyte Mayu Sakuma kujinn xexyz
BeatmapID:2160917
BeatmapSetID:1033492

[Difficulty]
HPDrainRate:6
CircleSize:4
OverallDifficulty:9
ApproachRate:9.3
SliderMultiplier:1.4
SliderTickRate:1

[Events]
//Background and Video events
0,0,"65927 (1).jpg",0,0
Video,0,"l.mp4" F,0,0,1000,0,1 F,0,88923,89923,1,0
//Break Periods
//Storyboard Layer 0 (Background)
//Storyboard Layer 1 (Fail)
//Storyboard Layer 2 (Pass)
//Storyboard Layer 3 (Foreground)
//Storyboard Layer 4 (Overlay)
//Storyboard Sound Samples

[TimingPoints]
447,300,4,1,22,72,1,0
8847,-66.6666666666667,4,1,22,72,0,0
9072,-66.6666666666667,4,1,22,5,0,0
9147,-50,4,1,22,72,0,0
9372,-50,4,1,22,5,0,0
9447,-200,4,1,22,72,0,0
10027,-200,4,1,22,72,0,0
10047,-100,4,2,22,62,0,0
14772,-125,4,2,22,5,0,0
14827,-100,4,2,22,62,0,0
14847,-100,4,1,22,72,0,0
34027,-100,4,1,22,72,0,0
34047,-100,4,1,22,62,0,0
53227,-100,4,1,22,62,0,0
53247,-55.5555555555556,4,1,22,82,0,1
65847,-66.6666666666667,4,1,22,82,0,1
67047,-55.5555555555556,4,1,22,82,0,1
77247,-90.9090909090909,4,1,22,82,0,0
84502,-90.9090909090909,4,1,22,82,0,0
84522,-90.9090909090909,4,1,22,22,0,0
89097,-90.9090909090909,4,1,22,5,0,0

[Colours]
Combo1 : 240,224,115
Combo2 : 193,255,6
Combo3 : 173,88,88
Combo4 : 210,68,0

[HitObjects]
409,113,447,6,0,L|399:196,1,70,6|0,0:2|2:2,0:2:0:0:
495,101,747,2,0,L|485:184,1,70,0|0,0:2|2:2,0:2:0:0:
334,56,1047,1,10,0:2:0:0:
124,299,1647,6,0,L|114:216,1,70,0|0,0:2|2:2,0:2:0:0:
210,311,1947,2,0,L|200:228,1,70,0|0,0:2|2:2,0:2:0:0:
49,356,2247,1,8,0:2:0:0:
446,350,2847,6,0,P|402:347|374:327,1,70,6|0,0:2|2:2,0:2:0:0:
491,238,3147,2,0,P|467:262|434:273,1,70,0|0,0:2|2:2,0:2:0:0:
486,152,3447,1,8,0:2:0:0:
107,56,4047,6,0,P|151:59|179:79,1,70,0|0,0:2|2:2,0:2:0:0:
61,167,4347,2,0,P|85:142|118:132,1,70,0|0,0:2|2:2,0:2:0:0:
67,254,4647,1,8,0:2:0:0:
312,263,5247,6,0,L|325:179,1,70,6|0,0:2|2:2,0:2:0:0:
177,316,5547,2,0,L|164:232,1,70,0|0,0:2|2:2,0:2:0:0:
336,384,5847,1,8,0:2:0:0:
312,124,6447,6,0,L|325:208,1,70,0|0,0:2|2:2,0:2:0:0:
177,71,6747,2,0,L|164:155,1,70,0|0,0:2|2:2,0:2:0:0:
336,3,7047,1,8,0:2:0:0:
53,228,7647,6,0,P|108:238|141:228,1,70,6|0,0:2|2:2,0:2:0:0:
234,140,7947,2,0,L|142:160,1,70,0|0,0:2|2:2,0:2:0:0:
149,317,8247,6,0,P|194:285|211:254,1,70,8|0,0:2|2:2,0:2:0:0:
203,95,8547,2,0,L|152:174,1,70,0|0,0:2|2:2,0:2:0:0:
287,290,8847,6,0,B|482:263,1,157.500006008148,0|0,0:2|0:0,0:2:0:0:
512,242,9147,2,0,B|293:212,1,210,0|0,0:2|0:0,0:2:0:0:
233,171,9447,6,0,B|367:152,1,122.5,8|0,0:2|0:0,0:2:0:0:
422,107,10047,5,10,0:2:0:0:
312,59,10197,1,10,0:2:0:0:
299,69,10497,6,0,L|311:142,1,70,2|0,0:2|2:2,0:2:0:0:
434,122,10797,2,0,L|422:195,1,70,2|0,0:2|2:2,0:2:0:0:
284,63,11097,2,0,L|296:136,1,70,2|0,0:2|2:2,0:2:0:0:
252,219,11397,1,2,0:2:0:0:
167,176,11547,2,0,P|117:167|66:176,1,70,2|0,0:2|0:2,0:0:0:0:
81,313,11847,2,0,P|113:274|131:225,1,70,2|0,0:2|0:2,0:0:0:0:
6,172,12147,2,0,P|23:219|56:259,1,70,2|0,0:2|0:2,0:2:0:0:
188,317,12447,5,10,0:2:0:0:
311,267,12597,1,10,0:2:0:0:
321,278,12897,6,0,L|331:194,1,70,2|0,1:2|0:0,0:0:0:0:
487,309,13197,2,0,L|477:225,1,70,2|0,1:2|0:0,0:0:0:0:
295,359,13497,2,0,L|305:275,1,70,2|0,1:2|0:0,0:0:0:0:
197,127,13797,1,2,1:2:0:0:
384,213,13947,1,10,0:2:0:0:
154,250,14097,1,0,0:2:0:0:
323,155,14247,1,2,0:2:0:0:
167,34,14397,1,0,1:2:0:0:
167,34,14472,1,0,1:2:0:0:
167,34,14547,2,0,P|103:14|46:35,1,105,10|0,0:2|0:0,0:2:0:0:
6,73,14847,6,0,L|17:171,1,70,4|0,0:2|0:0,0:2:0:0:
15,281,15147,1,8,0:2:0:0:
106,234,15297,1,0,0:2:0:0:
222,336,15447,2,0,P|177:343|141:330,1,70,2|2,0:2|0:2,0:0:0:0:
272,255,15747,1,8,0:2:0:0:
306,375,15897,6,0,L|322:214,1,140,2|2,0:2|0:2,0:2:0:0:
186,122,16347,2,0,L|197:203,1,70,8|2,0:2|0:2,0:0:0:0:
389,180,16647,1,0,0:2:0:0:
290,143,16797,1,2,0:2:0:0:
427,84,16947,1,10,0:2:0:0:
481,223,17097,1,0,0:2:0:0:
481,223,17172,1,0,0:2:0:0:
481,223,17247,6,0,L|463:300,1,70,0|0,0:2|0:0,0:2:0:0:
313,320,17547,2,0,P|343:307|381:304,1,70,8|0,0:2|0:2,0:0:0:0:
243,374,17847,1,2,0:2:0:0:
225,251,17997,1,2,0:2:0:0:
157,364,18147,1,8,0:2:0:0:
123,201,18297,6,0,L|138:289,1,70,2|0,0:2|0:2,0:2:0:0:
316,228,18597,2,0,L|331:140,1,70,2|8,0:2|0:2,0:0:0:0:
157,80,18897,2,0,P|200:98|240:94,1,70,2|0,0:2|0:2,0:2:0:0:
395,59,19197,1,2,0:2:0:0:
300,0,19347,2,0,L|307:85,1,70,10|0,0:2|0:2,0:0:0:0:
455,182,19647,6,0,P|405:150|315:166,1,140,0|8,0:2|0:2,0:2:0:0:
227,277,20097,1,0,0:2:0:0:
375,304,20247,2,0,P|385:258|375:221,1,70,0|0,0:2|0:2,0:0:0:0:
227,277,20547,2,0,L|319:264,1,70,10|0,0:2|0:2,0:0:0:0:
123,201,20847,6,0,L|31:188,1,70,2|0,0:2|0:2,0:0:0:0:
180,59,21147,2,0,L|189:141,1,70,10|0,0:2|0:2,0:0:0:0:
259,22,21447,2,0,L|268:104,1,70,2|0,0:2|0:2,0:0:0:0:
333,217,21747,2,0,L|342:135,1,70,10|0,0:2|0:2,0:0:0:0:
195,278,22047,6,0,P|250:280|281:259,1,70,2|0,0:2|0:2,0:0:0:0:
301,360,22347,2,0,P|341:322|348:285,1,70,10|0,0:2|0:2,0:0:0:0:
221,197,22647,1,2,0:2:0:0:
120,340,22797,1,0,0:2:0:0:
46,159,22947,1,10,0:2:0:0:
195,278,23097,1,0,0:2:0:0:
269,71,23247,5,6,0:2:0:0:
111,240,23397,1,8,0:2:0:0:
111,240,23472,1,8,0:2:0:0:
111,240,23547,1,8,0:2:0:0:
347,162,23697,1,8,0:3:0:0:
112,120,23847,1,10,0:2:0:0:
361,176,23997,1,8,0:2:0:0:
89,257,24147,1,8,0:2:0:0:
374,193,24297,1,10,0:2:0:0:
86,106,24447,5,0,0:2:0:0:
256,311,24597,1,0,3:2:0:0:
7,208,24747,1,8,0:2:0:0:
145,343,24897,1,0,3:2:0:0:
199,82,25047,2,0,P|248:70|284:74,1,70,2|0,0:2|3:2,0:0:0:0:
423,114,25347,1,10,0:2:0:0:
341,250,25497,6,0,L|327:162,1,70,2|0,3:2|0:2,0:2:0:0:
496,295,25797,2,0,L|510:207,1,70,2|8,3:2|0:2,0:0:0:0:
358,337,26097,1,2,3:2:0:0:
441,362,26247,1,0,0:2:0:0:
341,250,26397,1,2,3:2:0:0:
133,317,26547,6,2,B|233:294|233:294|289:318,1,140,10|0,0:2|0:2,0:2:0:0:
222,383,26997,1,0,3:2:0:0:
64,266,27147,1,8,0:2:0:0:
258,193,27297,1,0,3:2:0:0:
121,131,27447,2,0,P|127:179|142:210,1,70,2|0,0:2|3:2,0:0:0:0:
274,214,27747,1,10,0:2:0:0:
134,39,27897,6,0,L|41:56,1,70,2|0,3:2|0:2,0:2:0:0:
189,143,28197,2,0,L|96:126,1,70,2|8,3:2|0:2,0:0:0:0:
258,79,28497,2,0,P|285:119|286:155,1,70,2|0,3:2|0:2,0:2:0:0:
207,281,28797,1,2,3:2:0:0:
362,224,28947,6,0,P|412:207|501:206,1,140,10|0,0:2|0:2,0:2:0:0:
339,313,29397,1,0,0:0:0:0:
278,250,29547,1,8,0:2:0:0:
365,154,29697,2,0,L|361:223,1,70,0|0,3:2|0:2,0:2:0:0:
487,106,29997,1,0,3:2:0:0:
487,106,30147,2,0,L|490:175,1,70,10|0,0:2|3:2,0:2:0:0:
317,76,30447,6,0,P|358:63|394:61,1,70,2|0,0:2|3:2,0:0:0:0:
235,165,30747,2,0,P|194:152|158:150,1,70,10|0,0:2|3:2,0:0:0:0:
315,57,31047,2,0,P|357:55|393:62,1,70,2|0,0:2|3:2,0:0:0:0:
240,143,31347,2,0,P|197:141|161:148,1,70,10|0,0:2|3:2,0:0:0:0:
199,318,31647,6,0,L|205:225,1,70,6|0,0:2|0:0,0:0:0:0:
83,111,31947,2,0,L|89:204,1,70,10|0,0:2|0:0,0:0:0:0:
285,294,32247,1,2,0:2:0:0:
41,272,32397,1,0,0:2:0:0:
284,170,32547,2,0,P|330:157|363:160,1,70,10|0,0:2|0:2,0:2:0:0:
453,255,32847,5,2,0:2:0:0:
374,54,32997,1,8,0:2:0:0:
374,54,33072,1,8,0:2:0:0:
374,54,33147,1,8,0:2:0:0:
174,194,33297,1,8,0:3:0:0:
440,176,33447,1,10,0:2:0:0:
177,108,33597,1,8,0:2:0:0:
366,247,33747,1,8,0:2:0:0:
114,294,33897,1,8,0:2:0:0:
285,201,34047,6,0,L|278:273,1,70,6|0,0:3|2:2,0:2:0:0:
372,177,34347,2,0,L|365:249,1,70,4|0,0:3|2:2,0:2:0:0:
192,315,34647,2,0,L|206:165,1,140,8|0,0:2|0:0,0:2:0:0:
205,175,35247,6,0,L|198:103,1,70,4|0,0:3|2:2,0:2:0:0:
292,199,35547,2,0,L|285:127,1,70,4|0,0:3|2:2,0:2:0:0:
112,61,35847,2,0,L|126:210,1,140,8|0,0:2|0:0,0:2:0:0:
448,71,36447,6,0,P|406:61|373:64,1,70,6|0,0:3|2:2,0:2:0:0:
450,205,36747,2,0,P|427:168|401:147,1,70,4|0,0:3|2:2,0:2:0:0:
346,360,37047,2,0,P|370:295|363:226,1,140,8|0,0:2|0:0,0:2:0:0:
64,71,37647,6,0,P|106:61|139:64,1,70,4|0,0:3|2:2,0:2:0:0:
62,205,37947,2,0,P|84:168|110:147,1,70,4|0,0:3|2:2,0:2:0:0:
166,360,38247,2,0,P|141:295|148:226,1,140,8|0,0:2|0:0,0:2:0:0:
306,291,38847,6,0,L|231:284,1,70,4|0,0:2|0:0,0:0:0:0:
350,214,39147,2,0,L|425:207,1,70
294,22,39447,6,0,B|266:62|266:62|283:172,1,140,2|0,0:2|0:0,0:0:0:0:
280,14,40047,2,0,B|252:54|252:54|269:164,1,140,2|0,0:2|0:0,0:0:0:0:
266,6,40647,2,0,B|238:46|238:46|255:156,1,140,2|0,0:2|0:0,0:0:0:0:
336,344,41247,6,0,B|363:303|363:303|347:194,1,140,6|0,0:2|0:0,0:0:0:0:
350,352,41847,2,0,B|377:311|377:311|361:202,1,140,2|0,0:2|0:0,0:0:0:0:
364,360,42447,2,0,B|391:319|391:319|375:210,1,140,6|8,0:2|0:2,0:0:0:0:
158,112,42897,1,8,0:2:0:0:
380,74,43047,1,10,0:3:0:0:
133,130,43197,1,8,0:3:0:0:
421,190,43347,1,4,0:3:0:0:
198,297,43647,6,0,L|270:290,1,70,4|0,0:3|2:2,0:2:0:0:
174,384,43947,2,0,L|246:377,1,70,4|0,0:3|2:2,0:2:0:0:
312,204,44247,2,0,L|162:218,1,140,8|0,0:2|0:0,0:2:0:0:
172,217,44847,6,0,L|100:210,1,70,4|0,0:3|2:2,0:2:0:0:
196,304,45147,2,0,L|124:297,1,70,4|0,0:3|2:0,0:0:0:0:
58,124,45447,2,0,L|207:138,1,140,8|0,0:2|0:0,0:2:0:0:
436,301,46047,6,0,P|394:311|361:308,1,70,4|0,0:3|2:2,0:2:0:0:
438,167,46347,2,0,P|415:203|389:224,1,70,4|0,0:3|2:2,0:2:0:0:
355,61,46647,2,0,L|363:152,1,70,8|0,0:2|0:0,0:2:0:0:
293,273,46947,2,0,L|299:203,1,70,0|0,0:0|2:2,0:0:0:0:
76,301,47247,6,0,P|118:311|151:308,1,70,4|0,0:3|2:2,0:2:0:0:
74,167,47547,2,0,P|96:203|122:224,1,70,4|0,0:3|2:2,0:2:0:0:
157,61,47847,2,0,L|149:152,1,70,8|8,0:2|0:3,0:0:0:0:
219,273,48147,2,0,L|212:203,1,70,4|4,0:3|0:3,0:0:0:0:
334,27,48447,5,4,0:2:0:0:
417,54,48747,1,0,0:2:0:0:
388,140,49047,1,2,0:2:0:0:
305,113,49347,1,0,0:2:0:0:
156,240,49647,5,2,0:2:0:0:
73,267,49947,1,0,0:2:0:0:
102,353,50247,1,2,0:2:0:0:
185,326,50547,1,0,0:2:0:0:
323,233,50847,5,2,0:2:0:0:
493,277,50997,1,0,0:2:0:0:
359,133,51147,1,0,0:2:0:0:
317,326,51297,1,0,0:2:0:0:
272,78,51447,1,10,0:2:0:0:
444,186,51597,1,8,0:2:0:0:
226,316,51747,1,8,0:2:0:0:
175,326,51822,1,8,0:2:0:0:
124,312,51897,1,8,0:2:0:0:
85,277,51972,1,8,0:2:0:0:
66,229,52047,5,10,0:2:0:0:
164,41,52197,1,0,0:2:0:0:
306,262,52347,1,8,0:2:0:0:
314,276,52647,5,10,0:2:0:0:
48,238,52797,1,8,0:2:0:0:
373,58,52947,5,10,0:2:0:0:
444,60,53022,1,8,0:2:0:0:
493,113,53097,1,10,0:2:0:0:
490,184,53172,1,8,0:2:0:0:
437,232,53247,6,0,B|380:264|310:226|310:226|240:187|171:238,1,251.999992309571,6|10,0:2|0:2,0:2:0:0:
77,365,53697,1,0,0:2:0:0:
250,302,53847,1,2,0:2:0:0:
58,191,53997,1,0,0:2:0:0:
159,382,54147,1,10,0:2:0:0:
256,123,54297,6,0,P|325:131|386:164,1,125.999996154785,2|0,0:2|0:2,0:2:0:0:
131,58,54597,2,0,P|62:66|1:99,1,125.999996154785,2|8,0:2|0:2,0:0:0:0:
273,0,54897,1,0,0:2:0:0:
96,179,55047,5,2,0:2:0:0:
368,236,55197,1,2,0:2:0:0:
42,312,55347,1,10,0:2:0:0:
222,72,55497,1,2,0:2:0:0:
205,322,55647,6,0,L|193:175,1,125.999996154785,2|0,0:2|0:2,0:2:0:0:
456,367,55947,2,0,L|468:220,1,125.999996154785,10|0,0:2|0:2,0:2:0:0:
295,118,56247,1,2,0:2:0:0:
331,340,56397,1,0,0:2:0:0:
459,38,56547,1,10,0:2:0:0:
212,244,56697,6,0,L|363:227,1,125.999996154785,2|0,0:2|0:2,0:2:0:0:
170,159,56997,2,0,P|116:244|217:338,1,251.999992309571,2|0,0:2|0:2,0:0:0:0:
430,301,57447,1,2,0:2:0:0:
261,126,57597,1,2,0:2:0:0:
461,33,57747,1,10,0:2:0:0:
474,74,57822,1,8,0:2:0:0:
481,118,57897,1,10,0:2:0:0:
482,162,57972,1,8,0:2:0:0:
477,206,58047,6,0,L|330:192,1,125.999996154785,2|0,0:2|0:2,0:2:0:0:
50,72,58347,2,0,L|197:58,1,125.999996154785,10|0,0:2|0:2,0:2:0:0:
295,254,58647,1,2,0:2:0:0:
321,75,58797,1,0,0:2:0:0:
93,171,58947,1,10,0:2:0:0:
239,11,59097,1,2,0:2:0:0:
366,177,59247,6,0,P|400:228|394:290,1,125.999996154785,0|2,0:2|0:2,0:0:0:0:
228,128,59547,1,8,0:2:0:0:
489,218,59697,1,0,0:2:0:0:
261,350,59847,1,0,0:2:0:0:
505,228,59997,1,0,0:2:0:0:
187,274,60147,2,0,L|49:256,1,125.999996154785,10|0,0:2|0:2,0:2:0:0:
311,54,60447,6,0,P|342:121|322:199,1,125.999996154785,2|0,0:2|0:0,0:2:0:0:
214,3,60747,1,8,0:2:0:0:
432,99,60897,1,2,0:2:0:0:
141,181,61047,1,0,0:2:0:0:
311,54,61197,1,0,0:2:0:0:
292,245,61347,2,0,L|281:372,1,125.999996154785,10|0,0:2|0:2,0:2:0:0:
11,215,61647,6,0,L|0:88,1,125.999996154785,0|0,0:2|0:2,0:0:0:0:
237,131,61947,1,8,0:2:0:0:
120,279,62097,1,0,0:2:0:0:
193,34,62247,2,0,P|270:30|324:67,1,125.999996154785,2|0,0:2|0:2,0:0:0:0:
432,177,62547,5,10,0:2:0:0:
425,218,62622,1,8,0:2:0:0:
418,259,62697,1,8,0:2:0:0:
412,301,62772,1,8,0:2:0:0:
405,342,62847,5,4,0:2:0:0:
225,264,62997,1,0,0:2:0:0:
301,96,63147,2,0,L|325:233,1,125.999996154785,8|0,0:2|0:0,0:2:0:0:
392,32,63447,5,0,0:2:0:0:
193,159,63597,1,0,0:2:0:0:
412,301,63747,2,0,L|436:164,1,125.999996154785,8|0,0:2|0:2,0:2:0:0:
99,108,64047,5,0,0:2:0:0:
322,220,64197,1,0,0:2:0:0:
139,351,64347,2,0,L|117:226,1,125.999996154785,8|0,0:2|0:0,0:2:0:0:
296,135,64647,1,0,0:2:0:0:
32,304,64797,1,0,0:2:0:0:
242,358,64947,2,0,L|379:336,1,125.999996154785,8|0,0:2|0:2,0:0:0:0:
470,227,65247,5,12,0:2:0:0:
285,265,65397,1,0,0:2:0:0:
285,265,65472,1,0,0:2:0:0:
285,265,65547,1,0,0:2:0:0:
378,171,65697,1,12,0:2:0:0:
378,171,65772,1,0,0:2:0:0:
378,171,65847,2,0,L|387:108,3,52.5000020027161,0|0|0|0,0:2|0:2|0:2|0:2,0:0:0:0:
184,239,66147,2,0,L|191:290,3,52.5000020027161,12|0|0|0,0:2|0:2|0:2|0:2,0:2:0:0:
95,81,66447,5,8,0:2:0:0:
128,52,66522,1,8,0:2:0:0:
170,39,66597,1,8,0:2:0:0:
213,45,66672,1,8,0:2:0:0:
250,68,66747,1,8,0:2:0:0:
282,96,66822,1,8,0:2:0:0:
324,109,66897,1,8,0:2:0:0:
368,103,66972,1,8,0:2:0:0:
404,80,67047,2,0,P|460:53|528:83,1,125.999996154785,10|10,0:2|0:2,0:0:0:0:
512,164,67272,1,0,0:0:0:0:
512,164,67347,6,0,L|439:157,1,62.9999980773926,10|8,0:2|0:2,0:0:0:0:
248,248,67497,2,0,L|310:241,1,62.9999980773926,10|8,0:2|0:2,0:0:0:0:
481,368,67647,6,0,L|355:355,1,125.999996154785,6|0,0:2|0:2,0:2:0:0:
318,65,67947,2,0,P|363:143|367:235,1,125.999996154785,10|0,0:2|0:2,0:2:0:0:
198,21,68247,1,2,0:2:0:0:
452,73,68397,1,0,0:2:0:0:
150,191,68547,1,10,0:2:0:0:
378,270,68697,6,2,P|474:239|504:198,1,125.999996154785,2|2,0:2|0:2,0:2:0:0:
237,308,68997,2,0,P|175:316|117:292,1,125.999996154785,2|8,0:2|0:2,0:0:0:0:
394,366,69297,1,0,0:2:0:0:
325,157,69447,1,2,0:2:0:0:
159,353,69597,1,2,0:2:0:0:
243,92,69747,1,10,0:2:0:0:
408,255,69897,1,2,0:2:0:0:
429,0,70047,6,0,L|407:178,1,125.999996154785,2|0,0:2|0:2,0:2:0:0:
159,353,70347,2,0,L|137:175,1,125.999996154785,10|0,0:2|0:2,0:2:0:0:
325,157,70647,1,2,0:2:0:0:
102,111,70797,1,0,0:2:0:0:
333,2,70947,1,10,0:2:0:0:
143,227,71097,6,2,P|106:158|106:88,1,125.999996154785,2|2,0:2|0:2,0:2:0:0:
463,155,71397,2,0,P|421:221|361:256,1,125.999996154785,2|8,0:2|0:2,0:0:0:0:
211,315,71697,1,0,0:2:0:0:
343,151,71847,1,2,0:2:0:0:
31,136,71997,1,2,0:2:0:0:
329,243,72147,1,10,0:2:0:0:
15,325,72297,1,2,0:2:0:0:
179,54,72447,6,0,L|193:196,1,125.999996154785,2|0,0:2|0:2,0:2:0:0:
415,368,72747,2,0,L|429:226,1,125.999996154785,10|0,0:2|0:2,0:2:0:0:
487,65,73047,1,2,0:2:0:0:
278,249,73197,1,0,0:2:0:0:
219,0,73347,1,10,0:2:0:0:
392,190,73497,6,0,P|453:197|512:176,1,125.999996154785,2|0,0:2|0:0,0:2:0:0:
338,91,73797,2,0,B|292:138|292:138|314:337,1,251.999992309571,2|0,0:2|0:2,0:0:0:0:
460,226,74247,1,0,0:2:0:0:
204,123,74397,1,0,0:2:0:0:
412,24,74547,1,10,0:2:0:0:
339,252,74697,1,0,0:2:0:0:
131,51,74847,6,0,P|223:26|263:42,1,125.999996154785,2|0,0:2|0:0,0:2:0:0:
425,142,75147,1,8,0:2:0:0:
179,238,75297,1,2,0:2:0:0:
442,164,75447,1,0,0:2:0:0:
148,145,75597,1,0,0:2:0:0:
270,312,75747,2,0,L|282:164,1,125.999996154785,10|0,0:2|0:2,0:2:0:0:
68,202,76047,6,0,P|141:244|214:213,1,125.999996154785,2|0,0:2|0:2,0:0:0:0:
341,24,76347,2,0,P|268:66|258:145,1,125.999996154785,8|0,0:2|0:2,0:2:0:0:
409,331,76647,1,2,0:2:0:0:
405,122,76797,1,0,0:2:0:0:
178,237,76947,5,10,0:2:0:0:
180,268,77022,1,8,0:2:0:0:
183,299,77097,1,8,0:2:0:0:
186,331,77172,1,8,0:2:0:0:
189,362,77247,6,0,P|255:330|351:353,1,154.000004699707,4|8,0:2|0:2,0:2:0:0:
332,341,77847,2,0,L|341:234,1,77.0000023498536,2|0,0:2|0:2,0:0:0:0:
469,213,78147,2,0,L|460:106,1,77.0000023498536,10|0,0:2|0:2,0:2:0:0:
305,172,78447,6,0,P|354:184|391:176,1,77.0000023498536,2|0,0:2|0:2,0:0:0:0:
273,43,78747,2,0,P|236:31|198:34,1,77.0000023498536,8|2,0:2|0:2,0:2:0:0:
216,187,79047,2,0,L|231:100,1,77.0000023498536,0|0,0:2|0:2,0:0:0:0:
111,20,79347,2,0,L|126:107,1,77.0000023498536,10|0,0:2|0:2,0:2:0:0:
1,186,79647,6,0,P|47:161|85:158,1,77.0000023498536,4|0,0:2|0:0,0:2:0:0:
218,275,79947,2,0,P|255:267|287:246,1,77.0000023498536,8|0,0:2|0:0,0:0:0:0:
306,114,80247,1,2,0:2:0:0:
216,187,80397,1,0,0:2:0:0:
371,291,80547,2,0,L|376:197,1,77.0000023498536,10|0,0:2|0:2,0:2:0:0:
438,348,80847,5,2,0:2:0:0:
289,319,80997,1,0,0:2:0:0:
439,146,81147,2,0,P|458:187|463:228,1,77.0000023498536,8|2,0:2|0:2,0:2:0:0:
355,119,81447,1,0,0:2:0:0:
421,59,81597,1,0,0:2:0:0:
304,0,81747,2,0,P|287:34|281:72,1,77.0000023498536,10|2,0:2|0:2,0:2:0:0:
432,256,82047,5,12,0:2:0:0:
227,214,82197,1,0,0:2:0:0:
227,214,82272,1,0,0:2:0:0:
227,214,82347,1,0,0:2:0:0:
481,103,82497,5,12,0:2:0:0:
142,173,82647,1,0,0:2:0:0:
142,173,82722,1,0,0:2:0:0:
142,173,82797,1,0,0:2:0:0:
392,65,82947,5,14,0:2:0:0:
374,312,83097,1,0,0:2:0:0:
265,17,83247,5,2,0:2:0:0:
291,254,83397,1,8,0:2:0:0:
291,254,83472,1,8,0:2:0:0:
291,254,83547,1,10,0:2:0:0:
450,116,83697,1,8,0:3:0:0:
142,173,83847,5,10,0:2:0:0:
422,216,83997,1,8,0:2:0:0:
111,325,84147,1,10,0:2:0:0:
290,153,84297,1,8,0:2:0:0:
290,153,84372,1,8,0:2:0:0:
290,153,84447,1,6,0:2:0:0:
256,192,84522,12,0,89097,0:0:0:0:
