osu file format v14

[General]
AudioFilename: audio.mp3
AudioLeadIn: 0
PreviewTime: 52519
Countdown: 0
SampleSet: Normal
StackLeniency: 0.7
Mode: 0
LetterboxInBreaks: 0
WidescreenStoryboard: 0

[Editor]
DistanceSpacing: 0.9
BeatDivisor: 4
GridSize: 8
TimelineZoom: 1.6

[Metadata]
Title:Howling (TV Size)
TitleUnicode:Howling (TV Size)
Artist:FLOW x GRANRODEO
ArtistUnicode:FLOW × GRANRODEO
Creator:Nevo
Version:Airin's Insane
Source:七つの大罪 戒めの復活
Tags:nanatsu no taizai imashime fukkatsu seven deadly sins revival of the commandments agatsu sotarks airincat azunyan- glaceon smokelind xchorse yudragen chaoticred anime japanese armin a_r_m_i_n hypercyte Mayu Sakuma kujinn xexyz
BeatmapID:2172169
BeatmapSetID:1033492

[Difficulty]
HPDrainRate:5
CircleSize:3.8
OverallDifficulty:8
ApproachRate:9
SliderMultiplier:1.6
SliderTickRate:1

[Events]
//Background and Video events
0,0,"65927 (1).jpg",0,0
Video,0,"l.mp4"
//Break Periods
//Storyboard Layer 0 (Background)
//Storyboard Layer 1 (Fail)
//Storyboard Layer 2 (Pass)
//Storyboard Layer 3 (Foreground)
//Storyboard Layer 4 (Overlay)
//Storyboard Sound Samples

[TimingPoints]
447,300,4,1,22,72,1,0
447,-142.857142857143,4,1,22,72,0,0
8847,-76.9230769230769,4,1,22,72,0,0
9147,-76.9230769230769,4,1,22,72,0,0
9447,-200,4,1,22,72,0,0
10047,-142.857142857143,4,2,22,62,0,0
12897,-111.111111111111,4,2,22,62,0,0
14827,-105.263157894737,4,2,22,62,0,0
14847,-105.263157894737,4,1,22,72,0,0
23247,-100,4,1,22,72,0,0
34027,-142.857142857143,4,1,22,72,0,0
34047,-142.857142857143,4,1,22,62,0,0
42447,-111.111111111111,4,1,22,62,0,0
43647,-142.857142857143,4,1,22,62,0,0
50847,-111.111111111111,4,1,22,62,0,0
52647,-111.111111111111,4,1,22,62,0,0
53227,-100,4,1,22,62,0,0
53247,-90.9090909090909,4,1,22,82,0,1
62847,-105.263157894737,4,1,22,82,0,0
65247,-90.9090909090909,4,1,22,82,0,0
67647,-90.9090909090909,4,1,22,82,0,1
77247,-111.111111111111,4,1,22,82,0,0
82047,-99.9999999999999,4,1,22,82,0,0
84502,-90.9090909090909,4,1,22,82,0,0
84522,-90.9090909090909,4,1,22,22,0,0
89097,-90.9090909090909,4,1,22,5,0,0

[Colours]
Combo1 : 255,182,108
Combo2 : 239,213,122
Combo3 : 199,146,109
Combo4 : 225,142,142

[HitObjects]
21,243,447,6,0,P|36:281|44:318,1,55.9999982910157,6|0,0:2|2:2,0:2:0:0:
178,143,747,2,0,P|163:181|156:213,1,55.9999982910157,0|0,0:2|2:2,0:2:0:0:
1,164,1047,2,0,B|98:154|51:217|159:195,1,167.999994873047,10|0,0:2|2:2,0:2:0:0:
161,23,1647,6,0,P|108:34|86:84,1,111.999996582031,0|0,0:2|0:2,0:2:0:0:
268,129,2097,1,0,2:2:0:0:
268,129,2247,2,0,P|266:59|259:-3,1,111.999996582031,8|0,0:2|0:0,0:2:0:0:
261,17,2847,6,0,P|234:26|207:33,1,55.9999982910157,6|0,0:2|2:2,0:2:0:0:
403,113,3147,2,0,P|375:106|349:96,1,55.9999982910157,0|0,0:2|2:2,0:2:0:0:
341,225,3447,2,0,P|389:173|346:95,1,167.999994873047,8|0,0:2|2:2,0:2:0:0:
229,217,4047,6,0,P|243:264|251:340,1,111.999996582031,0|0,0:2|0:2,0:2:0:0:
55,215,4497,1,0,2:2:0:0:
55,215,4647,2,0,P|90:168|157:188,1,111.999996582031,8|0,0:2|0:0,0:2:0:0:
138,171,5247,6,0,P|134:143|127:116,1,55.9999982910157,6|0,0:2|2:2,0:2:0:0:
281,255,5547,2,0,P|284:227|291:200,1,55.9999982910157,0|0,0:2|2:2,0:2:0:0:
135,261,5847,2,0,B|185:262|207:226|207:226|255:219|286:262,1,167.999994873047,8|0,0:2|2:2,0:2:0:0:
380,381,6447,6,0,P|373:326|411:284,1,111.999996582031,0|0,0:2|0:2,0:2:0:0:
498,122,6897,1,0,2:2:0:0:
498,122,7047,2,0,P|496:179|507:253,1,111.999996582031,8|0,0:2|0:0,0:2:0:0:
503,234,7647,6,0,P|477:225|450:221,1,55.9999982910157,6|0,0:2|2:2,0:2:0:0:
340,157,7947,2,0,P|367:153|394:144,1,55.9999982910157,0|0,0:2|2:2,0:2:0:0:
292,321,8247,2,0,P|296:293|306:267,1,55.9999982910157,8|0,0:2|2:2,0:2:0:0:
226,136,8547,2,0,P|236:162|241:190,1,55.9999982910157,0|0,0:2|2:2,0:2:0:0:
14,231,8847,6,0,P|91:255|129:200,1,155.999992858887,0|0,0:2|0:0,0:2:0:0:
119,181,9147,2,0,P|95:232|151:321,1,155.999992858887,0|0,0:2|0:0,0:2:0:0:
154,326,9447,6,0,P|112:317|15:346,1,140,8|0,0:2|0:0,0:2:0:0:
20,342,10047,5,10,0:2:0:0:
212,244,10197,1,10,0:2:0:0:
212,244,10497,6,0,P|219:188|220:122,2,111.999996582031,2|2|2,0:2|0:2|0:2,0:2:0:0:
289,299,11247,1,0,2:2:0:0:
289,299,11397,1,2,0:2:0:0:
354,243,11547,2,0,L|388:240,3,27.9999991455078,2|0|0|0,0:2|0:0|0:2|0:0,0:0:0:0:
405,223,11847,2,0,P|397:196|463:140,1,111.999996582031,2|2,0:2|0:2,0:0:0:0:
448,139,12447,5,10,0:2:0:0:
261,105,12597,1,10,0:2:0:0:
261,105,12897,6,0,P|267:64|272:33,1,71.9999978027344,2|0,1:2|0:0,0:0:0:0:
95,155,13197,2,0,P|88:119|83:83,1,71.9999978027344,2|0,1:2|0:0,0:0:0:0:
296,253,13497,2,0,P|302:212|307:181,1,71.9999978027344,2|0,1:2|0:0,0:0:0:0:
132,318,13797,1,2,1:2:0:0:
132,318,13947,2,0,P|125:282|120:246,1,71.9999978027344,10|0,0:2|0:2,0:0:0:0:
306,181,14247,1,2,0:2:0:0:
380,288,14397,1,0,1:2:0:0:
380,288,14472,1,0,1:2:0:0:
380,288,14547,2,0,L|468:279,1,71.9999978027344,10|0,0:2|0:2,0:2:0:0:
475,99,14847,6,0,P|394:109|398:184,1,151.999995941162,4|8,0:2|0:2,0:2:0:0:
474,187,15297,1,0,0:2:0:0:
351,33,15447,1,2,0:2:0:0:
351,33,15597,2,0,L|254:39,1,75.9999979705811,2|8,0:2|0:2,0:0:0:0:
234,198,15897,6,0,P|240:160|232:123,1,75.9999979705811,2|0,0:2|0:2,0:2:0:0:
88,126,16197,2,0,P|81:163|89:200,1,75.9999979705811,2|8,0:2|0:2,0:0:0:0:
153,313,16497,2,0,P|113:310|72:307,1,75.9999979705811,2|0,0:2|0:2,0:2:0:0:
226,222,16797,1,2,0:2:0:0:
308,319,16947,2,0,P|351:314|397:305,1,75.9999979705811,10|0,0:2|0:2,0:0:0:0:
405,315,17172,1,0,0:2:0:0:
430,324,17247,6,0,B|427:263|427:263|447:233|447:233|448:163,1,151.999995941162,0|8,0:2|0:2,0:2:0:0:
402,65,17697,1,0,0:2:0:0:
269,165,17847,1,2,0:2:0:0:
272,170,17997,2,0,P|314:177|354:204,1,75.9999979705811,2|8,0:2|0:2,0:0:0:0:
263,57,18297,6,0,B|178:52|217:112|123:100,1,151.999995941162,2|2,0:2|0:2,0:2:0:0:
49,188,18747,1,8,0:2:0:0:
166,276,18897,2,0,P|159:230|156:196,1,75.9999979705811,2|0,0:2|0:2,0:2:0:0:
273,88,19197,1,2,0:2:0:0:
340,201,19347,2,0,L|262:210,1,75.9999979705811,10|0,0:2|0:2,0:0:0:0:
249,194,19572,1,0,0:2:0:0:
238,178,19647,6,0,P|228:99|212:11,2,151.999995941162,0|8|0,0:2|0:2|0:2,0:2:0:0:
340,110,20397,1,0,0:2:0:0:
430,176,20547,2,0,P|466:184|502:175,1,75.9999979705811,10|0,0:2|0:2,0:0:0:0:
473,3,20847,6,0,L|468:86,1,75.9999979705811,2|0,0:2|0:2,0:0:0:0:
339,212,21147,2,0,L|331:136,1,75.9999979705811,10|0,0:2|0:2,0:0:0:0:
285,19,21447,1,2,0:2:0:0:
285,19,21597,1,0,0:2:0:0:
185,93,21747,2,0,P|146:93|107:68,1,75.9999979705811,10|0,0:2|0:2,0:0:0:0:
137,287,22047,6,0,P|147:238|156:201,1,75.9999979705811,2|0,0:2|0:2,0:0:0:0:
0,111,22347,2,0,P|9:147|20:192,1,75.9999979705811,10|0,0:2|0:2,0:0:0:0:
19,322,22647,1,2,0:2:0:0:
19,322,22797,1,0,0:2:0:0:
137,287,22947,2,0,L|222:299,1,75.9999979705811,10|0,0:2|0:2,0:0:0:0:
420,141,23247,6,0,B|378:133|378:133|333:161,1,80,6|8,0:2|0:2,0:0:0:0:
326,149,23472,1,8,0:2:0:0:
307,143,23547,2,0,B|276:172|276:172|272:225,1,80,8|8,0:2|0:3,0:0:0:0:
324,346,23847,1,10,0:2:0:0:
374,232,23997,1,8,0:2:0:0:
212,297,24147,1,8,0:2:0:0:
328,360,24297,1,10,0:2:0:0:
168,214,24447,6,0,B|109:227|109:227|73:197|73:197|3:209,1,160,0|8,0:2|0:2,0:0:0:0:
39,298,24897,1,0,3:2:0:0:
131,133,25047,2,0,P|125:85|121:38,1,80,2|0,0:2|3:2,0:0:0:0:
15,124,25347,1,10,0:2:0:0:
168,214,25497,6,0,P|214:203|254:196,1,80,2|0,3:2|0:2,0:2:0:0:
433,160,25797,2,0,P|392:150|355:142,1,80,2|8,3:2|0:2,0:0:0:0:
245,0,26097,2,0,P|253:37|262:81,1,80,2|0,3:2|0:2,0:2:0:0:
246,197,26397,1,2,3:2:0:0:
62,94,26547,6,2,B|151:72|151:72|185:92|182:144,2,160,10|0|8,0:2|0:2|0:2,0:2:0:0:
0,195,27297,1,0,3:2:0:0:
121,282,27447,2,0,P|116:240|111:200,1,80,2|0,0:2|3:2,0:0:0:0:
4,291,27747,1,10,0:2:0:0:
182,128,27897,6,0,B|250:123|250:123|271:141|271:141|364:135,1,160,2|2,3:2|3:2,0:2:0:0:
472,143,28347,1,8,0:2:0:0:
390,1,28497,2,0,P|399:46|408:92,1,80,2|0,3:2|0:2,0:2:0:0:
478,238,28797,2,0,P|484:196|488:158,1,80,2|10,3:2|0:2,0:0:0:0:
258,281,29097,6,0,B|293:237|334:246|334:246|351:279|390:285,1,160,0|0,0:2|0:0,0:0:0:0:
301,374,29547,1,8,0:2:0:0:
151,329,29697,2,0,L|65:323,1,80,0|0,3:2|0:2,0:2:0:0:
134,203,29997,1,0,3:2:0:0:
258,281,30147,2,0,P|296:272|332:243,1,80,10|0,0:2|3:2,0:2:0:0:
50,165,30447,6,0,P|41:205|31:246,1,80,2|0,0:2|3:2,0:0:0:0:
235,113,30747,2,0,P|243:152|253:190,1,80,10|0,0:2|3:2,0:0:0:0:
55,52,31047,2,0,P|46:92|36:133,1,80,2|0,0:2|3:2,0:0:0:0:
222,4,31347,2,0,P|230:43|240:81,1,80,10|0,0:2|3:2,0:0:0:0:
452,129,31647,6,0,P|406:75|319:100,2,160,6|10|2,0:2|0:2|0:2,0:0:0:0:
370,164,32397,1,0,0:2:0:0:
240,81,32547,2,0,P|196:89|151:93,1,80,10|0,0:2|0:2,0:2:0:0:
305,378,32847,6,0,P|321:342|321:302,1,80,2|8,0:2|0:2,0:0:0:0:
334,287,33072,1,8,0:2:0:0:
345,268,33147,2,0,P|322:235|287:215,1,80,8|8,0:2|0:3,0:0:0:0:
114,263,33447,1,10,0:2:0:0:
226,321,33597,1,8,0:2:0:0:
177,154,33747,1,8,0:2:0:0:
103,262,33897,1,8,0:2:0:0:
288,215,34047,6,0,P|323:202|349:197,1,55.9999982910157,6|0,0:3|2:2,0:2:0:0:
206,74,34347,2,0,P|232:83|259:90,1,55.9999982910157,4|0,0:3|2:2,0:2:0:0:
184,232,34647,2,0,P|127:159|67:191,1,167.999994873047,8|0,0:2|2:2,0:2:0:0:
22,317,35247,6,0,P|17:282|9:251,1,55.9999982910157,4|0,0:3|2:2,0:2:0:0:
162,383,35547,2,0,P|167:348|179:318,1,55.9999982910157,4|0,0:3|2:2,0:2:0:0:
346,269,35847,2,0,P|286:267|251:225,1,111.999996582031,8|0,0:2|0:0,0:2:0:0:
253,230,36447,6,0,P|240:261|235:285,1,55.9999982910157,6|0,0:3|2:2,0:2:0:0:
124,161,36747,2,0,P|137:192|142:216,1,55.9999982910157,4|0,0:3|2:2,0:2:0:0:
306,87,37047,2,0,B|260:53|260:53|200:72|224:148,1,167.999994873047,8|0,0:2|2:2,0:2:0:0:
351,189,37647,6,0,P|385:177|406:166,1,55.9999982910157,4|0,0:3|2:2,0:2:0:0:
262,301,37947,2,0,P|288:309|313:322,1,55.9999982910157,4|0,0:3|2:2,0:2:0:0:
223,143,38247,2,0,P|185:170|119:167,1,111.999996582031,8|0,0:2|0:0,0:2:0:0:
121,168,38847,6,0,P|113:219|104:295,1,111.999996582031,4|0,0:2|0:0,0:0:0:0:
185,336,39297,1,0,0:0:0:0:
185,336,39447,2,0,B|271:303|248:372|350:346,1,167.999994873047,2|0,0:2|0:0,0:0:0:0:
426,294,40047,2,0,P|402:216|411:118,1,167.999994873047,2|0,0:2|0:0,0:0:0:0:
472,69,40647,2,0,B|452:102|406:111|406:111|381:68|331:72,1,167.999994873047,2|0,0:2|0:0,0:0:0:0:
173,197,41247,6,0,B|232:172|232:172|265:191|265:191|341:158,1,167.999994873047,6|0,0:2|0:0,0:0:0:0:
191,60,41847,2,0,B|136:60|100:46|100:46|61:67|93:117,1,167.999994873047,2|0,0:2|0:0,0:0:0:0:
155,266,42447,6,0,P|164:225|177:182,1,71.9999978027344,6|0,0:2|0:0,0:0:0:0:
0,94,42747,1,8,0:2:0:0:
64,213,42897,1,8,0:2:0:0:
200,99,43047,1,10,0:3:0:0:
89,110,43197,1,8,0:3:0:0:
172,196,43347,2,0,P|203:199|246:207,1,71.9999978027344,4|4,0:3|0:3,0:0:0:0:
451,203,43647,6,0,P|443:230|438:257,1,55.9999982910157,4|0,0:3|2:2,0:2:0:0:
307,123,43947,2,0,P|314:150|319:177,1,55.9999982910157,4|0,0:3|2:2,0:2:0:0:
512,128,44247,2,0,P|440:166|401:91,1,167.999994873047,8|0,0:2|2:2,0:2:0:0:
306,0,44847,6,0,P|336:10|366:15,1,55.9999982910157,4|0,0:3|2:2,0:2:0:0:
203,113,45147,2,0,P|233:103|266:102,1,55.9999982910157,4|0,0:3|2:0,0:0:0:0:
359,211,45447,2,0,P|307:244|308:314,1,111.999996582031,8|0,0:2|0:0,0:2:0:0:
299,291,46047,6,0,P|292:263|282:237,1,55.9999982910157,4|0,0:3|2:2,0:2:0:0:
421,350,46347,2,0,P|427:322|437:296,1,55.9999982910157,4|0,0:3|2:2,0:2:0:0:
246,379,46647,2,0,P|192:362|134:367,1,111.999996582031,8|0,0:2|0:0,0:2:0:0:
137,366,47247,6,0,P|131:338|123:311,1,55.9999982910157,4|0,0:3|2:2,0:2:0:0:
236,217,47547,2,0,P|228:244|223:272,1,55.9999982910157,4|0,0:3|2:2,0:2:0:0:
53,193,47847,2,0,P|80:198|107:206,1,55.9999982910157,8|8,0:2|0:3,0:0:0:0:
201,94,48147,2,0,P|174:102|146:107,1,55.9999982910157,4|4,0:3|0:3,0:0:0:0:
305,150,48447,6,0,P|292:93|326:37,1,111.999996582031,4|0,0:2|0:2,0:0:0:0:
510,102,49047,2,0,P|450:100|376:110,1,111.999996582031,2|0,0:2|0:2,0:0:0:0:
356,280,49647,2,0,P|401:266|432:203,1,111.999996582031,2|0,0:2|0:2,0:0:0:0:
206,106,50247,2,0,P|215:177|223:227,1,111.999996582031,2|0,0:2|0:2,0:0:0:0:
221,216,50847,6,0,P|215:243|211:290,1,71.9999978027344,2|0,0:2|0:2,0:0:0:0:
35,361,51147,2,0,P|29:333|14:284,1,71.9999978027344,0|0,0:2|0:2,0:0:0:0:
166,122,51447,1,10,0:2:0:0:
125,279,51597,1,8,0:2:0:0:
14,164,51747,1,8,0:2:0:0:
20,153,51822,1,8,0:2:0:0:
26,142,51897,1,8,0:2:0:0:
32,131,51972,1,8,0:2:0:0:
42,115,52047,6,0,P|37:71|31:34,1,71.9999978027344,10|0,0:2|0:2,0:0:0:0:
163,5,52347,2,0,P|158:46|151:112,1,107.999996704102,8|0,0:2|0:0,0:0:0:0:
166,122,52647,2,0,P|199:117|240:113,1,71.9999978027344,10|8,0:2|0:2,0:0:0:0:
424,283,52947,1,10,0:2:0:0:
403,308,53022,1,8,0:2:0:0:
371,313,53097,1,10,0:2:0:0:
340,301,53172,1,8,0:2:0:0:
320,278,53247,6,0,L|309:179,1,88.000002685547,6|0,0:2|0:2,0:2:0:0:
467,30,53547,2,0,L|458:125,1,88.000002685547,10|0,0:2|0:2,0:2:0:0:
237,113,53847,2,0,P|277:87|332:88,1,88.000002685547,2|0,0:2|0:2,0:2:0:0:
226,262,54147,1,10,0:2:0:0:
136,111,54297,6,0,P|147:62|155:15,1,88.000002685547,2|0,0:2|0:2,0:2:0:0:
0,101,54597,2,0,B|11:173|11:173|21:189|21:189|39:286,1,176.000005371094,2|0,0:2|0:2,0:0:0:0:
229,247,55047,1,2,0:2:0:0:
108,354,55197,1,2,0:2:0:0:
143,198,55347,1,10,0:2:0:0:
227,341,55497,1,2,0:2:0:0:
143,198,55647,6,0,P|137:145|136:101,1,88.000002685547,2|0,0:2|0:2,0:2:0:0:
257,3,55947,2,0,P|255:45|253:103,1,88.000002685547,10|0,0:2|0:2,0:2:0:0:
424,198,56247,2,0,P|376:173|328:176,1,88.000002685547,2|0,0:2|0:2,0:2:0:0:
228,219,56547,1,10,0:2:0:0:
346,359,56697,6,0,P|345:317|349:269,1,88.000002685547,2|0,0:2|0:2,0:2:0:0:
208,343,56997,2,0,B|160:364|118:329|118:329|73:317|43:355,1,176.000005371094,2|0,0:2|0:2,0:0:0:0:
151,139,57447,1,2,0:2:0:0:
177,264,57597,1,2,0:2:0:0:
14,213,57747,1,10,0:2:0:0:
18,200,57822,1,8,0:2:0:0:
22,182,57897,1,10,0:2:0:0:
26,166,57972,1,8,0:2:0:0:
30,148,58047,6,0,P|80:144|130:139,1,88.000002685547,2|0,0:2|0:2,0:2:0:0:
288,16,58347,2,0,P|238:12|184:8,1,88.000002685547,10|0,0:2|0:2,0:2:0:0:
339,171,58647,2,0,P|340:124|363:84,1,88.000002685547,2|0,0:2|0:2,0:2:0:0:
469,165,58947,1,10,0:2:0:0:
344,269,59097,6,0,P|288:253|260:219,1,88.000002685547,2|0,0:2|0:2,0:2:0:0:
187,98,59397,2,0,B|195:154|195:154|168:211|168:211|179:288,1,176.000005371094,2|0,0:2|0:2,0:0:0:0:
88,377,59847,1,0,0:2:0:0:
88,377,59997,1,0,0:2:0:0:
0,241,60147,2,0,P|50:236|110:229,1,88.000002685547,10|0,0:2|0:2,0:2:0:0:
366,320,60447,6,0,B|338:356|287:354|287:354|255:312|272:273,1,176.000005371094,2|8,0:2|0:2,0:2:0:0:
410,149,60897,2,0,P|417:194|421:243,1,88.000002685547,2|0,0:2|0:2,0:0:0:0:
512,147,61197,1,0,0:2:0:0:
327,76,61347,2,0,P|320:121|314:165,1,88.000002685547,10|0,0:2|0:2,0:2:0:0:
133,251,61647,5,0,0:2:0:0:
225,133,61797,1,0,0:2:0:0:
271,273,61947,2,0,P|316:284|365:293,1,88.000002685547,8|0,0:2|0:2,0:2:0:0:
121,147,62247,2,0,P|74:160|30:166,1,88.000002685547,2|0,0:2|0:2,0:0:0:0:
3,316,62547,1,10,0:2:0:0:
8,327,62622,1,8,0:2:0:0:
11,338,62697,1,8,0:2:0:0:
15,348,62772,1,8,0:2:0:0:
18,357,62847,6,0,L|30:273,1,75.9999979705811,4|0,0:2|0:2,0:2:0:0:
143,356,63147,2,0,B|190:349|190:349|214:359|214:359|275:356,1,113.999996955872,8|0,0:2|0:0,0:2:0:0:
278,353,63447,2,0,L|267:273,1,75.9999979705811,0|0,0:2|0:2,0:0:0:0:
400,205,63747,2,0,L|386:325,1,113.999996955872,8|0,0:2|0:0,0:2:0:0:
404,335,64047,6,0,L|483:326,1,75.9999979705811,0|0,0:2|0:2,0:0:0:0:
267,277,64347,2,0,B|213:279|213:279|195:286|195:286|138:288,1,113.999996955872,8|0,0:2|0:0,0:2:0:0:
134,268,64647,2,0,P|141:226|146:187,1,75.9999979705811,0|0,0:2|0:2,0:0:0:0:
6,139,64947,1,8,0:2:0:0:
6,139,65247,6,0,P|49:133|98:124,1,88.000002685547,12|0,0:2|0:2,0:0:0:0:
105,112,65472,1,0,0:2:0:0:
110,100,65547,1,0,0:2:0:0:
195,31,65697,2,0,L|304:47,1,88.000002685547,12|0,0:2|0:2,0:0:0:0:
297,37,65922,1,0,0:2:0:0:
307,27,65997,1,0,0:2:0:0:
422,0,66147,2,0,P|465:22|514:50,1,88.000002685547,12|0,0:2|0:2,0:2:0:0:
441,241,66447,6,0,P|442:197|414:153,1,88.000002685547,0|8,0:2|0:2,0:0:0:0:
432,147,66672,1,8,0:2:0:0:
441,135,66747,2,0,P|411:103|359:91,1,88.000002685547,8|8,0:2|0:3,0:0:0:0:
250,133,67047,1,10,0:2:0:0:
358,228,67197,1,10,0:2:0:0:
369,90,67347,1,10,0:2:0:0:
250,249,67497,1,10,0:2:0:0:
250,249,67572,1,8,0:2:0:0:
250,249,67647,6,0,L|144:232,1,88.000002685547,6|0,0:2|0:2,0:2:0:0:
11,366,67947,2,0,L|120:354,1,88.000002685547,10|0,0:2|0:2,0:2:0:0:
66,163,68247,2,0,P|43:200|41:246,1,88.000002685547,2|0,0:2|0:2,0:2:0:0:
239,139,68547,1,10,0:2:0:0:
104,72,68697,6,2,L|11:61,1,88.000002685547,2|2,0:2|0:2,0:2:0:0:
213,16,68997,2,0,B|272:25|272:25|308:-5|308:-5|400:10,1,176.000005371094,2|0,0:2|0:2,0:0:0:0:
384,180,69447,1,2,0:2:0:0:
486,52,69597,1,2,0:2:0:0:
331,91,69747,1,10,0:2:0:0:
476,159,69897,1,2,0:2:0:0:
331,91,70047,6,0,L|242:77,1,88.000002685547,2|0,0:2|0:2,0:2:0:0:
80,186,70347,2,0,P|123:180|167:175,1,88.000002685547,10|0,0:2|0:2,0:2:0:0:
204,354,70647,2,0,P|197:310|215:270,1,88.000002685547,2|0,0:2|0:2,0:2:0:0:
309,200,70947,1,10,0:2:0:0:
434,332,71097,6,2,P|389:329|337:332,1,88.000002685547,2|2,0:2|0:2,0:2:0:0:
449,202,71397,2,0,B|436:119|436:119|447:102|447:102|432:20,1,176.000005371094,2|0,0:2|0:2,0:0:0:0:
242,0,71847,1,2,0:2:0:0:
291,158,71997,1,2,0:2:0:0:
347,44,72147,1,10,0:2:0:0:
181,98,72297,1,2,0:2:0:0:
347,44,72447,6,0,P|400:36|455:29,1,88.000002685547,2|0,0:2|0:2,0:2:0:0:
512,194,72747,2,0,P|470:187|425:179,1,88.000002685547,10|0,0:2|0:2,0:2:0:0:
333,349,73047,2,0,P|354:308|354:262,1,88.000002685547,2|0,0:2|0:2,0:0:0:0:
291,158,73347,1,10,0:2:0:0:
163,305,73497,6,0,P|213:297|258:293,1,88.000002685547,2|0,0:2|0:0,0:2:0:0:
153,192,73797,2,0,B|53:188|110:274|-8:263,1,176.000005371094,2|0,0:2|0:2,0:0:0:0:
0,146,74247,1,0,0:2:0:0:
0,146,74397,1,0,0:2:0:0:
145,104,74547,2,0,L|153:203,1,88.000002685547,10|0,0:2|0:2,0:2:0:0:
335,335,74847,6,0,P|410:329|405:244,1,176.000005371094,2|8,0:2|0:2,0:2:0:0:
334,112,75297,2,0,P|328:159|322:205,1,88.000002685547,2|0,0:2|0:2,0:2:0:0:
232,99,75597,1,0,0:2:0:0:
415,58,75747,2,0,P|422:101|427:145,1,88.000002685547,10|0,0:2|0:2,0:2:0:0:
259,324,76047,5,2,0:2:0:0:
322,199,76197,1,0,0:2:0:0:
386,323,76347,2,0,L|483:316,1,88.000002685547,8|0,0:2|0:2,0:2:0:0:
229,225,76647,2,0,P|188:229|141:231,1,88.000002685547,2|0,0:2|0:2,0:2:0:0:
49,348,76947,1,10,0:2:0:0:
38,350,77022,1,8,0:2:0:0:
27,351,77097,1,8,0:2:0:0:
17,352,77172,1,8,0:2:0:0:
8,354,77247,6,0,P|1:273|-8:206,1,143.999995605469,4|8,0:2|0:2,0:2:0:0:
185,17,77847,2,0,P|176:42|169:93,1,71.9999978027344,2|0,0:2|0:2,0:0:0:0:
50,92,78147,2,0,P|45:56|31:21,1,71.9999978027344,10|0,0:2|0:2,0:2:0:0:
149,176,78447,6,0,B|208:175|208:175|230:152|230:152|283:152,1,143.999995605469,2|8,0:2|0:2,0:0:0:0:
389,63,78897,2,0,P|353:62|317:58,1,71.9999978027344,2|0,0:2|0:2,0:0:0:0:
382,165,79197,1,0,0:2:0:0:
472,110,79347,2,0,P|477:65|485:24,1,71.9999978027344,10|0,0:2|0:2,0:2:0:0:
382,165,79647,6,0,P|402:216|414:326,1,143.999995605469,4|8,0:2|0:2,0:2:0:0:
239,367,80247,2,0,P|278:373|314:383,1,71.9999978027344,2|0,0:2|0:2,0:0:0:0:
257,267,80547,2,0,P|220:274|186:277,1,71.9999978027344,10|0,0:2|0:2,0:2:0:0:
81,376,80847,6,0,P|97:328|81:216,1,143.999995605469,2|8,0:2|0:2,0:0:0:0:
12,125,81297,2,0,P|4:168|-2:206,1,71.9999978027344,2|0,0:2|0:2,0:0:0:0:
119,122,81597,1,0,0:2:0:0:
79,37,81747,2,0,P|30:30|1:23,1,71.9999978027344,10|2,0:2|0:2,0:2:0:0:
274,85,82047,6,0,P|324:73|363:67,1,80,12|0,0:2|0:2,0:0:0:0:
363,54,82272,1,0,0:2:0:0:
372,38,82347,1,0,0:2:0:0:
448,125,82497,2,0,L|465:212,1,80,12|0,0:2|0:2,0:0:0:0:
477,213,82722,1,0,0:2:0:0:
491,221,82797,1,0,0:2:0:0:
405,307,82947,2,0,L|317:321,1,80,14|0,0:2|0:2,0:0:0:0:
164,345,83247,6,0,P|185:312|191:273,1,80,2|8,0:2|0:2,0:0:0:0:
209,262,83472,1,8,0:2:0:0:
227,253,83547,2,0,P|218:213|194:182,1,80,10|8,0:2|0:3,0:0:0:0:
0,144,83847,1,10,0:2:0:0:
86,288,83997,1,8,0:2:0:0:
139,116,84147,2,0,L|83:110,3,40,10|8|8|8,0:2|0:2|0:2|0:2,0:0:0:0:
81,196,84447,5,6,0:2:0:0:
256,192,84522,12,0,89097,0:0:0:0:
