osu file format v14

[General]
AudioFilename: audio.mp3
AudioLeadIn: 0
PreviewTime: 52519
Countdown: 0
SampleSet: Normal
StackLeniency: 0.7
Mode: 0
LetterboxInBreaks: 0
WidescreenStoryboard: 1

[Editor]
DistanceSpacing: 0.2
BeatDivisor: 4
GridSize: 4
TimelineZoom: 1.6

[Metadata]
Title:Howling (TV Size)
TitleUnicode:Howling (TV Size)
Artist:FLOW x GRANRODEO
ArtistUnicode:FLOW × GRANRODEO
Creator:Nevo
Version:Agatsu's Extra
Source:七つの大罪 戒めの復活
Tags:nanatsu no taizai imashime fukkatsu seven deadly sins revival of the commandments agatsu sotarks airincat azunyan- glaceon smokelind xchorse yudragen chaoticred anime japanese armin a_r_m_i_n hypercyte Mayu Sakuma kujinn xexyz
BeatmapID:2183916
BeatmapSetID:1033492

[Difficulty]
HPDrainRate:5.5
CircleSize:4.2
OverallDifficulty:8.3
ApproachRate:9.2
SliderMultiplier:1.6
SliderTickRate:1

[Events]
//Background and Video events
0,0,"65927 (1).jpg",0,0
Video,0,"l.mp4"
//Break Periods
//Storyboard Layer 0 (Background)
//Storyboard Layer 1 (Fail)
//Storyboard Layer 2 (Pass)
//Storyboard Layer 3 (Foreground)
//Storyboard Layer 4 (Overlay)
//Storyboard Sound Samples

[TimingPoints]
447,300,4,1,22,72,1,0
10047,-111.111111111111,4,2,22,62,0,0
14772,-111.111111111111,4,2,22,5,0,0
14827,-125,4,2,22,62,0,0
14847,-125,4,1,22,72,0,0
24447,-111.111111111111,4,1,22,72,0,0
34047,-100,4,1,22,62,0,0
38847,-111.111111111111,4,1,22,62,0,0
43647,-100,4,1,22,62,0,0
48447,-111.111111111111,4,1,22,62,0,0
52347,-100,4,1,22,62,0,0
53227,-100,4,1,22,62,0,0
53247,-90.9090909090909,4,1,22,82,0,1
77247,-100,4,1,22,82,0,0
84502,-100,4,1,22,82,0,0
84522,-100,4,1,22,22,0,0
89097,-100,4,1,22,5,0,0

[Colours]
Combo1 : 240,224,115
Combo2 : 193,255,6
Combo3 : 173,88,88
Combo4 : 210,68,0

[HitObjects]
398,50,447,6,0,P|423:40|479:37,1,80,6|0,0:2|2:2,0:2:0:0:
352,159,747,2,0,L|267:152,1,80,0|0,0:2|2:2,0:2:0:0:
369,300,1047,2,0,P|441:306|515:249,1,160,10|0,0:2|0:0,0:2:0:0:
272,152,1647,6,0,P|259:190|259:240,1,80,0|0,0:2|2:2,0:2:0:0:
365,205,1947,1,0,0:0:0:0:
365,205,2097,1,0,2:2:0:0:
224,329,2247,2,0,B|133:310|140:363|58:352,1,160,8|0,0:2|0:0,0:2:0:0:
175,124,2847,6,0,B|183:85|183:85|175:40,1,80,6|0,0:2|2:2,0:2:0:0:
75,85,3147,2,0,L|-10:78,1,80,0|0,0:2|2:2,0:2:0:0:
119,231,3447,2,0,P|181:241|270:198,1,160,8|0,0:2|0:0,0:2:0:0:
407,32,4047,6,0,L|497:25,1,80,0|0,0:2|2:2,0:2:0:0:
345,111,4347,1,0,0:2:0:0:
345,111,4497,1,0,2:2:0:0:
512,216,4647,2,0,B|391:199|391:199|357:209|330:210,1,160,8|0,0:2|0:0,0:2:0:0:
124,367,5247,6,0,P|114:332|115:280,1,80,6|0,0:2|2:2,0:2:0:0:
266,191,5547,2,0,L|261:280,1,80,0|0,0:2|2:2,0:2:0:0:
15,186,5847,2,0,B|49:146|111:150|111:150|131:175|161:177,1,160,8|0,0:2|0:0,0:2:0:0:
346,61,6447,6,0,L|434:55,1,80,0|0,0:2|2:2,0:2:0:0:
392,158,6747,1,0,0:2:0:0:
392,158,6897,1,0,2:2:0:0:
238,32,7047,2,0,P|193:84|195:177,1,160,8|0,0:2|0:0,0:2:0:0:
387,248,7647,6,0,L|470:241,1,80,6|0,0:2|2:2,0:2:0:0:
335,368,7947,2,0,P|288:370|250:360,1,80,0|0,0:2|2:2,0:2:0:0:
114,256,8247,2,0,B|238:240|238:240|259:249|294:254,1,160,8|0,0:2|0:2,0:2:0:0:
490,123,8847,6,0,P|498:91|497:32,1,80,0|0,0:2|2:2,0:2:0:0:
381,168,9147,2,0,L|387:251,1,80,0|0,0:2|2:2,0:2:0:0:
265,115,9447,2,0,B|135:81|152:163|26:139,1,240,8|0,0:2|2:2,0:2:0:0:
216,210,10047,5,10,0:2:0:0:
132,368,10197,2,0,L|123:218,2,143.999995605469,10|2|2,0:2|0:2|0:2,0:2:0:0:
354,237,11097,6,0,P|410:223|493:244,1,143.999995605469,2|2,0:2|0:2,0:2:0:0:
343,335,11547,2,0,L|262:330,1,71.9999978027344,2|0,0:2|0:2,0:0:0:0:
109,229,11847,2,0,B|213:220|213:220|233:228|264:231,1,143.999995605469,2|2,0:2|0:2,0:0:0:0:
396,39,12447,5,10,0:2:0:0:
460,224,12597,2,0,P|467:190|466:142,1,71.9999978027344,10|0,0:2|0:2,0:2:0:0:
293,55,12897,2,0,P|286:89|287:137,1,71.9999978027344,2|0,1:2|0:0,0:0:0:0:
138,231,13197,2,0,L|55:224,1,71.9999978027344,2|0,1:2|0:0,0:0:0:0:
233,368,13497,6,0,P|308:374|369:336,1,143.999995605469,2|2,1:2|1:2,0:0:0:0:
436,178,13947,2,0,B|444:217|444:217|438:261,1,71.9999978027344,10|0,0:2|0:2,0:0:0:0:
288,155,14247,1,2,0:2:0:0:
448,21,14397,1,0,1:2:0:0:
444,26,14472,1,0,1:2:0:0:
440,32,14547,2,0,L|317:20,1,107.999996704102,10|0,0:2|0:0,0:2:0:0:
377,127,14847,6,0,P|402:172|404:248,1,128,4|8,0:2|0:2,0:2:0:0:
291,370,15297,2,0,L|297:305,1,64,0|2,0:2|0:2,0:0:0:0:
180,193,15597,2,0,L|185:256,1,64,2|8,0:2|0:2,0:0:0:0:
94,325,15897,6,0,P|55:324|21:314,1,64,2|0,0:2|0:2,0:2:0:0:
180,193,16197,2,0,L|253:189,1,64,2|8,0:2|0:2,0:0:0:0:
118,8,16497,2,0,P|78:62|79:133,1,128,2|2,0:2|0:2,0:2:0:0:
211,51,16947,1,10,0:2:0:0:
295,105,17097,1,0,0:2:0:0:
300,102,17172,1,0,0:2:0:0:
305,98,17247,6,0,L|446:108,1,128,0|8,0:2|0:2,0:2:0:0:
508,184,17697,1,0,0:2:0:0:
508,184,17847,1,2,0:2:0:0:
406,312,17997,2,0,L|411:389,1,64,2|8,0:2|0:2,0:0:0:0:
310,256,18297,6,0,B|246:263|245:230|182:236,1,128,2|2,0:2|0:2,0:2:0:0:
43,147,18747,1,8,0:2:0:0:
137,55,18897,2,0,L|131:118,1,64,2|0,0:2|0:2,0:2:0:0:
0,244,19197,1,2,0:2:0:0:
94,336,19347,2,0,L|88:272,1,64,10|0,0:2|0:2,0:0:0:0:
185,235,19572,1,0,0:2:0:0:
189,239,19647,6,0,L|199:102,1,128,0|8,0:2|0:2,0:2:0:0:
273,53,20097,1,0,0:2:0:0:
353,106,20247,2,0,P|395:111|444:105,1,64,0|0,0:2|0:2,0:0:0:0:
252,242,20547,2,0,P|210:237|161:243,1,64,10|0,0:2|0:2,0:0:0:0:
75,380,20847,6,0,P|64:309|79:242,2,128,2|10|2,0:2|0:2|0:2,0:0:0:0:
170,337,21597,1,0,0:2:0:0:
301,384,21747,2,0,L|298:317,1,64,10|0,0:2|0:2,0:0:0:0:
187,177,22047,6,0,P|120:157|81:162,1,96,2|0,0:2|0:0,0:0:0:0:
4,202,22347,2,0,P|-2:161|2:127,1,64,10|0,0:2|0:2,0:0:0:0:
131,0,22647,2,0,L|126:76,1,64,2|0,0:2|0:2,0:0:0:0:
242,41,22947,2,0,L|305:45,1,64,10|0,0:2|0:2,0:0:0:0:
187,177,23247,5,6,0:2:0:0:
273,296,23397,1,8,0:2:0:0:
275,289,23472,1,8,0:2:0:0:
275,282,23547,1,8,0:2:0:0:
372,234,23697,1,8,0:3:0:0:
169,334,23847,1,10,0:2:0:0:
295,92,23997,5,8,0:2:0:0:
285,187,24147,1,8,0:2:0:0:
275,282,24297,1,10,0:2:0:0:
152,148,24447,6,0,B|42:135|42:135|16:146|-18:145,1,143.999995605469,0|8,0:2|0:2,0:0:0:0:
135,232,24897,1,0,3:2:0:0:
322,159,25047,2,0,P|328:114|325:59,1,71.9999978027344,2|0,0:2|0:2,0:0:0:0:
396,224,25347,1,10,0:2:0:0:
234,202,25497,6,0,L|237:275,1,71.9999978027344,2|0,3:2|0:2,0:2:0:0:
39,381,25797,2,0,L|41:309,1,71.9999978027344,2|8,3:2|0:2,0:0:0:0:
143,348,26097,2,0,L|214:351,1,71.9999978027344,2|0,3:2|0:2,0:2:0:0:
314,315,26397,1,2,3:2:0:0:
411,364,26547,2,2,P|418:327|416:287,1,71.9999978027344,10|2,0:2|3:2,0:2:0:0:
512,84,26847,6,0,L|504:233,1,143.999995605469,0|8,0:2|0:2,0:0:0:0:
414,93,27297,1,0,0:0:0:0:
338,153,27447,1,2,0:2:0:0:
227,123,27597,2,0,B|231:163|231:163|222:201,1,71.9999978027344,0|10,3:2|0:2,0:0:0:0:
299,255,27897,6,0,L|381:250,1,71.9999978027344,2|0,3:2|0:2,0:2:0:0:
227,376,28197,2,0,P|183:378|142:369,1,71.9999978027344,2|8,3:2|0:2,0:0:0:0:
22,255,28497,2,0,L|26:183,1,71.9999978027344,2|0,3:2|0:2,0:2:0:0:
187,56,28797,1,2,3:2:0:0:
93,0,28947,2,0,L|97:72,1,71.9999978027344,10|0,0:2|0:2,0:2:0:0:
239,183,29247,6,0,P|310:186|375:137,1,143.999995605469,0|8,0:2|0:2,0:2:0:0:
450,19,29697,2,0,B|458:58|458:58|451:105,1,71.9999978027344,0|0,3:2|0:2,0:2:0:0:
352,39,29997,1,0,3:2:0:0:
441,226,30147,2,0,L|523:218,1,71.9999978027344,10|0,0:2|3:2,0:2:0:0:
308,117,30447,6,0,B|198:106|198:106|174:115|143:120,2,143.999995605469,2|10|2,0:2|0:2|0:2,0:0:0:0:
145,213,31197,1,0,3:2:0:0:
233,324,31347,2,0,P|239:285|236:242,1,71.9999978027344,10|0,0:2|3:2,0:0:0:0:
61,141,31647,6,0,P|29:206|35:284,2,143.999995605469,6|10|2,0:2|0:2|0:2,0:0:0:0:
256,58,32397,1,0,0:2:0:0:
155,0,32547,2,0,L|160:78,1,71.9999978027344,10|0,0:2|0:2,0:2:0:0:
274,199,32847,5,2,0:2:0:0:
352,125,32997,1,8,0:2:0:0:
359,123,33072,1,8,0:2:0:0:
366,122,33147,1,8,0:2:0:0:
345,280,33297,5,8,0:3:0:0:
366,372,33447,1,10,0:2:0:0:
172,291,33597,5,8,0:2:0:0:
182,196,33747,1,8,0:2:0:0:
192,101,33897,1,8,0:2:0:0:
79,233,34047,6,0,P|24:238|-6:235,1,80,6|0,0:3|2:2,0:2:0:0:
165,370,34347,2,0,L|172:286,1,80,4|0,0:3|2:2,0:2:0:0:
302,159,34647,2,0,P|343:216|336:310,1,160,8|0,0:2|0:0,0:2:0:0:
472,94,35247,6,0,P|436:86|379:90,1,80,4|0,0:3|2:2,0:2:0:0:
296,238,35547,2,0,L|302:151,1,80,4|0,0:3|2:2,0:2:0:0:
206,81,35847,2,0,B|114:68|124:123|34:111,1,160,8|0,0:2|0:0,0:2:0:0:
296,238,36447,6,0,P|343:237|388:247,1,80,6|0,0:3|2:2,0:2:0:0:
231,334,36747,2,0,L|146:327,1,80,4|0,0:3|2:2,0:2:0:0:
0,225,37047,2,0,B|30:184|98:189|98:189|114:215|147:223,1,160,8|0,0:2|0:0,0:2:0:0:
353,79,37647,6,0,B|360:40|360:40|355:-8,1,80,4|0,0:3|2:2,0:2:0:0:
175,54,37947,2,0,B|168:93|168:93|173:141,1,80,4|0,0:3|2:2,0:2:0:0:
273,259,38247,2,0,L|264:95,1,160,8|0,0:2|0:0,0:2:0:0:
499,351,38847,6,0,B|427:338|428:378|356:369,1,143.999995605469,4|0,0:2|0:0,0:0:0:0:
483,257,39297,1,0,0:0:0:0:
408,199,39447,2,0,L|421:49,1,143.999995605469,2|0,0:2|0:0,0:0:0:0:
239,157,40047,6,0,P|212:211|219:312,1,143.999995605469,2|0,0:2|0:0,0:0:0:0:
308,255,40497,1,0,0:0:0:0:
138,368,40647,2,0,B|37:351|37:351|15:369|-20:371,1,143.999995605469,2|0,0:2|0:0,0:0:0:0:
218,138,41247,6,0,P|229:91|205:-3,1,143.999995605469,6|0,0:2|0:0,0:0:0:0:
121,145,41697,1,0,0:0:0:0:
277,216,41847,2,0,L|434:204,1,143.999995605469,2|0,0:2|0:0,0:0:0:0:
265,298,42297,1,0,0:0:0:0:
345,381,42447,6,0,B|352:342|352:342|350:309,1,71.9999978027344,6|0,0:2|0:0,0:0:0:0:
188,181,42747,1,8,0:2:0:0:
174,277,42897,1,8,0:2:0:0:
326,147,43047,5,10,0:3:0:0:
316,52,43197,1,8,0:3:0:0:
411,42,43347,1,4,0:3:0:0:
421,137,43497,1,4,0:3:0:0:
297,66,43647,6,0,L|213:60,1,80,4|0,0:3|2:2,0:2:0:0:
239,253,43947,2,0,L|245:169,1,80,4|0,0:3|2:2,0:2:0:0:
117,59,44247,2,0,P|77:126|80:206,1,160,8|0,0:2|0:0,0:2:0:0:
267,374,44847,6,0,L|352:368,1,80,4|0,0:3|2:2,0:2:0:0:
495,257,45147,2,0,P|508:298|506:345,1,80,4|0,0:3|2:0,0:0:0:0:
384,210,45447,2,0,L|391:50,1,160,8|0,0:2|0:0,0:2:0:0:
231,216,46047,6,0,B|219:254|219:254|226:307,1,80,4|0,0:3|2:2,0:2:0:0:
404,384,46347,2,0,B|416:346|416:346|409:293,1,80,4|0,0:3|2:2,0:2:0:0:
310,334,46647,2,0,B|228:317|231:361|148:348,1,160,8|0,0:2|0:0,0:2:0:0:
0,233,47097,1,0,2:2:0:0:
6,228,47172,1,0,0:0:0:0:
12,222,47247,6,0,L|19:139,1,80,4|0,0:3|2:2,0:2:0:0:
176,25,47547,2,0,P|186:72|183:116,1,80,4|0,0:3|2:2,0:2:0:0:
80,66,47847,5,8,0:2:0:0:
191,194,47997,1,8,0:3:0:0:
141,281,48147,5,4,0:3:0:0:
294,177,48297,1,4,0:3:0:0:
141,281,48447,6,0,B|36:268|36:268|22:283|-23:291,2,143.999995605469,4|0|2,0:2|0:2|0:2,0:0:0:0:
225,341,49197,1,0,0:0:0:0:
319,299,49347,2,0,P|324:259|318:218,1,71.9999978027344,0|0,0:2|0:0,0:0:0:0:
241,29,49647,6,0,L|233:181,1,143.999995605469,2|0,0:2|0:2,0:0:0:0:
328,65,50097,1,0,0:0:0:0:
488,162,50247,2,0,B|448:129|400:135|400:135|383:154|346:157,1,143.999995605469,2|0,0:2|0:2,0:0:0:0:
203,332,50847,6,0,P|197:298|200:245,1,71.9999978027344,2|0,0:2|0:2,0:0:0:0:
356,155,51147,2,0,P|362:189|359:242,1,71.9999978027344,0|0,0:2|0:2,0:0:0:0:
229,154,51447,1,10,0:2:0:0:
325,318,51597,1,8,0:2:0:0:
229,154,51747,1,8,0:2:0:0:
68,255,51897,1,8,0:2:0:0:
61,253,51972,1,8,0:2:0:0:
54,251,52047,5,10,0:2:0:0:
95,353,52197,1,0,0:2:0:0:
129,110,52347,2,0,B|137:155|137:155|132:207,1,80,8|0,0:2|0:0,0:0:0:0:
29,147,52647,5,10,0:2:0:0:
171,284,52797,1,8,0:2:0:0:
329,184,52947,5,10,0:2:0:0:
365,173,53022,1,8,0:2:0:0:
403,175,53097,1,10,0:2:0:0:
439,193,53172,1,8,0:2:0:0:
461,228,53247,6,0,L|450:323,1,88.000002685547,6|0,0:2|0:2,0:2:0:0:
329,184,53547,2,0,P|318:139|345:53,1,132.00000402832,10|0,0:2|0:0,0:2:0:0:
441,10,53847,2,0,L|434:104,1,88.000002685547,2|0,0:2|0:2,0:2:0:0:
230,225,54147,1,10,0:2:0:0:
335,271,54297,6,0,L|328:183,1,88.000002685547,2|0,0:2|0:2,0:2:0:0:
206,347,54597,1,2,0:2:0:0:
48,286,54747,2,0,P|87:270|154:271,1,88.000002685547,8|0,0:2|0:2,0:0:0:0:
278,121,55047,1,2,0:2:0:0:
191,46,55197,1,2,0:2:0:0:
300,8,55347,1,10,0:2:0:0:
163,146,55497,1,2,0:2:0:0:
307,314,55647,6,0,L|313:222,1,88.000002685547,2|0,0:2|0:2,0:2:0:0:
485,63,55947,2,0,P|515:120|510:192,1,132.00000402832,10|0,0:2|0:0,0:2:0:0:
423,259,56247,2,0,L|415:166,1,88.000002685547,2|0,0:2|0:2,0:2:0:0:
512,354,56547,1,10,0:2:0:0:
312,226,56697,6,0,B|302:270|302:270|310:322,1,88.000002685547,2|0,0:2|0:2,0:2:0:0:
415,171,56997,1,2,0:2:0:0:
199,266,57147,2,0,L|103:257,1,88.000002685547,8|0,0:2|0:2,0:0:0:0:
166,155,57447,1,2,0:2:0:0:
141,363,57597,1,2,0:2:0:0:
19,199,57747,1,10,0:2:0:0:
1,166,57822,1,8,0:2:0:0:
0,130,57897,1,10,0:2:0:0:
13,91,57972,1,8,0:2:0:0:
38,62,58047,6,0,L|135:59,1,88.000002685547,2|0,0:2|0:2,0:2:0:0:
299,180,58347,2,0,P|321:118|301:38,1,132.00000402832,10|0,0:2|0:0,0:2:0:0:
200,151,58647,2,0,L|205:249,1,88.000002685547,2|0,0:2|0:2,0:2:0:0:
359,362,58947,1,10,0:2:0:0:
451,298,59097,6,0,B|459:254|459:254|449:195,1,88.000002685547,2|0,0:2|0:2,0:2:0:0:
277,303,59397,1,2,0:2:0:0:
75,239,59547,2,0,B|180:227|180:227|199:240|235:245,1,132.00000402832,8|0,0:2|0:0,0:0:0:0:
247,141,59847,1,0,0:2:0:0:
136,335,59997,1,0,0:2:0:0:
247,141,60147,2,0,P|254:97|249:44,1,88.000002685547,10|0,0:2|0:2,0:2:0:0:
398,282,60447,6,0,P|346:308|270:300,1,132.00000402832,2|0,0:2|0:0,0:2:0:0:
326,211,60747,1,8,0:2:0:0:
497,374,60897,2,0,B|504:330|504:330|496:273,1,88.000002685547,2|0,0:2|0:2,0:0:0:0:
398,282,61197,1,0,0:2:0:0:
227,159,61347,2,0,B|220:203|220:203|228:260,1,88.000002685547,10|0,0:2|0:2,0:2:0:0:
339,103,61647,5,0,0:2:0:0:
287,326,61797,1,0,0:2:0:0:
133,222,61947,2,0,L|40:216,1,88.000002685547,8|0,0:2|0:2,0:2:0:0:
216,374,62247,2,0,B|287:355|285:393|352:374,1,132.00000402832,2|0,0:2|0:0,0:0:0:0:
423,317,62547,1,10,0:2:0:0:
427,280,62622,1,8,0:2:0:0:
432,242,62697,1,8,0:2:0:0:
437,204,62772,1,8,0:2:0:0:
442,166,62847,5,4,0:2:0:0:
338,269,62997,1,0,0:2:0:0:
178,173,63147,2,0,B|277:163|277:163|294:178|327:183,1,132.00000402832,8|0,0:2|0:0,0:2:0:0:
350,86,63447,1,0,0:2:0:0:
237,265,63597,1,0,0:2:0:0:
87,116,63747,2,0,P|62:175|66:248,1,132.00000402832,8|0,0:2|0:0,0:2:0:0:
178,173,64047,6,0,L|185:79,1,88.000002685547,0|0,0:2|0:2,0:0:0:0:
14,183,64347,1,8,0:2:0:0:
165,293,64497,2,0,L|171:380,1,88.000002685547,0|0,0:2|0:2,0:0:0:0:
316,216,64797,1,0,0:2:0:0:
444,379,64947,2,0,B|451:335|451:335|440:288,1,88.000002685547,8|0,0:2|0:2,0:0:0:0:
274,142,65247,5,12,0:2:0:0:
403,47,65397,1,0,0:2:0:0:
406,55,65472,1,0,0:2:0:0:
406,63,65547,1,0,0:2:0:0:
233,43,65697,2,0,L|99:35,1,132.00000402832,12|0,0:2|0:2,0:0:0:0:
21,89,65997,1,0,0:2:0:0:
82,255,66147,2,0,B|88:209|88:209|82:153,1,88.000002685547,12|0,0:2|0:2,0:2:0:0:
2,334,66447,5,0,0:2:0:0:
195,241,66597,1,8,0:2:0:0:
203,237,66672,2,0,L|342:251,1,132.00000402832,8|8,0:2|0:3,0:0:0:0:
261,338,67047,1,10,0:2:0:0:
438,236,67197,1,10,0:2:0:0:
262,18,67347,1,10,0:2:0:0:
232,50,67422,1,8,0:2:0:0:
225,91,67497,1,10,0:2:0:0:
231,130,67572,1,8,0:2:0:0:
255,163,67647,6,0,L|347:158,1,88.000002685547,6|0,0:2|0:2,0:2:0:0:
261,338,67947,2,0,P|183:356|118:342,1,132.00000402832,10|0,0:2|0:0,0:2:0:0:
44,293,68247,2,0,P|35:352|41:402,1,88.000002685547,2|0,0:2|0:2,0:2:0:0:
192,252,68547,1,10,0:2:0:0:
12,141,68697,6,2,B|139:125|139:125|161:147|190:152,1,176.000005371094,2|2,0:2|0:2,0:2:0:0:
357,28,69147,2,0,P|372:76|370:134,1,88.000002685547,8|0,0:2|0:2,0:0:0:0:
261,80,69447,1,2,0:2:0:0:
406,217,69597,1,2,0:2:0:0:
299,334,69747,2,0,L|308:243,1,88.000002685547,10|2,0:2|0:2,0:0:0:0:
115,148,70047,6,0,P|87:212|97:289,1,132.00000402832,2|0,0:2|0:0,0:2:0:0:
185,335,70347,2,0,B|193:291|193:291|184:240,1,88.000002685547,10|0,0:2|0:2,0:2:0:0:
0,124,70647,2,0,B|-8:168|-8:168|1:219,1,88.000002685547,2|0,0:2|0:2,0:2:0:0:
204,96,70947,1,10,0:2:0:0:
130,25,71097,6,2,L|35:18,1,88.000002685547,2|2,0:2|0:2,0:2:0:0:
169,195,71397,1,2,0:2:0:0:
308,87,71547,2,0,P|314:39|307:-10,1,88.000002685547,8|0,0:2|0:2,0:0:0:0:
356,185,71847,1,2,0:2:0:0:
204,96,71997,1,2,0:2:0:0:
260,316,72147,2,0,L|266:214,1,88.000002685547,10|2,0:2|0:2,0:0:0:0:
491,155,72447,6,0,P|518:224|509:291,1,132.00000402832,2|0,0:2|0:0,0:2:0:0:
413,330,72747,2,0,L|421:235,1,88.000002685547,10|0,0:2|0:2,0:2:0:0:
260,316,73047,2,0,P|214:326|168:324,1,88.000002685547,2|0,0:2|0:2,0:0:0:0:
212,220,73347,1,10,0:2:0:0:
149,19,73497,6,0,P|105:103|112:185,1,176.000005371094,2|2,0:2|0:2,0:2:0:0:
263,91,73947,2,0,L|268:3,1,88.000002685547,8|0,0:2|0:2,0:2:0:0:
372,51,74247,1,0,0:2:0:0:
162,37,74397,1,0,0:2:0:0:
372,51,74547,2,0,L|466:44,1,88.000002685547,10|0,0:2|0:2,0:2:0:0:
310,196,74847,6,0,B|214:180|214:180|184:199|152:195,1,132.00000402832,2|0,0:2|0:0,0:2:0:0:
93,142,75147,1,8,0:2:0:0:
123,367,75297,2,0,B|131:322|131:322|122:268,1,88.000002685547,2|0,0:2|0:2,0:2:0:0:
19,371,75597,1,0,0:2:0:0:
235,295,75747,2,0,L|327:291,1,88.000002685547,10|0,0:2|0:2,0:2:0:0:
494,144,76047,6,0,P|517:217|507:285,1,132.00000402832,2|0,0:2|0:0,0:0:0:0:
408,326,76347,2,0,L|415:230,1,88.000002685547,8|0,0:2|0:2,0:2:0:0:
268,98,76647,2,0,B|197:86|201:123|124:110,1,132.00000402832,2|0,0:2|0:0,0:2:0:0:
51,163,76947,1,10,0:2:0:0:
26,195,77022,1,8,0:2:0:0:
19,235,77097,1,8,0:2:0:0:
25,271,77172,1,8,0:2:0:0:
48,303,77247,6,0,B|94:274|154:286|154:286|175:312|208:316,1,160,4|8,0:2|0:2,0:2:0:0:
428,243,77847,2,0,P|438:204|436:153,1,80,2|0,0:2|0:2,0:0:0:0:
330,298,78147,2,0,L|335:389,1,80,10|0,0:2|0:2,0:2:0:0:
233,240,78447,6,0,B|119:224|119:224|93:236|52:241,1,160,2|8,0:2|0:2,0:0:0:0:
215,47,78897,2,0,P|223:95|220:129,1,80,2|0,0:2|0:2,0:0:0:0:
114,91,79197,1,0,0:2:0:0:
233,240,79347,2,0,L|321:233,1,80,10|0,0:2|0:2,0:2:0:0:
472,100,79647,6,0,P|505:165|497:262,1,160,4|8,0:2|0:2,0:2:0:0:
270,84,80247,2,0,P|267:48|277:-9,1,80,2|0,0:2|0:2,0:0:0:0:
372,144,80547,2,0,L|366:234,1,80,10|0,0:2|0:2,0:2:0:0:
183,332,80847,6,0,B|293:311|293:311|310:325|354:338,1,160,2|8,0:2|0:2,0:0:0:0:
186,150,81297,2,0,B|175:190|175:190|181:239,1,80,2|0,0:2|0:2,0:0:0:0:
270,84,81597,1,0,0:2:0:0:
79,166,81747,2,0,L|-15:158,1,80,10|2,0:2|0:2,0:2:0:0:
28,283,82047,5,12,0:2:0:0:
186,150,82197,1,0,0:2:0:0:
188,157,82272,1,0,0:2:0:0:
188,164,82347,1,0,0:2:0:0:
98,53,82497,5,12,0:2:0:0:
307,176,82647,1,0,0:2:0:0:
315,174,82722,1,0,0:2:0:0:
322,173,82797,1,0,0:2:0:0:
190,336,82947,2,0,P|149:343|96:337,1,80,14|0,0:2|0:2,0:0:0:0:
188,164,83247,5,2,0:2:0:0:
326,347,83397,1,8,0:2:0:0:
327,339,83472,1,8,0:2:0:0:
328,331,83547,1,10,0:2:0:0:
190,336,83697,1,8,0:3:0:0:
324,157,83847,5,10,0:2:0:0:
295,52,83997,1,8,0:2:0:0:
498,211,84147,5,10,0:2:0:0:
464,243,84222,1,8,0:2:0:0:
450,282,84297,1,8,0:2:0:0:
450,322,84372,1,8,0:2:0:0:
470,359,84447,1,6,0:2:0:0:
256,192,84522,12,0,89097,0:0:0:0:
