osu file format v14

[General]
AudioFilename: audio.mp3
AudioLeadIn: 0
PreviewTime: 55949
Countdown: 0
SampleSet: Normal
StackLeniency: 0.7
Mode: 0
LetterboxInBreaks: 0
WidescreenStoryboard: 0

[Editor]
Bookmarks: 28964,39758,50720,82933,88330,99124,110086,142299,153093,217856
DistanceSpacing: 1.7
BeatDivisor: 4
GridSize: 4
TimelineZoom: 1.3

[Metadata]
Title:WORLD END
TitleUnicode:WORLD END
Artist:FLOW
ArtistUnicode:FLOW
Creator:PantyDev
Version:All hail lelouch!
Source:Code Geass: Lelouch of the Rebellion R2
Tags:Code Geass Flow Word End Lelouch vi Britannia C.C. C2 Karen Kouzuki
BeatmapID:1186841
BeatmapSetID:561330

[Difficulty]
HPDrainRate:6.5
CircleSize:4
OverallDifficulty:8.5
ApproachRate:9.2
SliderMultiplier:1.8
SliderTickRate:1

[Events]
//Background and Video events
0,0,"bg.jpg",0,0
//Break Periods
//Storyboard Layer 0 (Background)
//Storyboard Layer 1 (Fail)
//Storyboard Layer 2 (Pass)
//Storyboard Layer 3 (Foreground)
//Storyboard Sound Samples

[TimingPoints]
1137,337.306049021812,4,1,2,40,1,0
1474,-133.333333333333,4,1,2,40,0,0
10750,-153.846153846154,4,1,2,40,0,0
11256,-181.818181818182,4,1,2,40,0,0
11593,-181.818181818182,4,1,2,60,0,0
12436,-181.818181818182,4,1,1,70,0,0
12774,-111.111111111111,4,1,1,70,0,0
18170,-100,4,1,1,70,0,0
28964,-111.111111111111,4,1,1,60,0,0
39758,-100,4,1,1,70,0,0
50720,-133.333333333333,4,1,1,50,0,0
52744,-181.818181818182,4,1,1,60,0,0
55949,-90.9090909090909,4,1,1,80,0,1
88330,-111.111111111111,4,1,1,60,0,0
99124,-100,4,1,1,70,0,0
110086,-133.333333333333,4,1,1,50,0,0
112110,-181.818181818182,4,1,1,60,0,0
115315,-90.9090909090909,4,1,1,80,0,1
142299,-133.333333333333,4,1,2,40,0,0
153093,-111.111111111111,4,1,1,60,0,0
169284,-100,4,1,1,70,0,0
174849,-133.333333333333,4,1,1,50,0,0
180246,-133.333333333333,4,1,1,50,0,0
182270,-181.818181818182,4,1,1,60,0,0
185980,-90.9090909090909,4,1,1,80,0,1
223253,-90.9090909090909,4,1,1,90,0,0

[Colours]
Combo1 : 105,39,39
Combo2 : 238,154,15
Combo3 : 71,220,120
Combo4 : 87,15,115
Combo5 : 225,234,231

[HitObjects]
324,152,1474,6,0,P|348:148|368:136,3,33.7500012874604
196,248,1811,2,0,P|172:252|152:264,3,33.7500012874604
228,220,2148,6,0,P|232:176|212:132,1,67.5000025749208,2|0,0:0|0:0,0:0:0:0:
156,28,2486,6,0,P|224:16|280:52,1,135.000005149842
324,152,2992,1,0,0:0:0:0:
296,264,3160,1,0,0:0:0:0:
408,292,3329,1,0,0:0:0:0:
436,180,3498,2,0,P|456:148|456:104,1,67.5000025749208
277,49,4004,6,0,P|257:81|257:125,1,67.5000025749208
273,325,4341,2,0,P|293:293|293:249,1,67.5000025749208
208,180,4678,1,0,0:0:0:0:
152,336,4847,2,0,P|212:304|280:332,1,135.000005149842,2|0,0:0|0:0,0:0:0:0:
372,380,5353,5,0,0:0:0:0:
448,296,5521,2,0,L|440:204,1,67.5000025749208
448,296,6027,2,0,L|435:155,2,135.000005149842
216,196,7039,5,0,0:0:0:0:
216,196,7208,1,0,0:0:0:0:
296,112,7377,1,0,0:0:0:0:
220,28,7545,2,0,P|148:36|80:96,1,135.000005149842,2|0,0:0|0:0,0:0:0:0:
28,160,8051,5,0,0:0:0:0:
100,252,8220,2,0,L|184:252,1,67.5000025749208
268,304,8557,1,0,0:0:0:0:
328,208,8726,1,0,0:0:0:0:
328,208,8895,2,0,P|400:216|468:276,1,135.000005149842,2|0,0:0|0:0,0:0:0:0:
450,251,9569,6,0,B|430:183|430:183|430:111,1,135.000005149842
348,36,10075,1,0,0:0:0:0:
232,28,10244,6,0,P|180:100|248:136,1,168.750006437302,2|0,0:0|0:0,0:0:0:0:
228,137,10750,6,0,P|182:199|241:230,1,146.249993305207,2|0,0:0|0:0,0:0:0:0:
224,232,11256,6,0,P|194:273|233:293,1,99.0000030212403,2|8,0:0|0:0,0:0:0:0:
301,247,11930,1,8,0:0:0:0:
368,128,12268,1,8,0:0:0:0:
228,137,12436,1,2,0:0:0:0:
301,247,12605,1,2,0:0:0:0:
301,247,12774,6,0,P|257:247|209:219,1,80.9999975280763
368,128,13111,1,2,0:0:0:0:
140,32,13280,2,0,P|180:31|217:46,1,80.9999975280763,8|0,0:0|0:0,0:0:0:0:
429,253,13617,6,0,P|388:252|352:268,1,80.9999975280763,2|0,0:0|0:0,0:0:0:0:
268,32,13954,2,0,P|304:47|345:46,1,80.9999975280763,8|2,0:0|0:0,0:0:0:0:
492,120,14291,1,0,0:0:0:0:
260,72,14460,1,2,0:1:0:0:
352,267,14629,5,8,0:0:0:0:
165,207,14797,1,0,0:0:0:0:
352,267,14966,1,2,0:0:0:0:
272,28,15135,1,0,0:0:0:0:
80,224,15303,2,0,P|60:180|68:132,1,80.9999975280763,8|0,0:0|0:0,0:0:0:0:
148,32,15641,1,0,0:0:0:0:
252,188,15809,1,2,0:0:0:0:
24,288,15978,6,0,P|68:308|116:300,1,80.9999975280763,8|0,0:0|0:0,0:0:0:0:
184,132,16315,2,0,P|164:176|172:224,1,80.9999975280763,2|0,0:0|0:0,0:0:0:0:
304,328,16653,1,8,0:0:0:0:
326,138,16821,2,0,P|262:102|169:153,1,161.999995056153,0|2,0:0|0:0,0:0:0:0:
80,224,17327,5,8,0:0:0:0:
160,8,17496,1,2,0:0:0:0:
252,188,17664,1,2,0:0:0:0:
252,188,17749,1,2,0:0:0:0:
252,188,17833,2,0,L|252:252,1,40.4999987640381,2|2,0:0|0:0,0:0:0:0:
396,348,18002,1,2,0:0:0:0:
396,348,18086,1,2,0:0:0:0:
396,348,18170,2,0,L|396:180,1,135,4|0,0:0|0:0,0:0:0:0:
396,172,18508,1,2,0:0:0:0:
183,131,18676,6,0,L|83:111,1,90,8|0,0:0|0:0,0:0:0:0:
244,348,19014,2,0,P|300:340|336:308,1,90,2|2,0:0|0:0,0:0:0:0:
413,83,19351,2,0,L|393:183,1,90,8|2,0:0|0:0,0:0:0:0:
236,88,19688,2,0,L|253:0,1,90,0|2,0:0|0:0,0:0:0:0:
96,112,20026,5,8,0:0:0:0:
296,208,20194,1,0,0:0:0:0:
44,212,20363,1,2,0:0:0:0:
44,212,20448,1,0,0:0:0:0:
44,212,20532,1,2,0:0:0:0:
244,344,20700,1,8,0:0:0:0:
336,8,20869,2,0,L|299:191,1,180,2|2,0:0|0:0,0:0:0:0:
124,256,21375,6,0,P|88:292|28:300,1,90,8|0,0:0|0:0,0:0:0:0:
325,320,21712,2,0,P|361:284|421:276,1,90,2|2,0:0|0:0,0:0:0:0:
352,156,22049,1,8,0:0:0:0:
136,148,22218,1,2,0:0:0:0:
176,344,22387,1,0,0:0:0:0:
397,273,22555,1,2,0:0:0:0:
124,256,22724,5,8,0:0:0:0:
272,92,22893,1,0,0:0:0:0:
408,352,23061,1,2,0:0:0:0:
408,352,23146,1,0,0:0:0:0:
408,352,23230,1,2,0:0:0:0:
176,344,23399,1,8,0:0:0:0:
176,344,23483,1,0,0:0:0:0:
176,344,23567,2,0,B|184:280|184:280|152:168,1,180,2|2,0:0|0:0,0:0:0:0:
196,40,24073,6,0,P|152:24|108:32,1,90,8|0,0:0|0:0,0:0:0:0:
300,184,24411,2,0,P|344:200|388:192,1,90,2|2,0:0|0:0,0:0:0:0:
288,344,24748,1,8,0:0:0:0:
44,144,24917,2,0,L|92:337,1,180,2|2,0:0|0:0,0:0:0:0:
152,168,25423,6,0,P|196:152|240:160,1,90,8|0,0:0|0:0,0:0:0:0:
396,272,25760,1,2,0:0:0:0:
396,272,25844,1,0,0:0:0:0:
396,272,25928,1,2,0:0:0:0:
416,28,26097,1,8,0:0:0:0:
264,240,26266,2,0,P|316:192|284:96,1,180,2|2,0:0|0:0,0:0:0:0:
121,99,26772,6,0,L|22:156,1,90,8|0,0:0|0:0,0:0:0:0:
120,4,27109,2,0,P|176:20|204:56,1,90,2|2,0:0|0:0,0:0:0:0:
204,236,27446,1,8,0:0:0:0:
440,120,27615,1,2,0:0:0:0:
396,344,27784,1,0,0:0:0:0:
388,60,27952,1,2,0:0:0:0:
152,168,28121,6,0,P|124:216|124:260,1,90,8|0,0:0|0:0,0:0:0:0:
256,364,28458,1,2,0:0:0:0:
408,184,28627,1,8,0:0:0:0:
408,184,28796,1,8,0:0:0:0:
208,92,28964,2,0,P|156:76|60:128,1,161.999995056153,2|2,0:0|0:0,0:0:0:0:
120,248,29470,6,0,B|172:248|204:268|204:268|236:288|308:292,1,161.999995056153,8|0,0:0|0:0,0:0:0:0:
408,184,29976,1,2,0:0:0:0:
436,340,30145,1,8,0:0:0:0:
272,288,30313,2,0,P|240:224|256:132,1,161.999995056153,2|0,0:0|0:0,0:0:0:0:
286,73,30819,6,0,L|186:97,1,80.9999975280763,8|0,0:0|0:0,0:0:0:0:
43,268,31157,2,0,L|121:249,1,80.9999975280763,0|2,0:0|0:0,0:0:0:0:
272,288,31494,1,8,0:0:0:0:
132,44,31663,2,0,P|116:100|188:176,1,161.999995056153,2|0,0:0|0:0,0:0:0:0:
304,208,32169,6,0,P|348:244|344:344,1,161.999995056153,8|0,0:0|0:0,0:0:0:0:
212,308,32675,1,2,0:0:0:0:
304,208,32843,1,8,0:0:0:0:
344,344,33012,2,0,B|392:336|424:308|424:308|440:264|440:204,1,161.999995056153,2|0,0:0|0:0,0:0:0:0:
372,128,33518,6,0,P|368:84|372:36,1,80.9999975280763,8|0,0:0|0:0,0:0:0:0:
184,64,33855,1,0,0:0:0:0:
184,64,34024,1,2,0:0:0:0:
112,192,34192,1,8,0:0:0:0:
256,272,34361,2,0,P|228:224|272:132,1,161.999995056153,2|0,0:0|0:0,0:0:0:0:
304,208,34867,6,0,P|216:192|152:236,1,161.999995056153,8|0,0:0|0:0,0:0:0:0:
12,308,35373,2,0,P|4:264|8:212,1,80.9999975280763,2|8,0:0|0:0,0:0:0:0:
103,70,35710,2,0,P|143:70|183:63,2,80.9999975280763,2|0|0,0:0|0:0|0:0,0:0:0:0:
157,228,36216,6,0,P|165:288|273:336,1,161.999995056153,8|0,0:0|0:0,0:0:0:0:
388,344,36722,1,2,0:0:0:0:
300,208,36891,1,8,0:0:0:0:
408,120,37060,2,0,B|376:100|368:68|368:68|320:52|272:72,1,161.999995056153,2|0,0:0|0:0,0:0:0:0:
180,64,37566,6,0,L|172:156,1,80.9999975280763,8|0,0:0|0:0,0:0:0:0:
307,288,37903,2,0,L|299:207,1,80.9999975280763,0|2,0:0|0:0,0:0:0:0:
415,39,38240,2,0,L|407:119,1,80.9999975280763,8|2,0:0|0:0,0:0:0:0:
392,244,38577,1,0,0:0:0:0:
182,335,38746,1,0,0:0:0:0:
205,106,38915,5,8,0:0:0:0:
311,332,39083,1,0,0:0:0:0:
93,232,39252,1,4,0:0:0:0:
287,90,39421,1,8,0:0:0:0:
248,376,39589,1,8,0:0:0:0:
152,44,39758,2,0,P|124:120|220:184,1,180,4|2,0:0|0:0,0:0:0:0:
416,164,40264,6,0,P|348:172|316:208,1,90,8|0,0:0|0:0,0:0:0:0:
252,296,40601,1,2,0:0:0:0:
292,68,40770,1,2,0:0:0:0:
248,324,40939,1,8,0:0:0:0:
20,142,41107,2,0,P|98:186|189:182,1,180,2|2,0:0|0:0,0:0:0:0:
392,244,41613,6,0,L|392:344,1,90,8|0,0:0|0:0,0:0:0:0:
244,348,41951,1,2,0:0:0:0:
260,168,42119,1,2,0:0:0:0:
452,192,42288,1,8,0:0:0:0:
168,288,42456,2,0,P|224:260|328:312,1,180,2|2,0:0|0:0,0:0:0:0:
392,240,42962,6,0,P|376:188|392:140,1,90,8|0,0:0|0:0,0:0:0:0:
178,97,43300,2,0,P|194:149|178:197,1,90,2|2,0:0|0:0,0:0:0:0:
72,296,43637,1,8,0:0:0:0:
248,344,43806,2,0,P|276:256|292:160,1,180,2|2,0:0|0:0,0:0:0:0:
291,169,44312,5,8,0:0:0:0:
412,336,44480,1,0,0:0:0:0:
164,288,44649,1,2,0:0:0:0:
356,140,44818,1,2,0:0:0:0:
128,192,44986,1,8,0:0:0:0:
192,8,45155,2,0,P|128:20|88:124,1,180,2|2,0:0|0:0,0:0:0:0:
208,220,45661,6,0,P|240:264|240:312,1,90,8|0,0:0|0:0,0:0:0:0:
76,340,45998,1,2,0:0:0:0:
178,97,46167,1,2,0:0:0:0:
242,298,46336,1,8,0:0:0:0:
316,64,46504,2,0,L|420:76,1,90,2|0,0:0|0:0,0:0:0:0:
297,209,46841,2,0,L|193:221,1,90,2|8,0:0|0:0,0:0:0:0:
112,136,47179,5,0,0:0:0:0:
194,306,47347,2,0,P|210:254|202:202,1,90,2|2,0:0|0:0,0:0:0:0:
4,64,47685,1,8,0:0:0:0:
4,64,47853,2,0,P|-20:132|28:232,1,180,2|2,0:0|0:0,0:0:0:0:
112,344,48359,5,8,0:0:0:0:
200,108,48528,1,0,0:0:0:0:
328,296,48697,2,0,L|428:288,1,90,2|2,0:0|0:0,0:0:0:0:
379,93,49034,1,8,0:0:0:0:
379,93,49203,2,0,L|187:109,1,180,2|2,0:0|0:0,0:0:0:0:
100,196,49709,5,8,0:0:0:0:
328,296,49877,1,0,0:0:0:0:
236,24,50046,1,2,0:0:0:0:
120,316,50215,1,2,0:0:0:0:
236,24,50383,1,2,0:0:0:0:
232,376,50552,1,2,0:0:0:0:
236,24,50720,6,0,P|304:40|304:168,1,202.500007724762,4|2,0:0|0:0,0:0:0:0:
152,180,51395,6,0,B|164:224|164:224|192:204|236:212|236:212|268:252|328:256,1,202.500007724762,8|2,0:0|0:0,0:0:0:0:
276,360,52070,1,0,0:0:0:0:
448,336,52238,6,0,P|476:292|440:196,1,135.000005149842,2|2,0:0|0:0,0:0:0:0:
416,144,52744,2,0,B|328:156|328:156|256:128,1,148.50000453186,12|2,0:0|0:0,0:0:0:0:
220,96,53419,2,0,L|176:104,1,33.0000010070801,8|2,0:0|0:0,0:0:0:0:
100,124,53700,5,2,0:0:0:0:
200,216,53869,1,2,0:0:0:0:
324,72,54037,1,2,0:0:0:0:
260,288,54206,1,2,0:0:0:0:
152,40,54375,1,2,0:0:0:0:
160,328,54543,1,2,0:0:0:0:
384,264,54712,1,2,0:0:0:0:
220,96,54881,1,8,0:0:0:0:
88,272,55049,1,2,0:0:0:0:
384,264,55218,1,2,0:0:0:0:
196,140,55401,6,0,L|196:172,5,24.7500007553101,2|2|2|2|2|2,0:0|0:0|0:0|0:0|0:0|0:0,0:0:0:0:
228,208,55949,2,0,B|244:264|244:264|300:128,1,198.000006042481,6|2,0:0|0:0,0:0:0:0:
400,48,56455,6,0,P|456:48|496:88,1,99.0000030212403,8|0,0:0|0:0,0:0:0:0:
264,360,56792,2,0,P|208:360|168:320,1,99.0000030212403,2|2,0:0|0:0,0:0:0:0:
84,180,57129,1,8,0:0:0:0:
300,136,57298,1,2,0:0:0:0:
100,344,57467,1,0,0:0:0:0:
180,56,57635,1,2,0:0:0:0:
336,272,57804,5,8,0:0:0:0:
92,60,57973,2,0,P|120:116|164:140,1,99.0000030212403,0|2,0:0|0:0,0:0:0:0:
336,272,58310,2,0,P|308:216|264:192,1,99.0000030212403,2|8,0:0|0:0,0:0:0:0:
272,2,58647,2,0,B|294:90|294:90|276:210,1,198.000006042481,2|2,0:0|0:0,0:0:0:0:
132,272,59153,6,0,P|88:264|40:292,1,99.0000030212403,8|0,0:0|0:0,0:0:0:0:
308,348,59490,2,0,P|352:356|400:328,1,99.0000030212403,2|2,0:0|0:0,0:0:0:0:
440,172,59828,1,8,0:0:0:0:
200,104,59996,1,2,0:0:0:0:
240,292,60165,1,0,0:0:0:0:
304,52,60334,1,2,0:0:0:0:
397,330,60502,6,0,L|389:226,1,99.0000030212403,8|0,0:0|0:0,0:0:0:0:
240,184,60840,1,2,0:0:0:0:
424,48,61008,1,2,0:0:0:0:
144,32,61177,1,8,0:0:0:0:
188,336,61346,2,0,P|216:292|132:188,1,198.000006042481,2|2,0:0|0:0,0:0:0:0:
48,92,61852,5,8,0:0:0:0:
132,272,62020,1,0,0:0:0:0:
160,32,62189,1,2,0:0:0:0:
40,240,62358,1,2,0:0:0:0:
268,24,62526,1,8,0:0:0:0:
4,152,62695,1,2,0:0:0:0:
372,44,62864,1,0,0:0:0:0:
60,64,63032,1,2,0:0:0:0:
444,120,63201,5,8,0:0:0:0:
160,32,63369,1,0,0:0:0:0:
480,216,63538,1,2,0:0:0:0:
268,24,63707,1,2,0:0:0:0:
456,312,63875,1,8,0:0:0:0:
372,44,64044,2,0,P|352:96|352:152,1,99.0000030212403,2|0,0:0|0:0,0:0:0:0:
252,268,64381,1,2,0:0:0:0:
136,148,64550,6,0,B|80:144|80:144|44:104,1,99.0000030212403,8|0,0:0|0:0,0:0:0:0:
184,20,64887,1,2,0:0:0:0:
160,300,65056,1,2,0:0:0:0:
160,300,65225,1,8,0:0:0:0:
400,216,65393,2,0,P|344:228|292:204,1,99.0000030212403,2|0,0:0|0:0,0:0:0:0:
184,69,65731,1,2,0:0:0:0:
248,366,65899,6,0,L|252:254,1,99.0000030212403,8|0,0:0|0:0,0:0:0:0:
352,140,66237,1,2,0:0:0:0:
352,140,66321,1,2,0:0:0:0:
352,140,66405,2,0,L|352:80,1,49.5000015106202,2|2,0:0|0:0,0:0:0:0:
256,20,66574,1,2,0:0:0:0:
220,20,66658,1,2,0:0:0:0:
184,20,66742,2,0,L|184:232,1,198.000006042481,4|2,0:0|0:0,0:0:0:0:
89,241,67248,6,0,B|135:221|135:221|197:217,1,99.0000030212403,8|0,0:0|0:0,0:0:0:0:
446,67,67586,2,0,B|400:87|400:87|338:91,1,99.0000030212403,2|2,0:0|0:0,0:0:0:0:
360,257,67923,1,8,0:0:0:0:
184,28,68092,1,2,0:0:0:0:
196,292,68260,1,0,0:0:0:0:
352,140,68429,1,2,0:0:0:0:
312,356,68598,6,0,B|296:300|296:300|312:252,1,99.0000030212403,8|0,0:0|0:0,0:0:0:0:
85,146,68935,2,0,B|101:202|101:202|85:250,1,99.0000030212403,2|2,0:0|0:0,0:0:0:0:
412,316,69272,1,8,0:0:0:0:
219,164,69441,2,0,B|227:206|227:206|219:234|219:234|203:293|219:380,1,198.000006042481,2|2,0:0|0:0,0:0:0:0:
316,166,69947,6,0,P|271:158|200:170,1,99.0000030212403,8|0,0:0|0:0,0:0:0:0:
24,340,70284,2,0,P|69:348|140:336,1,99.0000030212403,2|2,0:0|0:0,0:0:0:0:
320,300,70622,1,8,0:0:0:0:
88,144,70790,1,2,0:0:0:0:
215,359,70959,1,0,0:0:0:0:
184,56,71128,1,2,0:0:0:0:
360,216,71296,6,0,P|400:256|416:312,1,99.0000030212403,8|0,0:0|0:0,0:0:0:0:
248,200,71633,2,0,P|266:154|302:120,1,99.0000030212403,2|2,0:0|0:0,0:0:0:0:
424,52,71971,1,8,0:0:0:0:
316,300,72139,2,0,P|252:312|136:244,1,198.000006042481,6|2,0:0|0:0,0:0:0:0:
64,112,72645,5,8,0:0:0:0:
184,56,72814,1,0,0:0:0:0:
140,250,72983,1,2,0:0:0:0:
96,32,73151,1,2,0:0:0:0:
292,40,73320,1,8,0:0:0:0:
224,368,73489,1,6,0:0:0:0:
32,200,73657,1,0,0:0:0:0:
380,120,73826,1,2,0:0:0:0:
124,336,73995,5,8,0:0:0:0:
180,56,74163,1,0,0:0:0:0:
360,216,74332,1,2,0:0:0:0:
68,112,74501,1,2,0:0:0:0:
452,112,74669,1,8,0:0:0:0:
32,200,74838,2,0,L|144:200,1,99.0000030212403,6|0,0:0|0:0,0:0:0:0:
200,296,75175,1,2,0:0:0:0:
459,216,75344,6,0,L|360:216,1,99.0000030212403,8|0,0:0|0:0,0:0:0:0:
384,52,75681,1,2,0:0:0:0:
408,320,75850,1,2,0:0:0:0:
408,320,76018,1,8,0:0:0:0:
304,68,76187,2,0,P|332:116|376:132,1,99.0000030212403,6|0,0:0|0:0,0:0:0:0:
280,316,76524,1,2,0:0:0:0:
236,156,76693,6,0,L|128:164,1,99.0000030212403,8|0,0:0|0:0,0:0:0:0:
48,76,77030,1,6,0:0:0:0:
104,296,77199,1,2,0:0:0:0:
240,48,77368,1,8,0:0:0:0:
420,208,77536,2,0,P|464:152|392:48,1,198.000006042481,6|2,0:0|0:0,0:0:0:0:
240,48,78042,6,0,P|236:96|248:156,1,99.0000030212403,8|0,0:0|0:0,0:0:0:0:
224,384,78380,2,0,P|232:335|228:286,1,99.0000030212403,2|2,0:0|0:0,0:0:0:0:
80,144,78717,1,8,0:0:0:0:
370,131,78886,2,0,P|322:219|397:295,1,198.000006042481,6|2,0:0|0:0,0:0:0:0:
228,292,79392,6,0,L|120:296,1,99.0000030212403,8|0,0:0|0:0,0:0:0:0:
16,192,79729,1,2,0:0:0:0:
188,56,79897,1,2,0:0:0:0:
296,348,80066,1,8,0:0:0:0:
276,12,80235,2,0,B|284:52|276:112|276:112|264:168|276:216,1,198.000006042481,6|2,0:0|0:0,0:0:0:0:
129,295,80741,5,12,0:0:0:0:
420,208,80909,1,0,0:0:0:0:
188,56,81078,1,2,0:0:0:0:
296,348,81247,1,2,0:0:0:0:
372,28,81415,1,8,0:0:0:0:
192,344,81584,1,6,0:0:0:0:
476,108,81753,1,0,0:0:0:0:
136,232,81921,1,2,0:0:0:0:
416,304,82090,5,12,0:0:0:0:
240,32,82259,1,0,0:0:0:0:
304,352,82427,1,6,0:0:0:0:
304,216,82596,1,2,0:0:0:0:
304,80,82765,2,0,B|347:49|347:49|408:56,1,99.0000030212403,8|6,0:0|0:0,0:0:0:0:
480,108,83102,1,0,0:0:0:0:
372,208,83271,1,2,0:0:0:0:
304,80,83439,5,8,0:0:0:0:
456,188,83608,1,0,0:0:0:0:
272,184,83776,1,2,0:0:0:0:
360,24,83945,1,2,0:0:0:0:
368,256,84114,1,8,0:0:0:0:
240,60,84282,1,2,0:0:0:0:
480,108,84451,1,0,0:0:0:0:
224,240,84620,1,2,0:0:0:0:
104,136,84788,5,8,0:0:0:0:
240,60,84957,1,0,0:0:0:0:
116,248,85126,1,2,0:0:0:0:
140,44,85294,1,2,0:0:0:0:
304,156,85463,1,8,0:0:0:0:
52,196,85632,1,2,0:0:0:0:
300,296,85800,1,0,0:0:0:0:
304,156,85969,1,2,0:0:0:0:
440,216,86138,5,8,0:0:0:0:
231,222,86306,1,0,0:0:0:0:
388,120,86475,1,2,0:0:0:0:
392,320,86644,1,2,0:0:0:0:
236,132,86812,1,8,0:0:0:0:
480,116,86981,1,2,0:0:0:0:
232,224,87150,1,0,0:0:0:0:
156,356,87318,1,2,0:0:0:0:
304,356,87487,5,8,0:0:0:0:
92,228,87656,1,0,0:0:0:0:
304,356,87824,2,0,L|400:336,2,99.0000030212403,12|14|12,0:0|0:0|0:0,0:0:0:0:
220,384,88330,2,0,L|232:216,1,161.999995056153,6|2,0:0|0:0,0:0:0:0:
268,64,88836,2,0,B|228:48|184:64|184:64|136:80|92:64,1,161.999995056153,8|0,0:0|0:0,0:0:0:0:
60,192,89342,1,2,0:0:0:0:
231,222,89511,1,8,0:0:0:0:
76,292,89679,2,0,P|132:256|156:152,1,161.999995056153,2|0,0:0|0:0,0:0:0:0:
232,104,90185,6,0,P|272:92|320:96,1,80.9999975280763,8|0,0:0|0:0,0:0:0:0:
512,184,90523,2,0,P|472:196|424:192,1,80.9999975280763,0|2,0:0|0:0,0:0:0:0:
324,312,90860,1,8,0:0:0:0:
372,40,91029,2,0,P|396:92|328:176,1,161.999995056153,2|0,0:0|0:0,0:0:0:0:
236,308,91535,2,0,B|252:268|236:224|236:224|220:176|236:132,1,161.999995056153,8|0,0:0|0:0,0:0:0:0:
176,0,92040,1,2,0:0:0:0:
310,93,92209,1,8,0:0:0:0:
140,172,92378,2,0,P|88:192|116:288,1,161.999995056153,2|0,0:0|0:0,0:0:0:0:
320,316,92884,6,0,B|364:312|364:312|408:324,1,80.9999975280763,8|0,0:0|0:0,0:0:0:0:
460,196,93221,1,0,0:0:0:0:
460,196,93390,1,2,0:0:0:0:
310,93,93558,1,8,0:0:0:0:
400,40,93727,2,0,P|416:100|356:188,1,161.999995056153,2|0,0:0|0:0,0:0:0:0:
284,267,94233,6,0,P|284:203|392:207,1,161.999995056153,8|0,0:0|0:0,0:0:0:0:
228,120,94739,2,0,B|184:124|184:124|140:112,1,80.9999975280763,2|8,0:0|0:0,0:0:0:0:
102,282,95076,2,0,B|92:317|92:317|96:361,2,80.9999975280763,2|0|0,0:0|0:0|0:0,0:0:0:0:
20,160,95582,6,0,L|200:208,1,161.999995056153,8|0,0:0|0:0,0:0:0:0:
208,344,96088,1,2,0:0:0:0:
368,184,96257,1,8,0:0:0:0:
224,120,96425,2,0,P|268:184|248:268,1,161.999995056153,2|0,0:0|0:0,0:0:0:0:
104,280,96931,5,8,0:0:0:0:
176,208,97100,1,0,0:0:0:0:
208,344,97269,1,0,0:0:0:0:
28,348,97437,1,2,0:0:0:0:
104,172,97606,1,8,0:0:0:0:
120,372,97775,1,2,0:0:0:0:
224,120,97943,1,0,0:0:0:0:
8,264,98112,1,0,0:0:0:0:
252,262,98281,6,0,L|348:270,1,80.9999975280763,8|0,0:0|0:0,0:0:0:0:
488,112,98618,2,0,L|392:120,1,80.9999975280763,0|8,0:0|0:0,0:0:0:0:
296,352,98955,1,8,0:0:0:0:
152,52,99124,2,0,P|200:28|320:84,1,180,2|2,0:0|0:0,0:0:0:0:
424,236,99630,6,0,L|416:332,1,80.9999975280763,8|0,0:0|0:0,0:0:0:0:
296,352,99967,1,2,0:0:0:0:
224,120,100136,1,2,0:0:0:0:
128,280,100304,1,8,0:0:0:0:
392,192,100473,2,0,L|407:7,1,180,2|2,0:0|0:0,0:0:0:0:
311,70,100979,6,0,B|268:84|268:84|216:76,1,90,8|0,0:0|0:0,0:0:0:0:
172,212,101316,1,2,0:0:0:0:
68,356,101485,1,2,0:0:0:0:
13,190,101653,1,8,0:0:0:0:
216,296,101822,2,0,P|256:260|224:136,1,180,2|2,0:0|0:0,0:0:0:0:
104,68,102328,6,0,P|88:112|92:168,1,90,8|0,0:0|0:0,0:0:0:0:
368,224,102666,2,0,P|368:179|352:137,1,90,2|2,0:0|0:0,0:0:0:0:
176,88,103003,1,8,0:0:0:0:
8,184,103172,2,0,P|80:240|168:188,1,180,2|2,0:0|0:0,0:0:0:0:
154,209,103678,5,8,0:0:0:0:
296,316,103846,1,0,0:0:0:0:
176,88,104015,1,2,0:0:0:0:
408,292,104183,1,2,0:0:0:0:
288,64,104352,1,8,0:0:0:0:
444,120,104521,2,0,B|388:116|356:136|356:136|316:164|248:160,1,180,2|2,0:0|0:0,0:0:0:0:
167,298,105027,6,0,L|151:186,1,90,8|0,0:0|0:0,0:0:0:0:
128,32,105364,1,2,0:0:0:0:
288,64,105533,1,2,0:0:0:0:
88,154,105701,1,8,0:0:0:0:
316,264,105870,2,0,P|266:319|158:279,1,180,2|2,0:0|0:0,0:0:0:0:
88,154,106376,6,0,B|44:164|44:164|0:168,1,90,8|0,0:0|0:0,0:0:0:0:
220,144,106713,2,0,B|230:188|230:188|234:232,1,90,2|2,0:0|0:0,0:0:0:0:
400,304,107051,1,8,0:0:0:0:
400,304,107219,2,0,B|388:208|388:208|392:120,1,180,2|2,0:0|0:0,0:0:0:0:
196,60,107725,5,8,0:0:0:0:
308,344,107894,1,0,0:0:0:0:
73,318,108063,2,0,P|73:254|97:214,1,90,2|2,0:0|0:0,0:0:0:0:
234,232,108400,1,8,0:0:0:0:
234,232,108568,2,0,P|181:272|80:224,1,180,2|2,0:0|0:0,0:0:0:0:
20,120,109074,5,8,0:0:0:0:
234,232,109243,1,0,0:0:0:0:
348,36,109412,1,2,0:0:0:0:
84,232,109580,1,2,0:0:0:0:
176,0,109749,1,2,0:0:0:0:
156,364,109918,1,2,0:0:0:0:
272,96,110086,6,0,B|316:132|316:132|388:140|448:76,1,202.500007724762,4|2,0:0|0:0,0:0:0:0:
456,176,110761,6,0,B|420:216|440:240|440:240|460:264|456:288|456:288|412:288|400:344,1,202.500007724762,8|2,0:0|0:0,0:0:0:0:
304,356,111436,1,0,0:0:0:0:
284,216,111604,2,0,P|248:192|220:276,1,135.000005149842,2|2,0:0|0:0,0:0:0:0:
180,332,112110,2,0,P|112:356|32:348,1,148.50000453186,12|2,0:0|0:0,0:0:0:0:
20,264,112785,2,0,L|28:220,1,33.0000010070801,8|2,0:0|0:0,0:0:0:0:
52,124,113066,5,2,0:0:0:0:
164,248,113235,1,2,0:0:0:0:
108,32,113403,1,2,0:0:0:0:
256,260,113572,1,2,0:0:0:0:
228,4,113741,1,2,0:0:0:0:
352,276,113909,1,2,0:0:0:0:
344,0,114078,1,2,0:0:0:0:
456,292,114247,1,8,0:0:0:0:
464,0,114415,1,2,0:0:0:0:
352,276,114584,1,2,0:0:0:0:
256,124,114766,5,2,0:0:0:0:
220,88,114851,1,2,0:0:0:0:
176,68,114935,1,2,0:0:0:0:
128,68,115019,1,2,0:0:0:0:
84,88,115104,1,2,0:0:0:0:
52,124,115188,1,2,0:0:0:0:
100,208,115315,2,0,B|120:268|72:332|72:332|108:308|152:324,1,198.000006042481,6|2,0:0|0:0,0:0:0:0:
284,368,115821,6,0,P|296:316|284:260,1,99.0000030212403,8|0,0:0|0:0,0:0:0:0:
260,27,116158,2,0,P|248:79|260:135,1,99.0000030212403,2|2,0:0|0:0,0:0:0:0:
400,168,116495,1,8,0:0:0:0:
216,320,116664,1,2,0:0:0:0:
176,68,116832,1,0,0:0:0:0:
416,252,117001,1,2,0:0:0:0:
124,292,117170,5,8,0:0:0:0:
260,28,117338,2,0,B|312:20|312:20|376:28,1,99.0000030212403,0|2,0:0|0:0,0:0:0:0:
198,205,117676,2,0,B|146:213|146:213|82:205,1,99.0000030212403,2|8,0:0|0:0,0:0:0:0:
358,25,118013,2,0,L|386:269,1,198.000006042481,2|2,0:0|0:0,0:0:0:0:
209,303,118519,6,0,L|195:183,1,99.0000030212403,8|0,0:0|0:0,0:0:0:0:
40,25,118856,2,0,L|51:123,1,99.0000030212403,2|2,0:0|0:0,0:0:0:0:
48,272,119194,1,8,0:0:0:0:
184,92,119362,1,2,0:0:0:0:
134,319,119531,1,0,0:0:0:0:
40,25,119700,1,2,0:0:0:0:
256,132,119868,6,0,P|268:76|240:28,1,99.0000030212403,8|0,0:0|0:0,0:0:0:0:
128,16,120206,1,2,0:0:0:0:
64,196,120374,1,2,0:0:0:0:
376,136,120543,1,8,0:0:0:0:
283,327,120711,2,0,P|194:376|132:312,1,198.000006042481,6|2,0:0|0:0,0:0:0:0:
197,204,121217,5,8,0:0:0:0:
400,236,121386,1,0,0:0:0:0:
251,39,121555,1,2,0:0:0:0:
283,327,121723,1,2,0:0:0:0:
356,32,121892,1,8,0:0:0:0:
209,303,122061,1,2,0:0:0:0:
448,92,122229,1,0,0:0:0:0:
172,236,122398,1,2,0:0:0:0:
500,180,122567,5,8,0:0:0:0:
360,316,122735,1,0,0:0:0:0:
176,92,122904,1,2,0:0:0:0:
460,276,123073,1,2,0:0:0:0:
160,164,123241,1,8,0:0:0:0:
283,327,123410,2,0,L|279:228,1,99.0000030212403,6|0,0:0|0:0,0:0:0:0:
344,76,123747,1,2,0:0:0:0:
176,92,123916,6,0,L|77:96,1,99.0000030212403,12|0,0:0|0:0,0:0:0:0:
48,228,124253,1,6,0:0:0:0:
279,228,124422,1,2,0:0:0:0:
279,228,124591,1,8,0:0:0:0:
420,32,124759,2,0,P|432:88|412:136,1,99.0000030212403,6|0,0:0|0:0,0:0:0:0:
280,84,125096,1,2,0:0:0:0:
279,228,125265,6,0,P|227:212|179:232,1,99.0000030212403,12|0,0:0|0:0,0:0:0:0:
88,345,125602,1,6,0:0:0:0:
60,317,125687,1,2,0:0:0:0:
48,277,125771,2,0,L|48:221,1,49.5000015106202,2|2,0:0|0:0,0:0:0:0:
48,84,125940,1,2,0:0:0:0:
48,84,126024,1,2,0:0:0:0:
48,84,126108,2,0,B|108:112|108:112|128:88|168:80|168:80|204:72|220:48,1,198.000006042481,6|2,0:0|0:0,0:0:0:0:
344,168,126614,6,0,P|364:220|348:276,1,99.0000030212403,8|0,0:0|0:0,0:0:0:0:
60,177,126952,2,0,P|40:125|56:69,1,99.0000030212403,2|2,0:0|0:0,0:0:0:0:
219,48,127289,1,8,0:0:0:0:
60,312,127458,1,2,0:0:0:0:
280,228,127626,1,0,0:0:0:0:
48,84,127795,1,2,0:0:0:0:
148,348,127964,6,0,L|256:344,1,99.0000030212403,8|0,0:0|0:0,0:0:0:0:
464,80,128301,2,0,L|356:76,1,99.0000030212403,2|2,0:0|0:0,0:0:0:0:
140,124,128638,1,8,0:0:0:0:
280,228,128807,2,0,B|304:160|284:124|264:88|288:24,1,198.000006042481,2|2,0:0|0:0,0:0:0:0:
208,172,129313,6,0,P|164:200|104:200,1,99.0000030212403,8|0,0:0|0:0,0:0:0:0:
365,76,129650,2,0,P|393:120|393:180,1,99.0000030212403,2|2,0:0|0:0,0:0:0:0:
360,308,129987,1,8,0:0:0:0:
192,72,130156,1,2,0:0:0:0:
96,280,130325,1,0,0:0:0:0:
396,168,130493,1,2,0:0:0:0:
136,4,130662,6,0,P|108:48|108:108,1,99.0000030212403,8|0,0:0|0:0,0:0:0:0:
152,352,130999,2,0,P|180:308|180:248,1,99.0000030212403,2|2,0:0|0:0,0:0:0:0:
40,164,131337,1,8,0:0:0:0:
237,171,131505,2,0,B|184:152|140:168|92:184|37:163,1,198.000006042481,6|2,0:0|0:0,0:0:0:0:
40,288,132011,5,8,0:0:0:0:
236,172,132180,1,0,0:0:0:0:
292,348,132349,1,2,0:0:0:0:
100,96,132517,1,2,0:0:0:0:
20,352,132686,1,8,0:0:0:0:
344,236,132855,1,6,0:0:0:0:
156,32,133023,1,0,0:0:0:0:
172,328,133192,1,2,0:0:0:0:
392,128,133360,5,8,0:0:0:0:
40,168,133529,1,0,0:0:0:0:
352,304,133698,1,2,0:0:0:0:
260,32,133866,1,2,0:0:0:0:
352,332,134035,1,8,0:0:0:0:
396,28,134204,2,0,B|448:20|448:20|504:28,1,99.0000030212403,6|0,0:0|0:0,0:0:0:0:
504,164,134541,1,2,0:0:0:0:
344,236,134710,6,0,B|292:244|292:244|236:236,1,99.0000030212403,8|0,0:0|0:0,0:0:0:0:
200,112,135047,1,2,0:0:0:0:
172,328,135216,1,2,0:0:0:0:
172,328,135384,1,8,0:0:0:0:
308,124,135553,2,0,L|320:12,1,99.0000030212403,6|0,0:0|0:0,0:0:0:0:
144,32,135890,1,2,0:0:0:0:
40,168,136059,6,0,L|52:280,1,99.0000030212403,8|0,0:0|0:0,0:0:0:0:
228,336,136396,1,8,0:0:0:0:
200,112,136565,1,2,0:0:0:0:
344,236,136734,1,8,0:0:0:0:
120,152,136902,2,0,P|116:84|236:28,1,198.000006042481,6|2,0:0|0:0,0:0:0:0:
388,152,137408,6,0,P|356:196|288:204,1,99.0000030212403,8|0,0:0|0:0,0:0:0:0:
99,384,137745,2,0,P|131:340|199:332,1,99.0000030212403,2|2,0:0|0:0,0:0:0:0:
344,332,138083,1,8,0:0:0:0:
224,152,138251,2,0,B|208:200|234:245|260:300|248:372,1,198.000006042481,6|2,0:0|0:0,0:0:0:0:
344,332,138757,6,0,P|396:316|464:328,1,99.0000030212403,8|0,0:0|0:0,0:0:0:0:
432,204,139095,1,2,0:0:0:0:
171,327,139263,1,2,0:0:0:0:
216,24,139432,1,8,0:0:0:0:
328,156,139601,2,0,B|272:172|272:172|252:148|224:152|224:152|180:180|180:180|124:176,1,198.000006042481,6|2,0:0|0:0,0:0:0:0:
76,124,140022,1,2,0:0:0:0:
76,124,140107,6,0,L|76:184,1,49.5000015106202,8|2,0:0|0:0,0:0:0:0:
171,327,140275,1,2,0:0:0:0:
171,327,140360,1,2,0:0:0:0:
171,327,140444,2,0,L|220:327,1,49.5000015106202,8|2,0:0|0:0,0:0:0:0:
364,320,140613,1,2,0:0:0:0:
410,302,140697,1,2,0:0:0:0:
444,267,140781,1,2,0:0:0:0:
459,220,140865,1,2,0:0:0:0:
453,172,140950,2,0,L|428:112,1,49.5000015106202,8|2,0:0|0:0,0:0:0:0:
296,32,141119,2,0,L|321:92,1,49.5000015106202,2|2,0:0|0:0,0:0:0:0:
288,292,141287,2,0,L|263:232,1,49.5000015106202,2|2,0:0|0:0,0:0:0:0:
60,72,141456,6,0,L|85:132,1,49.5000015106202,8|2,0:0|0:0,0:0:0:0:
48,364,141624,2,0,L|23:304,1,49.5000015106202,2|2,0:0|0:0,0:0:0:0:
0,240,141793,1,8,0:0:0:0:
180,316,141962,1,2,0:0:0:0:
192,104,142130,1,2,0:0:0:0:
260,364,142299,5,4,0:0:0:0:
260,364,142468,2,0,L|336:356,1,67.5000025749208
420,288,142805,1,0,0:0:0:0:
348,196,142974,1,0,0:0:0:0:
440,124,143142,2,0,P|388:80|304:72,1,135.000005149842
323,68,143648,2,0,B|264:116|264:116|264:200,1,135.000005149842
168,236,144154,2,0,L|88:252,2,67.5000025749208
363,338,144829,5,0,0:0:0:0:
447,258,144998,2,0,L|439:110,1,135.000005149842
323,68,145503,2,0,P|287:72|231:68,1,67.5000025749208
140,88,145841,1,0,0:0:0:0:
40,144,146009,2,0,P|44:180|40:236,1,67.5000025749208
48,328,146347,1,0,0:0:0:0:
272,360,146515,2,0,P|271:326|275:292,1,67.5000025749208
304,180,146853,2,0,L|300:100,1,67.5000025749208
392,44,147190,1,0,0:0:0:0:
440,148,147359,2,0,L|507:144,2,67.5000025749208,0|0|4,0:0|0:0|0:0,0:0:0:0:
212,144,148033,5,0,0:0:0:0:
112,88,148202,2,0,P|100:136|104:168,1,67.5000025749208
96,268,148539,1,8,0:0:0:0:
192,332,148708,2,0,P|212:288|164:192,1,135.000005149842
96,268,149214,1,0,0:0:0:0:
96,268,149383,1,8,0:0:0:0:
186,208,149551,2,0,L|278:208,1,67.5000025749208
344,280,149888,1,8,0:0:0:0:
448,236,150057,2,0,L|444:156,2,67.5000025749208
280,76,150732,5,0,0:0:0:0:
168,52,150900,2,0,L|88:56,1,67.5000025749208
172,144,151238,2,0,L|92:148,1,67.5000025749208,8|0,0:0|0:0,0:0:0:0:
40,240,151575,1,0,0:0:0:0:
100,336,151744,1,0,0:0:0:0:
184,256,151912,2,0,B|256:240|256:240|332:252,1,135.000005149842
392,336,152418,1,0,0:0:0:0:
392,336,152587,1,8,0:0:0:0:
280,76,152756,1,10,0:0:0:0:
184,256,153093,6,0,B|173:118|173:118|216:120,1,161.999995056153,4|0,0:0|0:0,0:0:0:0:
328,168,153599,2,0,L|436:168,1,80.9999975280763,2|0,0:0|0:0,0:0:0:0:
417,328,153936,2,0,B|401:239|401:239|409:160,1,161.999995056153,8|0,0:0|0:0,0:0:0:0:
348,24,154442,2,0,P|276:-4|196:52,1,161.999995056153,2|8,0:0|0:0,0:0:0:0:
68,28,154948,6,0,P|88:68|88:116,1,80.9999975280763,2|0,0:0|0:0,0:0:0:0:
76,240,155285,2,0,P|64:160|148:152,1,161.999995056153,8|0,0:0|0:0,0:0:0:0:
270,165,155791,2,0,B|294:169|314:201|314:201|346:205|382:169|382:169|434:165,1,161.999995056153,2|0,0:0|0:0,0:0:0:0:
472,44,156297,5,2,0:0:0:0:
472,44,156466,1,0,0:0:0:0:
492,180,156635,2,0,P|480:256|492:344,1,161.999995056153,8|0,0:0|0:0,0:0:0:0:
360,292,157141,2,0,B|324:316|324:316|192:304,1,161.999995056153,2|8,0:0|0:0,0:0:0:0:
72,332,157647,5,2,0:0:0:0:
180,80,157984,1,12,0:0:0:0:
360,292,158321,1,8,0:0:0:0:
345,159,158490,2,0,P|313:223|369:295,1,161.999995056153,6|0,0:0|0:0,0:0:0:0:
228,332,158996,6,0,L|132:316,1,80.9999975280763,2|0,0:0|0:0,0:0:0:0:
52,220,159333,2,0,L|148:204,1,80.9999975280763,8|0,0:0|0:0,0:0:0:0:
180,80,159670,1,0,0:0:0:0:
308,24,159839,2,0,P|320:96|264:176,1,161.999995056153,2|8,0:0|0:0,0:0:0:0:
400,224,160345,6,0,P|444:212|484:216,1,80.9999975280763,2|0,0:0|0:0,0:0:0:0:
492,352,160682,2,0,P|448:364|408:360,1,80.9999975280763,8|0,0:0|0:0,0:0:0:0:
284,280,161020,1,0,0:0:0:0:
164,344,161188,2,0,B|180:264|180:264|168:176,1,161.999995056153,2|0,0:0|0:0,0:0:0:0:
100,64,161694,6,0,B|72:92|24:92,1,80.9999975280763,2|0,0:0|0:0,0:0:0:0:
232,36,162031,2,0,B|232:81|204:109,1,80.9999975280763,8|0,0:0|0:0,0:0:0:0:
312,196,162369,1,0,0:0:0:0:
445,294,162537,2,0,L|265:278,1,161.999995056153,2|8,0:0|0:0,0:0:0:0:
232,152,163043,6,0,P|264:120|312:104,1,80.9999975280763,2|0,0:0|0:0,0:0:0:0:
296,106,163381,1,12,0:0:0:0:
344,364,163549,1,0,0:0:0:0:
144,252,163718,1,8,0:0:0:0:
372,52,163887,2,0,P|392:96|336:188,1,161.999995056153,6|0,0:0|0:0,0:0:0:0:
445,213,164393,6,0,L|445:317,1,80.9999975280763,2|0,0:0|0:0,0:0:0:0:
252,352,164730,2,0,L|252:176,1,161.999995056153,8|0,0:0|0:0,0:0:0:0:
300,108,165236,2,0,B|248:68|168:108|168:108|168:160,1,161.999995056153,2|8,0:0|0:0,0:0:0:0:
76,236,165742,6,0,P|84:292|76:328,1,80.9999975280763,2|0,0:0|0:0,0:0:0:0:
208,268,166079,2,0,P|264:236|336:296,1,161.999995056153,8|0,0:0|0:0,0:0:0:0:
384,360,166585,2,0,B|368:284|368:284|372:180,1,161.999995056153,2|0,0:0|0:0,0:0:0:0:
456,92,167091,5,2,0:0:0:0:
456,92,167260,1,0,0:0:0:0:
324,56,167428,2,0,B|276:40|240:64|200:92|148:72,1,161.999995056153,8|0,0:0|0:0,0:0:0:0:
32,48,167934,2,0,P|32:132|112:192,1,161.999995056153,2|8,0:0|0:0,0:0:0:0:
152,304,168440,5,2,0:0:0:0:
188,0,168778,1,12,0:0:0:0:
404,172,169115,1,8,0:0:0:0:
226,228,169284,2,0,P|182:208|158:308,1,180,6|0,0:0|0:0,0:0:0:0:
300,340,169790,6,0,P|352:324|400:332,1,90,8|0,0:0|0:0,0:0:0:0:
404,172,170127,2,0,P|420:120|412:72,1,90,2|2,0:0|0:0,0:0:0:0:
276,20,170464,1,8,0:0:0:0:
320,208,170633,1,2,0:0:0:0:
164,88,170801,1,0,0:0:0:0:
336,112,170970,1,2,0:0:0:0:
224,228,171139,5,8,0:0:0:0:
196,4,171307,1,0,0:0:0:0:
80,104,171476,2,0,L|80:196,1,90,2|2,0:0|0:0,0:0:0:0:
60,348,171813,1,8,0:0:0:0:
212,316,171982,2,0,P|288:296|308:200,1,180,2|2,0:0|0:0,0:0:0:0:
224,80,172488,5,8,0:0:0:0:
376,100,172657,1,0,0:0:0:0:
224,228,172825,1,2,0:0:0:0:
156,24,172994,1,2,0:0:0:0:
400,176,173163,1,8,0:0:0:0:
148,181,173331,2,0,L|156:10,1,157.5,2|2,0:0|0:0,0:0:0:0:
156,24,173795,6,0,B|200:44|200:44|260:44,1,90,8|2,0:0|0:0,0:0:0:0:
400,176,174132,1,2,0:0:0:0:
304,292,174300,1,2,0:0:0:0:
236,156,174469,1,2,0:0:0:0:
236,156,174849,6,0,B|200:184|200:216|200:216|216:248|200:300|200:300|168:288|144:300,1,202.500007724762,6|0,0:0|0:0,0:0:0:0:
44,320,175524,6,0,B|40:260|80:224|80:224|36:188|40:128,1,202.500007724762
68,28,176198,6,0,B|112:48|112:48|172:28|172:28|232:8|232:8|280:28,1,202.500007724762,6|0,0:0|0:0,0:0:0:0:
372,0,176873,6,0,B|388:48|376:108|360:172|376:212,1,202.500007724762
420,308,177548,5,6,0:0:0:0:
152,272,179403,6,0,L|104:280,2,33.7500012874604,2|2|2,0:0|0:0|0:0,0:0:0:0:
204,52,179824,2,0,P|248:56|292:84,1,84.3750032186509,2|2,0:0|0:0,0:0:0:0:
352,200,180246,6,0,P|404:172|412:36,1,202.500007724762,6|0,0:0|0:0,0:0:0:0:
280,72,180921,6,0,B|244:84|232:108|232:108|188:120|152:92|152:92|120:112|80:96,1,202.500007724762
40,200,181595,6,0,B|72:224|104:216|104:216|120:240|112:268|112:268|140:284|144:312|144:312|196:296,1,202.500007724762,6|0,0:0|0:0,0:0:0:0:
248,324,182270,6,0,P|320:304|400:320,1,148.50000453186
464,284,182944,2,0,L|456:236,1,49.5000015106202,12|2,0:0|0:0,0:0:0:0:
372,104,183282,5,2,0:0:0:0:
224,208,183450,1,12,0:0:0:0:
464,284,183619,1,2,0:0:0:0:
480,136,183788,1,2,0:0:0:0:
324,380,183956,1,12,0:0:0:0:
344,32,184125,1,2,0:0:0:0:
324,380,184294,1,12,0:0:0:0:
200,88,184462,1,2,0:0:0:0:
324,380,184631,5,12,0:0:0:0:
120,220,184800,1,2,0:0:0:0:
136,380,184926,1,8,0:0:0:0:
136,380,185010,1,2,0:0:0:0:
136,380,185095,1,2,0:0:0:0:
136,380,185179,1,2,0:0:0:0:
136,380,185263,1,8,0:0:0:0:
104,56,185769,1,2,0:0:0:0:
104,56,185812,2,0,L|104:24,1,24.7500007553101,2|2,0:0|0:0,0:0:0:0:
104,56,185980,6,0,P|156:64|208:56,1,99.0000030212403,8|0,0:0|0:0,0:0:0:0:
372,308,186318,2,0,P|320:300|268:308,1,99.0000030212403,2|2,0:0|0:0,0:0:0:0:
148,256,186655,1,8,0:0:0:0:
304,44,186823,1,2,0:0:0:0:
324,380,186992,1,0,0:0:0:0:
208,132,187161,1,2,0:0:0:0:
420,292,187330,5,8,0:0:0:0:
76,304,187498,2,0,P|64:256|80:200,1,99.0000030212403,0|2,0:0|0:0,0:0:0:0:
376,0,187835,2,0,P|388:48|372:104,1,99.0000030212403,2|8,0:0|0:0,0:0:0:0:
76,208,188173,2,0,B|112:204|136:180|136:180|172:184|200:212|200:212|232:196|268:212,1,198.000006042481,2|2,0:0|0:0,0:0:0:0:
348,272,188679,6,0,B|364:224|364:224|364:160,1,99.0000030212403,8|0,0:0|0:0,0:0:0:0:
52,24,189016,2,0,B|52:72|52:72|68:120,1,99.0000030212403,2|0,0:0|0:0,0:0:0:0:
220,36,189353,1,8,0:0:0:0:
364,176,189522,2,0,P|312:148|272:264,1,198.000006042481,2|2,0:0|0:0,0:0:0:0:
292,328,190028,6,0,L|176:336,1,99.0000030212403,8|0,0:0|0:0,0:0:0:0:
40,280,190365,1,2,0:0:0:0:
152,112,190534,1,2,0:0:0:0:
292,328,190702,1,8,0:0:0:0:
448,80,190871,2,0,B|412:78|412:78|384:88|352:76|352:76|340:140|382:205,1,198.000006042481,6|2,0:0|0:0,0:0:0:0:
396,296,191377,5,8,0:0:0:0:
216,92,191546,1,0,0:0:0:0:
352,368,191714,1,2,0:0:0:0:
272,24,191883,1,2,0:0:0:0:
224,252,192052,1,8,0:0:0:0:
448,80,192220,1,2,0:0:0:0:
116,96,192389,1,0,0:0:0:0:
492,168,192558,1,2,0:0:0:0:
108,212,192726,5,8,0:0:0:0:
456,256,192895,1,0,0:0:0:0:
40,136,193064,1,2,0:0:0:0:
184,344,193232,1,2,0:0:0:0:
144,28,193401,1,8,0:0:0:0:
276,184,193570,2,0,P|224:172|172:188,1,99.0000030212403,6|0,0:0|0:0,0:0:0:0:
48,288,193907,1,2,0:0:0:0:
40,136,194076,6,0,L|36:24,1,99.0000030212403,12|0,0:0|0:0,0:0:0:0:
204,64,194413,1,6,0:0:0:0:
224,256,194582,1,2,0:0:0:0:
224,256,194750,1,8,0:0:0:0:
384,204,194919,2,0,P|436:216|488:200,1,99.0000030212403,6|0,0:0|0:0,0:0:0:0:
424,44,195256,1,2,0:0:0:0:
264,92,195425,6,0,L|260:190,1,99.0000030212403,12|0,0:0|0:0,0:0:0:0:
124,344,195762,1,6,0:0:0:0:
77,327,195846,1,2,0:0:0:0:
40,295,195930,1,2,0:0:0:0:
19,250,196014,1,2,0:0:0:0:
17,201,196099,1,2,0:0:0:0:
34,155,196183,1,2,0:0:0:0:
68,119,196268,2,0,B|76:72|120:52|120:52|176:56|176:56|216:16,1,198.000006042481,6|2,0:0|0:0,0:0:0:0:
268,88,196774,6,0,L|196:172,1,99.0000030212403,8|0,0:0|0:0,0:0:0:0:
356,364,197111,2,0,L|420:288,1,99.0000030212403,2|2,0:0|0:0,0:0:0:0:
436,100,197449,1,8,0:0:0:0:
500,320,197617,1,2,0:0:0:0:
203,163,197786,1,0,0:0:0:0:
396,172,197955,2,0,P|356:128|348:76,1,99.0000030212403,2|8,0:0|0:0,0:0:0:0:
484,216,198293,6,0,P|440:256|388:264,1,99.0000030212403,0|2,0:0|0:0,0:0:0:0:
180,296,198629,2,0,P|224:256|276:248,1,99.0000030212403,2|8,0:0|0:0,0:0:0:0:
138,121,198966,2,0,B|190:169|190:169|178:309,1,198.000006042481,2|2,0:0|0:0,0:0:0:0:
336,304,199472,6,0,L|348:188,1,99.0000030212403,8|0,0:0|0:0,0:0:0:0:
127,22,199810,2,0,L|139:138,1,99.0000030212403,2|2,0:0|0:0,0:0:0:0:
68,244,200147,1,8,0:0:0:0:
280,96,200316,1,2,0:0:0:0:
252,324,200484,1,0,0:0:0:0:
52,136,200653,1,2,0:0:0:0:
346,205,200822,6,0,P|406:189|450:205,1,99.0000030212403,8|0,0:0|0:0,0:0:0:0:
252,324,201159,2,0,P|192:340|148:324,1,99.0000030212403,2|2,0:0|0:0,0:0:0:0:
68,244,201496,1,8,0:0:0:0:
296,128,201665,2,0,P|256:188|332:292,1,198.000006042481,6|2,0:0|0:0,0:0:0:0:
432,348,202171,5,8,0:0:0:0:
428,116,202340,1,0,0:0:0:0:
312,287,202508,1,2,0:0:0:0:
308,55,202677,1,2,0:0:0:0:
196,340,202846,1,8,0:0:0:0:
192,108,203015,1,6,0:0:0:0:
80,284,203183,1,0,0:0:0:0:
76,52,203351,1,0,0:0:0:0:
0,176,203520,5,8,0:0:0:0:
304,168,203689,1,0,0:0:0:0:
176,344,203857,1,2,0:0:0:0:
184,36,204026,1,2,0:0:0:0:
420,296,204195,1,8,0:0:0:0:
264,68,204363,2,0,P|224:112|172:120,1,99.0000030212403,6|0,0:0|0:0,0:0:0:0:
28,184,204701,1,2,0:0:0:0:
183,245,204869,6,0,L|175:349,1,99.0000030212403,12|0,0:0|0:0,0:0:0:0:
344,352,205207,1,2,0:0:0:0:
292,192,205375,1,2,0:0:0:0:
292,192,205544,1,8,0:0:0:0:
452,144,205713,2,0,P|428:80|392:52,1,99.0000030212403,6|0,0:0|0:0,0:0:0:0:
248,4,206050,1,2,0:0:0:0:
120,108,206219,6,0,B|72:120|72:120|12:104,1,99.0000030212403,12|0,0:0|0:0,0:0:0:0:
52,272,206556,1,12,0:0:0:0:
284,336,206725,1,2,0:0:0:0:
216,180,206893,1,8,0:0:0:0:
120,348,207062,2,0,P|144:292|68:172,1,198.000006042481,6|2,0:0|0:0,0:0:0:0:
192,68,207568,6,0,P|248:88|304:68,1,99.0000030212403,8|0,0:0|0:0,0:0:0:0:
512,164,207905,2,0,P|456:144|400:164,1,99.0000030212403,2|2,0:0|0:0,0:0:0:0:
328,296,208242,1,8,0:0:0:0:
388,68,208411,2,0,P|340:128|388:240,1,198.000006042481,6|2,0:0|0:0,0:0:0:0:
328,296,208917,6,0,B|272:280|223:297,1,99.0000030212403,8|0,0:0|0:0,0:0:0:0:
84,356,209254,1,2,0:0:0:0:
28,112,209423,1,2,0:0:0:0:
424,152,209592,1,8,0:0:0:0:
280,368,209760,2,0,B|284:256|284:256|268:164,1,198.000006042481,6|2,0:0|0:0,0:0:0:0:
144,192,210266,5,8,0:0:0:0:
276,24,210435,1,0,0:0:0:0:
392,236,210604,1,2,0:0:0:0:
124,88,210772,1,2,0:0:0:0:
204,332,210941,1,8,0:0:0:0:
396,72,211110,1,6,0:0:0:0:
48,232,211278,1,0,0:0:0:0:
428,152,211447,1,2,0:0:0:0:
48,140,211615,5,12,0:0:0:0:
392,236,211784,1,0,0:0:0:0:
156,20,211953,1,6,0:0:0:0:
156,172,212121,1,2,0:0:0:0:
156,336,212290,1,8,0:0:0:0:
301,248,212459,2,0,P|325:168|429:152,1,198.000006042481,6|2,0:0|0:0,0:0:0:0:
427,52,212965,6,0,L|427:172,1,99.0000030212403,8|0,0:0|0:0,0:0:0:0:
156,336,213302,2,0,L|156:237,1,99.0000030212403,2|2,0:0|0:0,0:0:0:0:
224,92,213639,1,8,0:0:0:0:
392,236,213808,1,2,0:0:0:0:
120,152,213977,1,0,0:0:0:0:
312,52,214145,1,0,0:0:0:0:
360,320,214314,6,0,P|316:336|252:324,1,99.0000030212403,8|0,0:0|0:0,0:0:0:0:
64,84,214651,2,0,P|108:68|172:80,1,99.0000030212403,2|2,0:0|0:0,0:0:0:0:
256,192,214989,1,8,0:0:0:0:
424,52,215157,1,2,0:0:0:0:
452,288,215326,1,0,0:0:0:0:
312,52,215494,1,2,0:0:0:0:
172,184,215663,6,0,P|192:248|236:276,1,99.0000030212403,8|0,0:0|0:0,0:0:0:0:
355,135,216000,2,0,P|335:71|291:43,1,99.0000030212403,2|2,0:0|0:0,0:0:0:0:
160,72,216338,1,8,0:0:0:0:
256,192,216506,2,0,P|312:236|440:212,1,198.000006042481,2|2,0:0|0:0,0:0:0:0:
492,108,217012,6,0,L|476:-8,1,99.0000030212403,8|0,0:0|0:0,0:0:0:0:
312,52,217350,1,8,0:0:0:0:
265,329,217518,1,8,0:0:0:0:
312,52,217687,2,0,L|213:65,1,99.0000030212403,8|6,0:0|0:0,0:0:0:0:
80,164,218024,1,0,0:0:0:0:
144,300,218193,1,2,0:0:0:0:
256,192,218362,5,2,0:0:0:0:
36,232,218530,1,2,0:0:0:0:
192,368,218699,1,8,0:0:0:0:
176,116,218868,1,0,0:0:0:0:
64,320,219036,1,2,0:0:0:0:
312,268,219205,1,2,0:0:0:0:
256,93,219374,2,0,L|256:213,1,99.0000030212403,12|0,0:0|0:0,0:0:0:0:
156,296,219711,5,2,0:0:0:0:
408,156,219879,1,2,0:0:0:0:
184,36,220048,2,0,P|232:4|304:12,1,99.0000030212403,12|0,0:0|0:0,0:0:0:0:
452,56,220385,1,2,0:0:0:0:
404,320,220554,1,2,0:0:0:0:
256,192,220723,2,0,P|216:221|167:226,1,99.0000030212403,12|0,0:0|0:0,0:0:0:0:
44,88,221060,5,2,0:0:0:0:
136,324,221229,1,2,0:0:0:0:
340,220,221397,2,0,L|340:121,1,99.0000030212403,12|0,0:0|0:0,0:0:0:0:
468,32,221735,1,2,0:0:0:0:
468,32,221903,1,2,0:0:0:0:
276,24,222072,2,0,L|160:24,1,99.0000030212403,12|0,0:0|0:0,0:0:0:0:
68,226,222409,6,0,L|167:226,1,99.0000030212403,8|0,0:0|0:0,0:0:0:0:
340,308,222747,1,8,0:0:0:0:
340,308,222831,1,2,0:0:0:0:
340,308,222915,2,0,L|336:244,1,49.5000015106202,2|2,0:0|0:0,0:0:0:0:
364,36,223084,2,0,L|367:85,1,49.5000015106202,2|2,0:0|0:0,0:0:0:0:
340,308,223253,2,0,L|336:258,1,49.5000015106202,8|0,0:0|0:0,0:0:0:0:
