osu file format v14

[General]
AudioFilename: audio.mp3
AudioLeadIn: 0
PreviewTime: 59020
Countdown: 0
SampleSet: Soft
StackLeniency: 0.7
Mode: 0
LetterboxInBreaks: 0
WidescreenStoryboard: 0

[Editor]
DistanceSpacing: 1.3
BeatDivisor: 2
GridSize: 4
TimelineZoom: 2.1

[Metadata]
Title:Steppin' out -TV Size-
TitleUnicode:Steppin' out -TV Size-
Artist:FLOW
ArtistUnicode:FLOW
Creator:tutuhaha
Version:Regraz's Hard
Source:デュラララ!!×2 結
Tags:Pata-Mon KittyAdventure Regraz durarara ketsu opening TV size
BeatmapID:1144511
BeatmapSetID:537321

[Difficulty]
HPDrainRate:5.3
CircleSize:3.9
OverallDifficulty:6
ApproachRate:7.6
SliderMultiplier:1.6
SliderTickRate:1

[Events]
//Background and Video events
0,0,"41792-izaya-orihara-durarara-1366x768-anime-wallpaper.jpg",0,0
Video,0,"video.avi"
//Break Periods
//Storyboard Layer 0 (Background)
//Storyboard Layer 1 (Fail)
//Storyboard Layer 2 (Pass)
//Storyboard Layer 3 (Foreground)
//Storyboard Sound Samples

[TimingPoints]
-765,428.571428571429,4,2,1,60,1,0
11235,-100,4,2,1,70,0,0
18092,-100,4,2,1,60,0,0
59235,-100,4,2,1,70,0,1
89770,-100,4,2,1,10,0,0

[Colours]
Combo1 : 255,192,0
Combo2 : 134,134,134
Combo3 : 18,124,255
Combo4 : 192,192,192

[HitObjects]
77,68,949,6,0,L|213:52,1,120,0|0,0:0|0:0,0:0:0:0:
244,71,1377,2,0,P|235:130|244:163,1,80,0|0,0:0|0:0,0:0:0:0:
284,243,1806,2,0,L|155:230,2,120,0|0|0,0:0|0:0|0:0,0:0:0:0:
362,174,2663,5,0,0:0:0:0:
449,229,2877,1,0,0:0:0:0:
425,330,3092,1,0,0:0:0:0:
321,339,3306,1,0,0:0:0:0:
284,243,3520,2,0,L|176:229,1,80,0|0,0:0|0:0,0:0:0:0:
153,222,3842,2,0,P|161:276|139:329,1,80,0|0,0:0|0:0,0:0:0:0:
131,346,4163,1,0,0:0:0:0:
64,266,4377,6,0,L|49:154,1,80,2|0,0:1|0:0,0:0:0:0:
142,131,4806,2,0,L|127:19,1,80,2|0,0:1|0:0,0:0:0:0:
235,59,5235,2,0,P|270:75|309:70,1,80,2|0,0:1|0:0,0:0:0:0:
349,36,5556,2,0,L|445:46,1,80,0|0,0:0|0:0,0:0:0:0:
479,54,5877,1,0,0:0:0:0:
491,157,6092,6,0,P|483:211|497:267,1,80,2|0,0:1|0:0,0:0:0:0:
455,335,6520,2,0,L|347:321,1,80,2|0,0:1|0:0,0:0:0:0:
280,257,6949,2,0,P|211:252|152:253,2,120,2|0|0,0:1|0:0|0:0,0:0:0:0:
365,197,7806,5,2,0:1:0:0:
387,95,8020,1,0,0:0:0:0:
297,40,8235,1,2,0:1:0:0:
275,142,8449,1,0,0:0:0:0:
196,74,8663,2,0,P|112:85|91:81,1,80,2|0,0:1|0:0,0:0:0:0:
77,52,8985,2,0,L|82:166,1,80,0|0,0:0|0:0,0:0:0:0:
85,183,9306,1,0,0:0:0:0:
39,276,9520,6,0,P|97:271|132:284,1,80,6|8,0:1|0:0,0:0:0:0:
193,347,9949,2,0,L|289:335,1,80,2|8,0:1|0:0,0:0:0:0:
374,357,10377,1,8,0:0:0:0:
374,357,10592,1,8,3:0:0:0:
469,315,10806,2,0,L|471:246,1,40,0|0,0:0|0:0,0:0:0:0:
442,230,11020,2,0,L|444:161,1,40,0|0,0:0|0:0,0:0:0:0:
479,151,11235,6,0,P|404:163|383:150,1,80,4|0,0:0|0:0,0:0:0:0:
333,86,11663,2,0,L|222:93,1,80,8|0,0:0|0:0,0:0:0:0:
174,148,12092,2,0,P|154:93|184:24,2,120,2|8|0,0:0|0:0|0:0,0:0:0:0:
265,195,12949,6,0,P|262:264|248:293,1,80,0|0,0:0|0:0,0:0:0:0:
163,315,13377,2,0,L|75:303,1,80,8|0,0:0|0:0,0:0:0:0:
138,215,13806,2,0,L|2:230,2,120,2|8|0,0:0|0:0|0:0,0:0:0:0:
227,161,14663,6,0,P|275:170|318:166,1,80,0|0,0:0|0:0,0:0:0:0:
383,98,15092,2,0,L|483:106,1,80,8|0,0:0|0:0,0:0:0:0:
504,199,15520,2,0,P|433:229|378:216,2,120,2|8|0,0:0|0:0|0:0,0:0:0:0:
506,146,16270,1,0,0:0:0:0:
506,146,16377,6,0,L|515:51,1,80,0|8,0:0|0:0,0:0:0:0:
418,23,16806,2,0,L|423:75,1,40,2|8,0:0|0:0,0:0:0:0:
265,74,17235,1,4,0:0:0:0:
235,173,17449,1,2,0:0:0:0:
162,98,17663,2,0,L|115:90,2,40,8|0|0,0:0|0:0|0:0,0:0:0:0:
235,173,18092,6,0,P|220:245|258:291,1,120,2|0,0:0|0:0,0:0:0:0:
292,297,18520,2,0,L|385:275,1,80,8|0,0:0|0:0,0:0:0:0:
458,319,18949,1,2,0:0:0:0:
458,319,19163,1,0,0:0:0:0:
460,215,19377,2,0,P|475:157|454:113,1,80,8|0,0:0|0:0,0:0:0:0:
382,83,19806,6,0,L|255:102,1,120,2|0,0:0|0:0,0:0:0:0:
213,116,20235,2,0,P|228:60|217:23,1,80,8|0,0:0|0:0,0:0:0:0:
122,63,20663,2,0,L|19:54,2,80,2|0|8,0:0|0:0|0:0,0:0:0:0:
58,261,21520,6,0,P|154:260|181:218,1,120,2|0,0:0|0:0,0:0:0:0:
174,196,21949,2,0,L|277:205,1,80,8|0,0:0|0:0,0:0:0:0:
336,266,22377,2,0,L|449:248,2,80,2|0|8,0:0|0:0|0:0,0:0:0:0:
345,162,23020,1,0,0:0:0:0:
271,88,23235,6,0,P|205:113|144:86,1,120,2|0,0:0|0:0,0:0:0:0:
125,60,23663,2,0,L|22:65,1,80,8|0,0:0|0:0,0:0:0:0:
33,167,24092,2,0,P|26:217|43:252,2,80,2|0|8,0:0|0:0|0:0,0:0:0:0:
240,177,24949,6,0,P|250:248|215:308,1,120,2|0,0:0|0:0,0:0:0:0:
192,325,25377,2,0,L|287:318,1,80,8|0,0:0|0:0,0:0:0:0:
376,320,25806,2,0,L|481:325,2,80,2|0|8,0:0|0:0|0:0,0:0:0:0:
327,227,26449,1,0,0:0:0:0:
422,187,26663,6,0,B|443:133|423:67|423:67|397:57,1,120,2|0,0:0|0:0,0:0:0:0:
382,36,27092,2,0,L|290:46,1,80,8|0,0:0|0:0,0:0:0:0:
206,83,27520,2,0,P|155:58|99:58,1,80,2|0,0:0|0:0,0:0:0:0:
35,94,27949,1,8,0:0:0:0:
35,94,28163,1,0,0:0:0:0:
94,178,28377,6,0,L|83:285,1,80,2|0,0:0|0:0,0:0:0:0:
176,309,28806,2,0,L|167:229,1,80,8|0,0:0|0:0,0:0:0:0:
260,181,29235,2,0,L|249:288,1,80,2|0,0:0|0:0,0:0:0:0:
342,312,29664,2,0,L|333:232,1,80,8|0,0:0|0:0,0:0:0:0:
334,128,30092,6,0,P|406:142|470:98,1,120,2|0,0:0|0:0,0:0:0:0:
481,84,30520,2,0,L|474:186,1,80,8|0,0:0|0:0,0:0:0:0:
478,268,30949,2,0,L|427:260,1,40,4|8,3:0|0:0,0:0:0:0:
350,316,31270,1,0,0:0:0:0:
350,316,31377,2,0,L|239:298,1,80,8|8,0:0|3:0,0:0:0:0:
169,326,31806,6,0,P|94:338|49:322,1,120,2|0,0:0|0:0,0:0:0:0:
21,282,32235,2,0,L|11:362,1,80,8|0,0:0|0:0,0:0:0:0:
79,230,32663,2,0,P|102:181|90:137,1,80,2|0,0:0|0:0,0:0:0:0:
64,58,33092,2,0,L|165:73,1,80,8|0,0:0|0:0,0:0:0:0:
222,136,33520,6,0,L|368:121,1,120,2|0,0:0|0:0,0:0:0:0:
377,86,33949,2,0,L|470:99,1,80,8|0,0:0|0:0,0:0:0:0:
478,198,34377,2,0,P|485:236|476:275,2,80,2|0|8,0:0|0:0|0:0,0:0:0:0:
277,255,35235,6,0,P|187:250|158:209,1,120,2|0,0:0|0:0,0:0:0:0:
140,190,35663,2,0,L|138:282,1,80,8|0,0:0|0:0,0:0:0:0:
44,224,36092,2,0,L|44:129,2,80,2|0|8,0:0|0:0|0:0,0:0:0:0:
55,327,36735,1,0,0:0:0:0:
155,353,36949,6,0,P|226:363|287:338,1,120,2|0,0:0|0:0,0:0:0:0:
303,307,37377,2,0,L|407:314,1,80,8|0,0:0|0:0,0:0:0:0:
469,369,37806,2,0,P|487:311|474:266,1,80,2|0,0:0|0:0,0:0:0:0:
417,213,38235,1,8,0:0:0:0:
255,82,38663,6,0,B|284:66|284:66|393:78,1,120,2|0,0:0|0:0,0:0:0:0:
398,119,39092,2,0,L|408:29,1,80,8|0,0:0|0:0,0:0:0:0:
487,105,39520,2,0,L|480:204,1,80,2|0,0:0|0:0,0:0:0:0:
438,279,39949,1,8,0:0:0:0:
343,236,40163,1,0,0:0:0:0:
261,300,40377,6,0,L|126:301,1,120,2|0,0:0|0:0,0:0:0:0:
92,320,40806,2,0,P|115:267|99:222,1,80,8|0,0:0|0:0,0:0:0:0:
100,142,41235,2,0,L|9:160,2,80,2|0|8,0:0|0:0|0:0,0:0:0:0:
195,182,41877,1,0,0:0:0:0:
252,95,42092,6,0,L|381:104,1,120,2|0,0:0|0:0,0:0:0:0:
418,81,42520,2,0,P|405:146|416:172,1,80,8|0,0:0|0:0,0:0:0:0:
492,218,42949,2,0,L|491:346,2,120,2|8|0,0:0|0:0|0:0,0:0:0:0:
399,266,43806,6,0,P|355:251|309:257,1,80,2|8,0:0|0:0,0:0:0:0:
282,284,44127,1,0,0:0:0:0:
282,284,44235,2,0,L|192:272,1,80,8|8,0:0|0:0,0:0:0:0:
117,333,44663,1,2,0:0:0:0:
25,283,44877,1,4,3:0:0:0:
55,183,45092,1,2,0:0:0:0:
158,184,45306,1,2,0:0:0:0:
202,273,45520,5,4,0:0:0:0:
364,142,45949,2,0,L|357:238,1,80,8|2,0:0|0:0,0:0:0:0:
408,312,46377,2,0,P|352:323|323:316,1,80,0|0,0:0|0:0,0:0:0:0:
235,275,46806,1,8,0:0:0:0:
147,330,47020,1,0,0:0:0:0:
50,290,47235,6,0,L|35:195,1,80,2|2,0:0|0:0,0:0:0:0:
128,161,47663,2,0,L|113:66,1,80,8|0,0:0|0:0,0:0:0:0:
210,39,48092,2,0,P|276:50|308:37,1,80,0|0,0:0|0:0,0:0:0:0:
388,26,48520,1,8,0:0:0:0:
489,48,48735,1,0,0:0:0:0:
464,148,48949,6,0,P|473:197|455:238,1,80,2|2,0:0|0:0,0:0:0:0:
375,278,49377,2,0,L|285:258,1,80,8|0,0:0|0:0,0:0:0:0:
235,345,49806,2,0,L|149:355,1,80,0|0,0:0|0:0,0:0:0:0:
53,330,50235,1,8,0:0:0:0:
115,247,50449,1,0,0:0:0:0:
43,171,50663,6,0,P|30:133|34:93,1,80,2|2,0:0|0:0,0:0:0:0:
119,32,51092,2,0,L|217:43,1,80,8|0,0:0|0:0,0:0:0:0:
277,108,51520,2,0,P|335:109|359:98,1,80,0|0,0:0|0:0,0:0:0:0:
441,43,51949,1,8,0:0:0:0:
442,146,52163,1,0,0:0:0:0:
468,246,52377,6,0,B|432:224|432:224|309:241,1,160,4|8,0:0|0:0,0:0:0:0:
237,310,53020,1,0,0:0:0:0:
148,254,53235,2,0,P|114:186|147:106,1,160,2|8,0:0|0:0,0:0:0:0:
238,73,53877,1,0,0:0:0:0:
329,124,54092,6,0,L|408:119,1,80,2|0,0:0|0:0,0:0:0:0:
470,203,54520,2,0,P|486:278|470:338,1,120,8|0,0:0|0:0,0:0:0:0:
445,360,54949,1,2,0:0:0:0:
351,315,55163,1,0,0:0:0:0:
259,364,55377,2,0,L|150:357,1,80,8|0,0:0|0:0,0:0:0:0:
75,345,55806,5,4,0:3:0:0:
20,256,56020,1,8,0:0:0:0:
59,159,56235,1,8,0:0:0:0:
161,140,56449,1,8,0:0:0:0:
253,170,56663,1,4,0:3:0:0:
309,92,56877,1,8,0:0:0:0:
253,14,57091,1,4,0:3:0:0:
161,44,57306,1,8,0:0:0:0:
161,140,57520,6,0,L|104:123,1,40,4|2,0:0|0:0,0:0:0:0:
73,220,57842,2,0,L|16:203,1,40,4|2,0:0|0:0,0:0:0:0:
62,325,58163,2,0,L|119:308,1,40,4|2,0:0|0:0,0:0:0:0:
165,382,58485,2,0,L|222:365,1,40,4|2,0:0|0:0,0:0:0:0:
295,333,58806,2,0,P|245:304|242:239,1,120,0|0,0:0|0:0,0:0:0:0:
282,216,59235,6,0,L|135:222,1,120,4|10,0:0|0:0,0:0:0:0:
110,227,59663,1,2,0:0:0:0:
146,129,59877,1,8,0:0:0:0:
79,48,60092,2,0,P|148:29|225:56,1,120,0|10,0:0|0:0,0:0:0:0:
235,69,60520,2,0,L|337:58,1,80,2|8,0:0|0:0,0:0:0:0:
406,10,60949,5,0,0:0:0:0:
400,113,61163,1,0,0:0:0:0:
400,113,61270,1,10,0:0:0:0:
400,113,61377,2,0,P|394:152|401:191,1,80,2|8,0:0|0:0,0:0:0:0:
441,288,61806,2,0,L|294:261,1,120,0|10,0:0|0:0,0:0:0:0:
283,299,62235,2,0,P|241:324|190:322,1,80,2|8,0:0|0:0,0:0:0:0:
167,231,62663,6,0,P|116:217|42:243,1,120,0|10,0:0|0:0,0:0:0:0:
22,277,63092,2,0,L|34:164,1,80,2|8,0:0|0:0,0:0:0:0:
45,94,63520,2,0,P|106:106|165:70,1,120,0|10,0:0|0:0,0:0:0:0:
177,33,63949,2,0,L|259:45,1,80,2|8,0:0|0:0,0:0:0:0:
342,102,64377,6,0,L|435:90,1,80,0|0,0:0|0:0,0:0:0:0:
464,122,64699,1,10,0:0:0:0:
464,122,64806,2,0,P|464:180|444:219,1,80,2|8,0:0|0:0,0:0:0:0:
352,188,65235,1,6,0:0:0:0:
248,181,65449,1,2,0:0:0:0:
144,171,65663,1,8,0:0:0:0:
40,161,65877,1,8,0:0:0:0:
88,253,66092,6,0,P|153:266|226:233,1,120,0|10,0:0|0:0,0:0:0:0:
232,207,66520,2,0,L|233:315,1,80,2|8,0:0|0:0,0:0:0:0:
319,344,66949,2,0,L|318:211,1,120,0|10,0:0|0:0,0:0:0:0:
320,172,67377,2,0,P|366:166|408:181,1,80,2|8,0:0|0:0,0:0:0:0:
484,233,67806,5,2,0:0:0:0:
477,130,68020,1,0,0:0:0:0:
477,130,68127,1,10,0:0:0:0:
477,130,68235,2,0,L|491:34,1,80,2|8,0:0|0:0,0:0:0:0:
388,23,68663,1,0,0:0:0:0:
299,77,68877,1,4,0:3:0:0:
209,22,69092,2,0,L|115:25,1,80,10|2,0:0|0:0,0:0:0:0:
85,52,69413,1,8,0:0:0:0:
85,52,69520,6,0,P|75:129|107:180,2,120,4|8|8,0:0|0:0|0:0,0:0:0:0:
188,66,70377,2,0,L|330:70,1,120,0|10,0:0|0:0,0:0:0:0:
360,71,70806,1,2,0:0:0:0:
310,162,71020,1,8,0:0:0:0:
281,262,71235,6,0,B|331:270|372:242|372:242|401:246,2,120,4|10|8,0:0|0:0|0:0,0:0:0:0:
185,304,72092,1,4,0:0:0:0:
135,212,72306,2,0,L|81:220,2,40,8|10|0,0:0|0:0|0:0,0:0:0:0:
230,168,72735,1,8,0:0:0:0:
230,168,72842,1,0,0:0:0:0:
230,168,72949,6,0,L|377:162,1,120,4|10,0:0|0:0,0:0:0:0:
402,157,73377,1,2,0:0:0:0:
366,255,73591,1,8,0:0:0:0:
433,336,73806,2,0,P|364:355|287:328,1,120,0|10,0:0|0:0,0:0:0:0:
277,315,74234,2,0,L|175:326,1,80,2|8,0:0|0:0,0:0:0:0:
106,374,74663,5,0,0:0:0:0:
112,271,74877,1,0,0:0:0:0:
112,271,74984,1,10,0:0:0:0:
112,271,75091,2,0,P|118:232|111:193,1,80,2|8,0:0|0:0,0:0:0:0:
71,96,75520,2,0,L|218:123,1,120,0|10,0:0|0:0,0:0:0:0:
229,85,75949,2,0,P|271:60|322:62,1,80,2|8,0:0|0:0,0:0:0:0:
345,153,76377,6,0,P|396:167|470:141,1,120,0|10,0:0|0:0,0:0:0:0:
490,107,76806,2,0,L|478:220,1,80,2|8,0:0|0:0,0:0:0:0:
467,290,77234,2,0,P|406:278|347:314,1,120,0|10,0:0|0:0,0:0:0:0:
335,351,77663,2,0,L|253:339,1,80,2|8,0:0|0:0,0:0:0:0:
170,282,78091,6,0,L|77:294,1,80,0|0,0:0|0:0,0:0:0:0:
48,262,78413,1,10,0:0:0:0:
48,262,78520,2,0,P|48:204|68:165,1,80,2|8,0:0|0:0,0:0:0:0:
160,196,78949,1,4,0:0:0:0:
264,203,79163,1,2,0:0:0:0:
368,213,79377,1,8,0:0:0:0:
472,223,79591,1,10,0:0:0:0:
424,131,79806,6,0,P|359:118|286:151,1,120,0|10,0:0|0:0,0:0:0:0:
280,177,80234,2,0,L|279:69,1,80,2|8,0:0|0:0,0:0:0:0:
193,40,80663,2,0,L|194:173,1,120,0|10,0:0|0:0,0:0:0:0:
192,212,81091,2,0,P|146:218|104:203,1,80,2|8,0:0|0:0,0:0:0:0:
28,151,81520,5,0,0:0:0:0:
35,254,81734,1,0,0:0:0:0:
35,254,81841,1,10,0:0:0:0:
35,254,81949,2,0,L|21:350,1,80,2|8,0:0|0:0,0:0:0:0:
124,361,82377,1,0,0:0:0:0:
213,307,82591,1,8,0:0:0:0:
303,362,82806,2,0,L|397:359,1,80,8|8,0:0|0:0,0:0:0:0:
427,332,83127,1,8,0:0:0:0:
427,332,83235,6,0,P|441:253|411:202,1,120,4|10,0:0|0:0,0:0:0:0:
383,188,83663,2,0,L|288:198,1,80,2|8,0:0|0:0,0:0:0:0:
208,152,84092,2,0,P|152:171|113:162,1,80,0|0,3:0|3:0,0:0:0:0:
83,152,84413,1,0,3:0:0:0:
83,152,84520,2,0,L|94:243,1,80,10|8,0:0|0:0,0:0:0:0:
60,330,84949,6,0,P|110:321|157:333,1,80,12|0,0:0|0:0,0:0:0:0:
234,365,85377,2,0,L|330:351,1,80,8|0,0:0|0:0,0:0:0:0:
417,358,85806,1,8,0:0:0:0:
372,264,86020,1,0,0:0:0:0:
372,264,86127,1,0,0:0:0:0:
372,264,86235,2,0,L|372:201,2,40,8|2|2,0:0|0:0|0:0,0:0:0:0:
474,281,86663,6,0,L|471:196,1,80,4|2,0:0|0:0,0:0:0:0:
434,103,87092,1,8,0:0:0:0:
434,103,87306,1,8,0:0:0:0:
332,80,87520,2,0,P|277:104|250:104,1,80,2|8,0:0|0:0,0:0:0:0:
162,63,87949,2,0,L|95:51,1,40,2|0,0:0|0:0,0:0:0:0:
88,94,88163,2,0,L|21:82,1,40,2|0,0:0|0:0,0:0:0:0:
69,134,88377,6,0,P|50:193|79:261,2,120,4|8|8,0:0|0:0|0:0,0:0:0:0:
154,194,89235,2,0,L|241:188,1,80,10|2,0:0|0:0,0:0:0:0:
267,227,89556,1,0,0:0:0:0:
267,227,89663,6,0,P|314:244|347:242,1,80,4|0,0:0|0:0,0:0:0:0:
