osu file format v14

[General]
AudioFilename: audio.mp3
AudioLeadIn: 0
PreviewTime: 59020
Countdown: 0
SampleSet: Soft
StackLeniency: 0.7
Mode: 0
LetterboxInBreaks: 0
WidescreenStoryboard: 0

[Editor]
Bookmarks: 11235,18092,31806,45520,59235,72949,86663
DistanceSpacing: 2.2
BeatDivisor: 2
GridSize: 16
TimelineZoom: 1.9

[Metadata]
Title:Steppin' out -TV Size-
TitleUnicode:Steppin' out -TV Size-
Artist:FLOW
ArtistUnicode:FLOW
Creator:tutuhaha
Version:Pata-Mon's Insane
Source:デュラララ!!×2 結
Tags:Pata-Mon KittyAdventure Regraz durarara ketsu opening TV size
BeatmapID:1144512
BeatmapSetID:537321

[Difficulty]
HPDrainRate:6
CircleSize:3.8
OverallDifficulty:7
ApproachRate:8.2
SliderMultiplier:1.8
SliderTickRate:1

[Events]
//Background and Video events
0,0,"41792-izaya-orihara-durarara-1366x768-anime-wallpaper.jpg",0,0
Video,0,"video.avi"
//Break Periods
//Storyboard Layer 0 (Background)
//Storyboard Layer 1 (Fail)
//Storyboard Layer 2 (Pass)
//Storyboard Layer 3 (Foreground)
//Storyboard Sound Samples

[TimingPoints]
-765,428.571428571429,4,2,23,50,1,0
520,-100,4,2,23,50,0,0
842,-100,4,2,23,5,0,0
949,-125,4,2,23,50,0,0
2449,-125,4,2,23,50,0,0
2663,-125,4,2,23,50,0,0
4163,-125,4,2,23,50,0,0
4377,-100,4,2,23,80,0,0
9306,-100,4,2,23,80,0,0
9520,-100,4,2,23,80,0,0
10806,-66.6666666666667,4,2,23,80,0,0
11235,-83.3333333333333,4,2,23,80,0,0
12092,-83.3333333333333,4,2,23,80,0,0
12520,-83.3333333333333,4,2,23,80,0,0
13806,-83.3333333333333,4,2,23,80,0,0
14235,-83.3333333333333,4,2,23,80,0,0
15520,-83.3333333333333,4,2,23,80,0,0
15949,-83.3333333333333,4,2,23,80,0,0
18092,-100,4,2,23,70,0,0
30520,-100,4,2,23,70,0,0
31056,-100,4,2,23,70,0,0
31806,-100,4,2,23,70,0,0
46806,-100,4,2,23,70,0,0
47235,-100,4,2,23,70,0,0
48520,-100,4,2,23,70,0,0
48949,-100,4,2,23,70,0,0
50235,-100,4,2,23,70,0,0
50663,-100,4,2,23,70,0,0
51949,-100,4,2,23,70,0,0
52377,-83.3333333333333,4,2,23,70,0,0
54949,-83.3333333333333,4,2,23,70,0,0
56663,-83.3333333333333,4,2,23,70,0,0
58806,-55.5555555555556,4,2,23,70,0,0
59235,-83.3333333333333,4,2,23,80,0,1
59663,-83.3333333333333,4,2,23,80,0,1
60092,-83.3333333333333,4,2,23,80,0,1
60520,-83.3333333333333,4,2,23,80,0,1
60949,-83.3333333333333,4,2,23,80,0,1
63092,-83.3333333333333,4,2,23,80,0,1
63520,-83.3333333333333,4,2,23,80,0,1
63949,-83.3333333333333,4,2,23,80,0,1
64377,-83.3333333333333,4,2,23,80,0,1
66520,-83.3333333333333,4,2,23,80,0,1
66949,-83.3333333333333,4,2,23,80,0,1
67377,-83.3333333333333,4,2,23,80,0,1
67806,-83.3333333333333,4,2,23,80,0,1
72092,-83.3333333333333,4,2,23,80,0,1
72949,-83.3333333333333,4,2,23,80,0,1
73377,-83.3333333333333,4,2,23,80,0,1
73806,-83.3333333333333,4,2,23,80,0,1
74235,-83.3333333333333,4,2,23,80,0,1
74663,-83.3333333333333,4,2,23,80,0,1
76806,-83.3333333333333,4,2,23,80,0,1
77235,-83.3333333333333,4,2,23,80,0,1
77663,-83.3333333333333,4,2,23,80,0,1
78092,-83.3333333333333,4,2,23,80,0,1
80235,-83.3333333333333,4,2,23,80,0,1
80663,-83.3333333333333,4,2,23,80,0,1
81092,-83.3333333333333,4,2,23,80,0,1
81520,-83.3333333333333,4,2,23,80,0,1
89663,-55.5555555555556,4,2,23,80,0,1
89770,-55.5555555555556,4,2,23,10,0,0

[Colours]
Combo1 : 255,192,0
Combo2 : 134,134,134
Combo3 : 18,124,255
Combo4 : 192,192,192

[HitObjects]
191,50,520,6,0,B|239:66|239:66|271:50|271:50|317:66,1,135,2|0,0:0|0:0,0:0:0:0:
420,31,949,6,0,L|409:102,1,72,2|0,0:0|0:0,0:0:0:0:
333,164,1270,1,2,0:0:0:0:
345,182,1377,2,0,L|334:253,1,72,2|0,0:0|0:0,0:0:0:0:
258,315,1699,1,0,0:0:0:0:
270,333,1806,1,2,0:0:0:0:
113,315,2020,1,0,0:0:0:0:
125,333,2127,1,2,0:0:0:0:
137,351,2235,2,0,L|203:342,1,36,2|0,0:0|0:0,0:0:0:0:
270,333,2449,2,0,L|336:324,1,36,2|0,0:0|0:0,0:0:0:0:
403,315,2663,5,2,0:0:0:0:
407,319,2877,2,0,L|415:380,1,36,2|0,0:0|0:0,0:0:0:0:
348,236,3092,2,0,L|340:175,1,36,2|0,0:0|0:0,0:0:0:0:
306,328,3306,1,2,0:0:0:0:
449,227,3520,2,0,L|441:166,1,36,2|0,0:0|0:0,0:0:0:0:
434,112,3735,1,2,0:0:0:0:
417,99,3842,2,0,L|409:38,1,36,2|0,0:0|0:0,0:0:0:0:
348,236,4163,1,2,0:0:0:0:
206,358,4377,6,0,P|162:369|117:371,1,90,2|0,0:0|0:0,0:0:0:0:
348,236,4806,2,0,P|401:239|466:264,1,90,2|0,0:0|0:0,0:0:0:0:
186,269,5235,2,0,P|133:266|68:241,1,90,2|0,0:0|0:0,0:0:0:0:
4,174,5556,2,0,L|10:258,1,45,2|0,0:0|0:0,0:0:0:0:
20,316,5770,1,2,0:0:0:0:
7,333,5877,2,0,L|13:417,1,45,2|0,0:0|0:0,0:0:0:0:
98,256,6092,6,0,L|89:130,1,90,2|0,0:0|0:0,0:0:0:0:
271,54,6520,2,0,L|262:180,1,90,2|0,0:0|0:0,0:0:0:0:
198,347,6949,2,0,L|189:221,1,90,2|0,0:0|0:0,0:0:0:0:
261,188,7270,2,0,L|267:104,1,45,2|0,0:0|0:0,0:0:0:0:
192,76,7485,1,2,0:0:0:0:
178,60,7592,2,0,L|184:-24,1,45,2|0,0:0|0:0,0:0:0:0:
140,163,7806,5,2,0:0:0:0:
285,53,8020,1,2,0:0:0:0:
81,80,8235,1,2,0:0:0:0:
305,44,8449,1,2,0:0:0:0:
140,163,8663,1,2,0:0:0:0:
325,35,8877,1,2,0:0:0:0:
345,26,8985,2,0,L|412:36,1,45,2|0,0:0|0:0,0:0:0:0:
443,114,9199,1,0,0:0:0:0:
463,105,9307,2,0,L|530:115,1,45,2|0,0:0|0:0,0:0:0:0:
469,247,9520,5,2,0:0:0:0:
389,33,9735,1,2,0:0:0:0:
327,253,9949,1,2,0:0:0:0:
507,111,10163,1,2,0:0:0:0:
279,121,10377,1,2,0:0:0:0:
469,247,10592,2,0,L|462:316,1,45,0|0,1:0|0:0,0:0:0:0:
327,253,10806,6,0,P|392:190|469:247,1,202.500007724762,8|0,0:0|0:0,0:0:0:0:
334,352,11235,6,0,P|272:336|233:282,1,107.999996704102,6|0,0:0|0:0,0:0:0:0:
423,110,11663,2,0,L|418:262,1,107.999996704102,0|0,1:0|0:0,0:0:0:0:
327,253,11985,1,0,1:0:0:0:
312,237,12092,2,0,L|317:85,1,107.999996704102,2|0,0:0|0:0,0:0:0:0:
244,61,12413,2,0,L|152:70,1,53.9999983520508,2|0,0:0|1:0,0:0:0:0:
129,143,12627,1,2,0:0:0:0:
112,157,12735,2,0,L|20:148,1,53.9999983520508,2|0,0:0|0:0,0:0:0:0:
219,160,12949,6,0,L|214:312,1,107.999996704102,2|0,0:0|0:0,0:0:0:0:
136,72,13377,2,0,L|274:58,1,107.999996704102,0|0,1:0|0:0,0:0:0:0:
333,104,13699,1,0,1:0:0:0:
347,121,13806,2,0,P|357:159|342:275,1,107.999996704102,2|0,0:0|0:0,0:0:0:0:
269,273,14127,2,0,L|177:265,1,53.9999983520508,2|0,0:0|1:0,0:0:0:0:
137,206,14342,1,2,0:0:0:0:
152,190,14449,2,0,L|244:182,1,53.9999983520508,2|0,0:0|0:0,0:0:0:0:
122,305,14663,6,0,P|71:281|40:228,1,107.999996704102,2|0,0:0|0:0,0:0:0:0:
269,273,15092,1,0,1:0:0:0:
193,76,15306,1,0,0:0:0:0:
176,89,15413,1,0,1:0:0:0:
159,102,15520,2,0,P|140:152|137:206,1,107.999996704102,2|0,0:0|0:0,0:0:0:0:
122,305,15842,2,0,L|128:378,1,53.9999983520508,2|0,0:0|1:0,0:0:0:0:
391,327,16163,1,0,0:0:0:0:
383,307,16270,1,0,1:0:0:0:
375,287,16377,6,0,P|322:273|268:273,1,107.999996704102,2|0,0:0|1:0,0:0:0:0:
21,172,16806,1,2,0:0:0:0:
46,137,16913,1,2,0:0:0:0:
71,102,17020,2,0,L|134:99,1,53.9999983520508,0|0,1:0|0:0,0:0:0:0:
233,96,17235,1,0,1:0:0:0:
21,172,17449,1,2,0:0:0:0:
237,100,17663,2,0,L|363:94,1,107.999996704102,4|2,0:0|0:0,0:0:0:0:
169,307,18092,6,0,P|159:232|183:156,1,135,6|0,0:0|0:0,0:0:0:0:
237,100,18520,2,0,P|281:131|303:175,1,90,0|0,1:0|0:0,0:0:0:0:
75,204,18949,1,2,0:0:0:0:
150,89,19163,1,0,0:0:0:0:
299,162,19377,2,0,L|297:284,1,90,0|0,1:0|0:0,0:0:0:0:
150,89,19806,6,0,L|147:247,1,135,2|0,0:0|0:0,0:0:0:0:
220,291,20235,2,0,P|264:281|300:248,1,90,0|0,1:0|0:0,0:0:0:0:
56,209,20663,2,0,L|54:331,1,90,2|0,0:0|0:0,0:0:0:0:
219,193,21092,2,0,L|221:71,1,90,0|0,1:0|0:0,0:0:0:0:
54,299,21520,6,0,L|57:141,1,135,2|0,0:0|0:0,0:0:0:0:
131,98,21949,2,0,P|175:95|220:103,1,90,0|0,1:0|0:0,0:0:0:0:
165,247,22377,1,2,0:0:0:0:
56,164,22592,1,0,0:0:0:0:
220,103,22806,2,0,L|318:118,1,90,0|0,1:0|0:0,0:0:0:0:
511,185,23235,6,0,P|410:194|349:165,1,135,2|0,0:0|0:0,0:0:0:0:
309,117,23663,1,0,1:0:0:0:
446,47,23877,1,0,0:0:0:0:
287,211,24092,2,0,L|293:302,1,90,2|0,0:0|0:0,0:0:0:0:
446,47,24520,2,0,P|393:34|322:51,1,90,0|0,1:0|0:0,0:0:0:0:
186,176,24949,6,0,L|195:312,1,135,2|0,0:0|0:0,0:0:0:0:
261,383,25377,1,0,1:0:0:0:
438,276,25592,2,0,P|386:280|319:301,1,90,0|2,0:0|0:0,0:0:0:0:
186,176,26020,2,0,P|217:186|252:186,1,45
152,83,26235,2,0,P|100:87|33:108,1,90,0|0,1:0|0:0,0:0:0:0:
75,323,26663,6,0,P|142:318|207:303,1,135,2|0,0:0|0:0,0:0:0:0:
300,267,27092,1,0,1:0:0:0:
432,172,27306,1,0,0:0:0:0:
202,118,27520,2,0,P|208:163|224:205,1,90,2|0,0:0|0:0,0:0:0:0:
300,267,27842,1,0,0:0:0:0:
321,263,27949,1,0,1:0:0:0:
160,280,28163,1,0,0:0:0:0:
400,220,28377,6,0,P|411:262|400:305,1,90,2|0,0:0|0:0,0:0:0:0:
340,105,28806,2,0,L|432:110,1,90,0|0,1:0|0:0,0:0:0:0:
144,249,29235,2,0,P|133:207|144:164,1,90,2|0,0:0|0:0,0:0:0:0:
204,364,29664,2,0,L|112:359,1,90,0|0,1:0|0:0,0:0:0:0:
322,192,30092,6,0,P|318:260|292:321,1,135,2|0,0:0|0:0,0:0:0:0:
204,364,30520,1,0,1:0:0:0:
392,343,30735,1,0,0:0:0:0:
233,131,30949,1,0,1:0:0:0:
217,171,31056,2,0,L|220:231,1,45,0|0,1:0|0:0,0:0:0:0:
338,152,31270,1,0,1:0:0:0:
322,192,31377,2,0,L|325:252,1,45,0|0,1:0|0:0,0:0:0:0:
392,343,31592,1,2,0:0:0:0:
119,285,31806,6,0,L|112:150,1,135,6|0,0:0|0:0,0:0:0:0:
148,58,32235,2,0,P|199:37|249:43,1,90,0|0,1:0|0:0,0:0:0:0:
119,285,32663,1,2,0:0:0:0:
210,135,32877,1,0,0:0:0:0:
142,381,33092,2,0,P|97:380|56:361,1,90,0|0,1:0|0:0,0:0:0:0:
266,243,33520,6,0,P|351:228|392:153,1,135,2|0,0:0|0:0,0:0:0:0:
433,109,33949,1,0,1:0:0:0:
220,98,34163,2,0,P|251:129|295:148,1,90,0|2,0:0|0:0,0:0:0:0:
448,12,34592,1,0,0:0:0:0:
293,148,34806,2,0,L|295:274,1,90,0|0,1:0|0:0,0:0:0:0:
428,378,35235,6,0,P|409:276|350:247,1,135,2|0,0:0|0:0,0:0:0:0:
294,238,35663,1,0,1:0:0:0:
140,296,35877,2,0,P|182:312|227:310,1,90,0|2,0:0|0:0,0:0:0:0:
361,166,36306,1,0,0:0:0:0:
149,52,36520,1,0,1:0:0:0:
198,215,36735,1,0,0:0:0:0:
312,3,36949,6,0,P|399:0|468:34,1,135,2|0,0:0|0:0,0:0:0:0:
512,86,37377,1,0,1:0:0:0:
361,166,37592,2,0,L|237:157,1,90,0|2,0:0|0:0,0:0:0:0:
140,267,38020,1,0,0:0:0:0:
416,248,38235,2,0,P|446:215|459:172,1,90,0|0,1:0|0:0,0:0:0:0:
226,157,38663,6,0,L|361:166,1,135,2|0,0:0|0:0,0:0:0:0:
459,172,39092,1,0,1:0:0:0:
347,52,39306,2,0,L|223:43,1,90,0|2,0:0|0:0,0:0:0:0:
61,31,39735,1,0,0:0:0:0:
226,157,39949,1,0,1:0:0:0:
159,38,40163,1,0,0:0:0:0:
42,249,40377,6,0,P|117:260|185:227,1,135,2|0,0:0|0:0,0:0:0:0:
226,157,40806,2,0,L|350:166,1,90,0|0,1:0|0:0,0:0:0:0:
117,60,41235,2,0,P|119:105|128:150,1,90,2|0,0:0|0:0,0:0:0:0:
170,238,41556,1,0,0:0:0:0:
188,250,41663,2,0,L|312:259,1,90,0|0,1:0|0:0,0:0:0:0:
424,87,42092,6,0,P|364:115|336:175,1,135,2|0,0:0|0:0,0:0:0:0:
377,265,42520,1,0,1:0:0:0:
238,165,42735,1,0,0:0:0:0:
435,185,42949,2,0,P|474:286|450:332,1,90,2|0,0:0|0:0,0:0:0:0:
377,265,43270,1,0,0:0:0:0:
355,260,43377,2,0,P|307:258|251:271,1,90,0|0,1:0|0:0,0:0:0:0:
88,357,43806,5,2,0:0:0:0:
209,146,44020,2,0,L|199:211,1,45,0|0,1:0|0:0,0:0:0:0:
220,353,44235,1,0,1:0:0:0:
341,142,44449,1,0,1:0:0:0:
352,349,44663,2,0,L|362:284,1,45,0|0,1:0|0:0,0:0:0:0:
334,186,44877,2,0,L|344:121,1,45,0|0,1:0|0:0,0:0:0:0:
316,23,45092,1,2,0:0:0:0:
276,39,45199,1,0,0:0:0:0:
244,68,45306,1,2,0:0:0:0:
225,107,45413,1,0,0:0:0:0:
220,150,45520,6,0,P|164:150|94:119,1,90,6|0,0:0|0:0,0:0:0:0:
341,142,45949,2,0,L|331:207,1,45,0|0,1:0|0:0,0:0:0:0:
388,267,46163,1,2,0:0:0:0:
374,284,46270,2,0,L|364:349,1,45,2|0,0:0|0:0,0:0:0:0:
220,150,46592,1,2,0:0:0:0:
445,90,46806,2,0,L|425:220,1,90,0|0,1:0|0:0,0:0:0:0:
220,150,47235,6,0,P|164:156|108:182,1,90,2|0,0:0|0:0,0:0:0:0:
54,226,47556,1,2,0:0:0:0:
42,244,47663,1,0,1:0:0:0:
253,287,47877,2,0,L|258:205,1,45,2|0,0:0|0:0,0:0:0:0:
220,150,48092,2,0,L|225:68,1,45
187,13,48306,1,2,0:0:0:0:
155,271,48520,2,0,L|160:189,1,45,0|0,1:0|0:0,0:0:0:0:
122,134,48735,2,0,L|127:52,1,45
187,13,48949,6,0,P|263:15|302:46,1,90,2|0,0:0|0:0,0:0:0:0:
467,156,49377,2,0,L|407:160,1,45,0|0,1:0|0:0,0:0:0:0:
342,216,49592,1,2,0:0:0:0:
322,224,49699,2,0,L|262:220,1,45,2|0,0:0|0:0,0:0:0:0:
75,208,50020,1,2,0:0:0:0:
287,115,50235,2,0,L|347:119,1,45,0|0,1:0|0:0,0:0:0:0:
412,61,50449,2,0,L|472:57,1,45
323,20,50663,6,0,L|203:12,1,90,2|0,0:0|0:0,0:0:0:0:
177,95,50985,1,2,0:0:0:0:
190,112,51092,1,0,1:0:0:0:
409,105,51306,2,0,L|414:21,1,45,2|0,0:0|0:0,0:0:0:0:
333,167,51520,2,0,L|338:251,1,45
430,201,51735,2,0,L|425:285,1,45,2|0,0:0|0:0,0:0:0:0:
352,309,51949,2,0,L|357:393,3,45,0|0|0|0,1:0|0:0|0:0|0:0,0:0:0:0:
260,275,52377,6,0,P|207:261|153:258,1,107.999996704102,6|0,0:0|0:0,0:0:0:0:
265,106,52806,2,0,P|318:120|372:123,1,107.999996704102,0|0,1:0|0:0,0:0:0:0:
154,258,53235,2,0,P|100:254|48:240,1,107.999996704102,2|0,0:0|0:0,0:0:0:0:
159,88,53663,2,0,P|213:92|265:106,1,107.999996704102,0|0,1:0|0:0,0:0:0:0:
356,347,54092,6,0,P|338:295|333:242,1,107.999996704102,6|0,0:0|0:0,0:0:0:0:
156,347,54520,2,0,P|173:295|178:242,1,107.999996704102,0|0,1:0|0:0,0:0:0:0:
148,40,54949,1,2,0:0:0:0:
144,44,55163,1,0,0:0:0:0:
364,40,55377,1,0,1:0:0:0:
368,44,55591,1,0,0:0:0:0:
133,192,55806,5,4,1:2:0:0:
379,192,56020,1,0,1:0:0:0:
256,69,56235,1,0,1:0:0:0:
256,315,56449,1,0,1:0:0:0:
133,192,56663,2,0,L|213:179,1,53.9999983520508,0|0,1:0|0:0,0:0:0:0:
379,192,56877,2,0,L|299:205,1,53.9999983520508,0|0,1:0|0:0,0:0:0:0:
256,69,57092,2,0,L|269:149,1,53.9999983520508,0|0,1:0|0:0,0:0:0:0:
256,315,57306,2,0,L|243:235,1,53.9999983520508,0|0,1:0|0:0,0:0:0:0:
361,108,57520,5,4,1:2:0:0:
404,108,57627,1,0,1:0:0:0:
151,276,57842,1,4,1:2:0:0:
108,276,57949,1,0,1:0:0:0:
340,297,58163,1,4,1:2:0:0:
340,340,58270,1,0,1:0:0:0:
172,87,58485,1,4,1:2:0:0:
172,44,58592,1,0,1:0:0:0:
221,266,58806,6,0,P|165:353|123:266,1,242.999992584229,8|0,0:0|0:0,0:0:0:0:
172,181,59235,6,0,B|239:148|268:194|330:168,1,161.999995056153,6|0,0:0|1:0,0:0:0:0:
410,113,59663,1,2,0:0:0:0:
221,266,59877,1,0,1:0:0:0:
414,117,60092,2,0,B|447:184|401:213|427:275,1,161.999995056153,2|0,0:0|1:0,0:0:0:0:
466,365,60520,1,2,0:0:0:0:
330,168,60735,1,0,1:0:0:0:
512,14,60949,5,2,0:0:0:0:
322,126,61163,1,0,0:0:0:0:
326,147,61270,1,0,1:0:0:0:
330,168,61377,1,2,0:0:0:0:
489,231,61592,1,0,1:0:0:0:
493,210,61699,2,0,L|477:126,1,53.9999983520508,2|0,0:0|0:0,0:0:0:0:
221,107,62020,2,0,L|237:191,1,53.9999983520508,0|0,0:0|1:0,0:0:0:0:
330,168,62235,2,0,L|306:42,1,107.999996704102,2|0,0:0|1:0,0:0:0:0:
24,132,62663,6,0,P|52:232|147:254,1,161.999995056153,2|0,0:0|1:0,0:0:0:0:
192,224,63092,1,2,0:0:0:0:
59,368,63306,1,0,1:0:0:0:
118,160,63520,2,0,P|210:128|285:192,1,161.999995056153,2|0,0:0|1:0,0:0:0:0:
286,252,63949,1,2,0:0:0:0:
333,61,64163,1,0,1:0:0:0:
192,224,64377,6,0,P|218:323|310:347,1,107.999996704102,2|0,0:0|0:0,0:0:0:0:
315,345,64699,1,0,1:0:0:0:
335,337,64806,1,2,0:0:0:0:
174,122,65020,1,0,1:0:0:0:
143,152,65127,1,2,0:0:0:0:
112,182,65235,2,0,L|106:253,1,53.9999983520508,0|0,1:0|0:0,0:0:0:0:
286,252,65449,2,0,L|280:181,1,53.9999983520508,2|0,0:0|0:0,0:0:0:0:
189,333,65663,1,2,0:0:0:0:
403,300,65877,1,2,0:0:0:0:
272,91,66092,6,0,L|286:253,1,161.999995056153,2|0,0:0|1:0,0:0:0:0:
293,350,66520,1,2,0:0:0:0:
183,166,66735,1,0,1:0:0:0:
403,300,66949,2,0,L|389:138,1,161.999995056153,2|0,0:0|1:0,0:0:0:0:
382,43,67377,1,2,0:0:0:0:
183,166,67592,1,0,1:0:0:0:
472,85,67806,5,0,0:0:0:0:
223,184,68020,1,0,0:0:0:0:
203,175,68128,1,0,1:0:0:0:
183,166,68235,1,0,0:0:0:0:
362,34,68449,1,0,1:0:0:0:
382,43,68556,2,0,L|388:114,1,53.9999983520508,2|0,0:0|0:0,0:0:0:0:
93,124,68877,2,0,L|87:53,1,53.9999983520508,0|0,1:0|0:0,0:0:0:0:
183,166,69092,1,2,0:0:0:0:
382,43,69306,2,0,L|388:114,1,53.9999983520508,0|0,1:0|1:0,0:0:0:0:
306,198,69520,6,0,P|359:205|411:192,1,107.999996704102,6|0,0:0|0:0,0:0:0:0:
476,69,69842,2,0,L|482:140,1,53.9999983520508,0|2,1:0|0:0,0:0:0:0:
430,359,70163,1,0,1:0:0:0:
485,127,70377,2,0,L|497:269,1,107.999996704102,2|0,0:0|0:0,0:0:0:0:
430,359,70699,2,0,L|424:288,1,53.9999983520508,0|2,1:0|0:0,0:0:0:0:
489,131,71020,1,0,1:0:0:0:
238,241,71235,6,0,P|153:256|88:198,1,107.999996704102,6|0,0:0|0:0,0:0:0:0:
60,186,71556,1,0,1:0:0:0:
82,149,71663,1,2,0:0:0:0:
80,366,71877,1,0,1:0:0:0:
180,161,72092,2,0,P|265:146|330:204,1,107.999996704102,2|0,0:0|1:0,0:0:0:0:
407,222,72413,1,0,1:0:0:0:
374,250,72520,2,0,L|271:237,1,53.9999983520508,2|0,0:0|0:0,0:0:0:0:
360,93,72735,1,0,1:0:0:0:
399,111,72842,1,0,1:0:0:0:
438,129,72949,6,0,P|501:195|480:288,1,161.999995056153,6|0,0:0|1:0,0:0:0:0:
407,222,73377,1,2,0:0:0:0:
479,21,73592,1,0,1:0:0:0:
403,226,73806,2,0,P|317:262|236:212,1,161.999995056153,2|0,0:0|1:0,0:0:0:0:
201,156,74235,1,2,0:0:0:0:
438,129,74449,1,0,1:0:0:0:
197,152,74663,6,0,P|114:146|54:113,1,107.999996704102,2|0,0:0|0:0,0:0:0:0:
0,99,74985,1,0,1:0:0:0:
13,116,75092,2,0,P|12:169|-1:223,1,107.999996704102,2|0,0:0|1:0,0:0:0:0:
18,318,75413,2,0,L|109:327,1,53.9999983520508,2|2,0:0|0:0,0:0:0:0:
340,292,75735,2,0,L|249:283,1,53.9999983520508,0|0,0:0|1:0,0:0:0:0:
431,255,75949,2,0,L|427:403,1,107.999996704102,2|0,0:0|1:0,0:0:0:0:
194,181,76377,6,0,B|261:214|290:168|352:194,1,161.999995056153,2|0,0:0|1:0,0:0:0:0:
431,255,76806,1,2,0:0:0:0:
243,96,77020,1,0,1:0:0:0:
149,295,77235,2,0,B|216:262|245:308|307:282,1,161.999995056153,2|0,0:0|1:0,0:0:0:0:
352,194,77663,1,2,0:0:0:0:
198,380,77877,1,0,1:0:0:0:
163,141,78092,5,2,0:0:0:0:
352,194,78306,2,0,L|423:193,1,53.9999983520508,2|0,0:0|1:0,0:0:0:0:
307,282,78520,1,2,0:0:0:0:
163,141,78735,1,0,1:0:0:0:
173,99,78842,1,2,0:0:0:0:
183,57,78949,2,0,L|163:-27,1,53.9999983520508,0|0,1:0|0:0,0:0:0:0:
259,163,79163,2,0,L|279:79,1,53.9999983520508,2|0,0:0|0:0,0:0:0:0:
141,237,79377,1,2,0:0:0:0:
333,281,79592,1,0,1:0:0:0:
92,322,79806,6,0,B|159:355|188:309|250:335,1,161.999995056153,2|0,0:0|1:0,0:0:0:0:
333,281,80235,1,2,0:0:0:0:
141,237,80449,1,0,1:0:0:0:
339,379,80663,2,0,P|424:318|421:237,1,161.999995056153,2|0,0:0|1:0,0:0:0:0:
369,189,81092,1,2,0:0:0:0:
250,335,81306,1,0,1:0:0:0:
198,109,81520,5,2,0:0:0:0:
214,311,81734,1,0,0:0:0:0:
232,323,81842,1,0,1:0:0:0:
250,335,81949,1,2,0:0:0:0:
270,117,82163,1,0,1:0:0:0:
252,105,82270,2,0,L|198:109,1,53.9999983520508,2|2,0:0|0:0,0:0:0:0:
250,335,82592,2,0,L|242:281,1,53.9999983520508,0|0,1:0|0:0,0:0:0:0:
120,253,82806,2,0,L|128:307,1,53.9999983520508,2|0,0:0|0:0,0:0:0:0:
206,162,83020,2,0,L|198:108,1,53.9999983520508,0|0,1:0|0:0,0:0:0:0:
285,17,83235,6,0,L|348:5,2,53.9999983520508,6|0|0,0:0|0:0|0:0,0:0:0:0:
321,137,83556,2,0,L|384:149,2,53.9999983520508,0|2|0,1:0|0:0|0:0,0:0:0:0:
198,109,83877,2,0,L|135:121,1,53.9999983520508,0|0,1:0|0:0,0:0:0:0:
33,179,84092,1,2,0:0:0:0:
61,212,84199,1,0,0:0:0:0:
98,235,84306,1,0,1:0:0:0:
140,244,84413,1,0,1:0:0:0:
183,239,84520,2,0,L|246:227,1,53.9999983520508,2|0,0:0|0:0,0:0:0:0:
321,137,84735,2,0,L|384:149,1,53.9999983520508,0|0,1:0|0:0,0:0:0:0:
198,109,84949,6,0,L|72:133,1,107.999996704102,6|0,0:0|0:0,0:0:0:0:
357,257,85377,2,0,L|483:281,1,107.999996704102,0|0,1:0|0:0,0:0:0:0:
148,321,85806,2,0,L|85:333,1,53.9999983520508,2|0,0:0|0:0,0:0:0:0:
112,201,86020,1,0,1:0:0:0:
154,193,86127,1,0,0:0:0:0:
196,185,86235,2,0,L|259:197,1,53.9999983520508,2|0,0:0|0:0,0:0:0:0:
201,331,86449,2,0,L|138:319,1,53.9999983520508,2|0,0:0|0:0,0:0:0:0:
322,298,86663,6,0,L|448:322,1,107.999996704102,6|0,0:0|0:0,0:0:0:0:
196,185,87092,2,0,L|259:197,1,53.9999983520508,0|0,1:0|0:0,0:0:0:0:
318,294,87306,2,0,L|381:306,1,53.9999983520508,0|0,1:0|0:0,0:0:0:0:
370,185,87520,1,6,0:0:0:0:
168,103,87735,1,2,0:0:0:0:
182,144,87842,1,0,0:0:0:0:
196,185,87949,2,0,L|259:197,1,53.9999983520508,0|0,1:0|1:0,0:0:0:0:
370,185,88163,2,0,L|433:197,1,53.9999983520508,0|0,1:0|1:0,0:0:0:0:
301,86,88377,6,0,L|175:62,1,107.999996704102,6|0,0:0|0:0,0:0:0:0:
196,185,88699,2,0,L|259:197,1,53.9999983520508,0|2,1:0|0:0,0:0:0:0:
475,86,89020,2,0,L|412:74,1,53.9999983520508,2|0,0:0|0:0,0:0:0:0:
370,185,89235,2,0,L|433:197,3,53.9999983520508,0|0|0|0,1:0|0:0|0:0|0:0,0:0:0:0:
301,86,89663,6,0,P|250:200|360:306,1,242.999992584229,8|0,0:0|0:0,0:0:0:0:
