osu file format v14

[General]
AudioFilename: audio.mp3
AudioLeadIn: 0
PreviewTime: 59020
Countdown: 0
SampleSet: Soft
StackLeniency: 0.7
Mode: 0
LetterboxInBreaks: 0
WidescreenStoryboard: 0

[Editor]
DistanceSpacing: 1.2
BeatDivisor: 4
GridSize: 4
TimelineZoom: 2.1

[Metadata]
Title:Steppin' out -TV Size-
TitleUnicode:Steppin' out -TV Size-
Artist:FLOW
ArtistUnicode:FLOW
Creator:tutuhaha
Version:Normal
Source:デュラララ!!×2 結
Tags:Pata-Mon KittyAdventure Regraz durarara ketsu opening TV size
BeatmapID:1319948
BeatmapSetID:537321

[Difficulty]
HPDrainRate:4
CircleSize:3
OverallDifficulty:4
ApproachRate:5
SliderMultiplier:1.3
SliderTickRate:1

[Events]
//Background and Video events
0,0,"41792-izaya-orihara-durarara-1366x768-anime-wallpaper.jpg",0,0
Video,0,"video.avi"
//Break Periods
//Storyboard Layer 0 (Background)
//Storyboard Layer 1 (Fail)
//Storyboard Layer 2 (Pass)
//Storyboard Layer 3 (Foreground)
//Storyboard Sound Samples

[TimingPoints]
-765,428.571428571429,4,2,1,60,1,0
11235,-100,4,2,1,70,0,0
18092,-100,4,2,1,60,0,0
59235,-100,4,2,1,70,0,1
89663,-100,4,2,1,70,0,0
89770,-100,4,2,1,10,0,0

[Colours]
Combo1 : 255,192,0
Combo2 : 134,134,134
Combo3 : 18,124,255
Combo4 : 192,192,192

[HitObjects]
104,320,949,6,0,B|168:288|168:288|212:220,1,130,4|0,0:0|0:0,0:0:0:0:
184,180,1592,1,0,0:0:0:0:
172,124,1806,2,0,P|220:96|300:100,1,130,0|0,0:0|0:0,0:0:0:0:
436,36,2663,2,0,P|448:100|500:160,1,130,0|0,0:0|0:0,0:0:0:0:
492,208,3306,1,0,0:0:0:0:
492,268,3520,2,0,L|332:252,1,130,0|0,0:0|0:0,0:0:0:0:
208,256,4377,5,2,0:1:0:0:
88,356,4806,1,2,0:1:0:0:
60,204,5235,2,0,B|76:144|76:144|68:96,2,97.5,2|0|0,0:1|0:0|0:0,0:0:0:0:
88,252,6092,1,2,0:1:0:0:
208,352,6520,1,2,0:1:0:0:
264,208,6949,2,0,B|276:136|276:136|308:96,2,97.5,2|0|0,0:1|0:0|0:0,0:0:0:0:
304,252,7806,5,2,0:1:0:0:
160,308,8235,1,2,0:1:0:0:
136,152,8663,2,0,B|128:88|128:88|96:36,2,97.5,2|0|0,0:1|0:0|0:0,0:0:0:0:
192,128,9520,6,0,P|236:80|372:68,1,195,6|8,0:1|0:0,0:0:0:0:
420,64,10377,2,0,P|405:127|294:205,1,195,8|0,0:0|0:0,0:0:0:0:
260,172,11235,6,0,B|200:160|200:160|108:160,1,130,4|8,0:0|0:0,0:0:0:0:
80,308,12092,2,0,B|140:320|140:320|232:320,1,130,2|8,0:0|0:0,0:0:0:0:
248,276,12735,1,0,0:0:0:0:
256,220,12949,6,0,P|232:172|256:80,1,130,0|8,0:0|0:0,0:0:0:0:
388,40,13806,2,0,P|412:88|388:180,1,130,2|8,0:0|0:0,0:0:0:0:
400,220,14449,1,0,0:0:0:0:
392,280,14663,6,0,B|296:280|296:280|252:308,1,130,4|8,0:0|0:0,0:0:0:0:
160,184,15520,2,0,B|256:184|256:184|300:156,1,130,2|8,0:0|0:0,0:0:0:0:
276,108,16163,1,0,0:0:0:0:
228,76,16377,6,0,P|156:68|100:16,1,130,2|10,0:0|0:0,0:0:0:0:
64,184,17235,2,0,L|64:336,1,130,4|8,0:0|0:0,0:0:0:0:
220,312,18092,6,0,P|224:232|276:192,1,130,2|8,0:0|0:0,0:0:0:0:
292,152,18735,2,0,P|360:160|428:120,1,130,0|0,0:0|0:0,0:0:0:0:
456,92,19377,1,8,0:0:0:0:
312,28,19806,6,0,B|224:40|224:40|168:24,1,130,2|8,0:0|0:0,0:0:0:0:
144,72,20449,2,0,B|132:144|132:144|88:200,1,130,0|0,0:0|0:0,0:0:0:0:
76,244,21092,1,8,0:0:0:0:
196,344,21520,5,2,0:0:0:0:
252,200,21949,2,0,L|332:200,1,65,8|0,0:0|0:0,0:0:0:0:
440,104,22592,2,0,L|508:104,1,65,0|8,0:0|0:0,0:0:0:0:
476,256,23235,6,0,P|420:244|340:276,1,130,2|8,0:0|0:0,0:0:0:0:
320,316,23877,2,0,B|248:300|248:300|184:308,1,130,0|0,0:0|0:0,0:0:0:0:
144,340,24520,1,8,0:0:0:0:
40,224,24949,6,0,P|52:152|24:100,1,130,2|8,0:0|0:0,0:0:0:0:
80,80,25592,2,0,P|152:96|224:64,1,130,0|0,0:0|0:0,0:0:0:0:
260,68,26235,1,8,0:0:0:0:
412,108,26663,5,2,0:0:0:0:
344,248,27092,2,0,L|272:248,1,65,8|0,0:0|0:0,0:0:0:0:
136,184,27735,2,0,L|52:184,1,65,0|8,0:0|0:0,0:0:0:0:
88,340,28377,5,2,0:0:0:0:
244,364,28806,1,8,0:0:0:0:
196,216,29235,2,0,P|168:164|188:72,1,130,2|8,0:0|0:0,0:0:0:0:
320,44,30092,6,0,B|336:112|336:112|396:152,1,130,2|8,0:0|0:0,0:0:0:0:
396,204,30735,1,0,0:0:0:0:
388,260,30949,2,0,B|338:294|338:294|322:362,1,130,4|8,3:0|0:0,0:0:0:0:
264,372,31592,1,8,3:0:0:0:
216,340,31806,6,0,P|160:364|76:340,1,130,2|8,0:0|0:0,0:0:0:0:
48,316,32449,2,0,P|84:267|169:246,1,130,0|0,0:0|0:0,0:0:0:0:
184,200,33092,1,8,0:0:0:0:
268,68,33520,6,0,B|196:92|196:92|124:84,1,130,2|8,0:0|0:0,0:0:0:0:
88,60,34163,2,0,P|76:116|20:168,1,130,0|0,0:0|0:0,0:0:0:0:
16,224,34806,1,8,0:0:0:0:
92,360,35235,6,0,P|100:292|148:244,1,130,2|8,0:0|0:0,0:0:0:0:
124,192,35877,2,0,P|96:148|112:48,1,130
140,28,36520,1,8,0:0:0:0:
292,60,36949,6,0,B|372:56|372:56|436:28|432:28,1,130,2|8,0:0|0:0,0:0:0:0:
456,80,37592,2,0,P|452:140|412:200,1,130,0|0,0:0|0:0,0:0:0:0:
360,216,38235,1,8,0:0:0:0:
308,364,38663,6,0,P|300:288|252:236,1,130,2|8,0:0|0:0,0:0:0:0:
212,232,39306,2,0,P|168:200|148:116,1,130,0|0,0:0|0:0,0:0:0:0:
160,72,39949,1,8,0:0:0:0:
304,16,40377,6,0,P|344:44|368:128,1,130,2|8,0:0|0:0,0:0:0:0:
424,140,41020,2,0,P|384:176|384:272,1,130,0|0,0:0|0:0,0:0:0:0:
404,300,41663,1,8,0:0:0:0:
256,248,42092,5,2,0:0:0:0:
160,372,42520,1,8,0:0:0:0:
24,292,42949,2,0,P|52:176|96:152,1,130,2|8,0:0|0:0,0:0:0:0:
192,100,43806,5,2,0:0:0:0:
196,40,44020,2,0,P|164:40|124:32,2,65,8|8|8,0:0|0:0|0:0,0:0:0:0:
244,76,44663,2,0,P|296:40|376:36,1,130,2|2,0:0|0:0,0:0:0:0:
432,172,45520,6,0,P|368:216|304:224,1,130,4|8,0:0|0:0,0:0:0:0:
268,256,46163,2,0,P|212:224|168:160,1,130,2|0,0:0|0:0,0:0:0:0:
148,120,46806,1,8,0:0:0:0:
260,12,47235,5,2,0:0:0:0:
412,44,47663,2,0,L|412:128,1,65,8|0,0:0|0:0,0:0:0:0:
340,248,48306,2,0,L|340:332,1,65,0|8,0:0|0:0,0:0:0:0:
188,348,48949,6,0,P|161:310|157:218,1,130,2|8,0:0|0:0,0:0:0:0:
112,184,49592,2,0,P|132:124|188:80,1,130
232,60,50235,1,8,0:0:0:0:
376,120,50663,6,0,P|344:164|256:204,1,130,2|8,0:0|0:0,0:0:0:0:
244,244,51306,2,0,P|200:216|96:212,1,130,0|0,0:0|0:0,0:0:0:0:
64,212,51949,1,8,0:0:0:0:
52,56,52377,5,4,0:0:0:0:
64,212,52806,1,8,0:0:0:0:
8,360,53235,1,2,0:0:0:0:
64,212,53663,1,8,0:0:0:0:
188,116,54092,6,0,L|324:108,1,130,2|8,0:0|0:0,0:0:0:0:
340,264,54949,2,0,L|210:271,1,130,2|8,0:0|0:0,0:0:0:0:
256,192,55806,12,4,57520,0:3:0:0:
252,260,59235,6,0,P|312:216|380:216,1,130,4|10,0:0|0:0,0:0:0:0:
420,228,59877,1,0,0:0:0:0:
468,192,60092,2,0,P|484:136|464:44,1,130,0|10,0:0|0:0,0:0:0:0:
324,104,60949,5,0,0:0:0:0:
192,24,61377,1,10,0:0:0:0:
96,144,61806,2,0,L|120:292,1,130,0|10,0:0|0:0,0:0:0:0:
264,320,62663,6,0,L|243:191,1,130,0|10,0:0|0:0,0:0:0:0:
232,136,63306,1,0,0:0:0:0:
196,92,63520,2,0,P|128:92|64:40,1,130,0|10,0:0|0:0,0:0:0:0:
24,204,64377,5,0,0:0:0:0:
124,324,64806,1,10,0:0:0:0:
192,184,65235,2,0,P|216:128|288:92,1,130,6|8,0:0|0:0,0:0:0:0:
312,52,65877,1,8,0:0:0:0:
368,40,66092,6,0,L|504:36,1,130,0|10,0:0|0:0,0:0:0:0:
500,96,66735,1,0,0:0:0:0:
472,148,66949,2,0,P|448:200|380:244,1,130,0|10,0:0|0:0,0:0:0:0:
296,116,67806,5,0,0:0:0:0:
220,252,68235,1,10,0:0:0:0:
112,140,68663,2,0,B|88:224|88:224|36:264,1,130,0|10,0:0|0:0,0:0:0:0:
32,304,69306,1,2,0:0:0:0:
72,348,69520,6,0,P|148:336|272:368,1,195,4|8,0:0|0:0,0:0:0:0:
300,320,70377,2,0,P|352:340|432:336,1,130,0|10,0:0|0:0,0:0:0:0:
456,184,71235,2,0,B|404:136|404:136|368:124,2,97.5,4|10|8,0:0|0:0|0:0,0:0:0:0:
468,240,72092,1,4,0:0:0:0:
372,360,72520,1,8,0:0:0:0:
252,260,72949,6,0,P|200:240|156:152,1,130,4|10,0:0|0:0,0:0:0:0:
164,120,73592,1,0,0:0:0:0:
196,68,73806,2,0,P|232:56|352:60,1,130,0|10,0:0|0:0,0:0:0:0:
480,36,74663,5,0,0:0:0:0:
416,176,75092,1,10,0:0:0:0:
460,324,75520,2,0,P|368:328|316:356,1,130,0|10,0:0|0:0,0:0:0:0:
224,232,76377,6,0,P|216:168|160:96,1,130,4|10,0:0|0:0,0:0:0:0:
132,84,77020,1,0,0:0:0:0:
76,64,77235,2,0,P|52:100|44:208,1,130,0|10,0:0|0:0,0:0:0:0:
92,332,78092,5,0,0:0:0:0:
220,244,78520,1,10,0:0:0:0:
308,372,78949,2,0,L|452:368,1,130,4|8,0:0|0:0,0:0:0:0:
448,212,79806,6,0,P|404:168|376:88,1,130,2|10,0:0|0:0,0:0:0:0:
384,48,80449,1,8,0:0:0:0:
328,32,80663,2,0,P|268:36|196:76,1,130,0|10,0:0|0:0,0:0:0:0:
164,216,81520,6,0,P|100:192|48:124,1,130,0|10,0:0|0:0,0:0:0:0:
24,100,82163,2,0,P|72:88|136:20,1,130,0|8,0:0|0:0,0:0:0:0:
188,24,82806,1,8,0:0:0:0:
344,36,83235,6,0,B|352:176|352:176|396:244,1,195,4|8,0:0|0:0,0:0:0:0:
436,244,84092,2,0,B|424:328|424:328|400:376,1,130,0|10,3:0|0:0,0:0:0:0:
280,272,84949,5,12,0:0:0:0:
152,360,85377,1,8,0:0:0:0:
76,224,85806,1,8,0:0:0:0:
180,108,86235,1,8,0:0:0:0:
52,20,86663,1,4,0:0:0:0:
256,192,86770,12,8,88377,0:0:0:0:
356,268,89663,5,4,0:0:0:0:
