osu file format v14

[General]
AudioFilename: audio.ogg
AudioLeadIn: 0
PreviewTime: 57505
Countdown: 0
SampleSet: Soft
StackLeniency: 0.7
Mode: 3
LetterboxInBreaks: 0
SpecialStyle: 0
WidescreenStoryboard: 1

[Editor]
Bookmarks: 15351,26137,36924
DistanceSpacing: 0.9
BeatDivisor: 4
GridSize: 32
TimelineZoom: 1.999999

[Metadata]
Title:Sign (TV Size)
TitleUnicode:Sign (TV Size)
Artist:FLOW
ArtistUnicode:FLOW
Creator:Syadow-
Version:Hard
Source:NARUTO-ナルト-疾風伝
Tags:Anime Japanese Pop Hard Punk Rock J-Pop JPop J-Rock JRock shippuuden shipuuden shippuden nine tails opening kage mirsaaa
BeatmapID:4056327
BeatmapSetID:1945629

[Difficulty]
HPDrainRate:8
CircleSize:4
OverallDifficulty:8
ApproachRate:5
SliderMultiplier:1.4
SliderTickRate:1

[Events]
//Background and Video events
0,0,"sasuke.jpg",0,0
Video,-95,"naruta.mp4"
//Break Periods
//Storyboard Layer 0 (Background)
//Storyboard Layer 1 (Fail)
//Storyboard Layer 2 (Pass)
//Storyboard Layer 3 (Foreground)
//Storyboard Layer 4 (Overlay)
//Storyboard Sound Samples

[TimingPoints]
-19,405.405405405405,4,2,1,50,1,0
-19,-83.3333333333333,4,2,1,50,0,0
11332,337.078651685393,4,2,1,60,1,0
15377,337.078651685393,4,2,1,60,1,0
57174,352.941176470588,4,2,1,60,1,0
57174,-95.2380952380952,4,2,1,60,0,0
57505,348.837209302326,4,2,1,60,1,0
57505,-96.1538461538461,4,2,1,60,0,0
57853,344.827586206897,4,2,1,60,1,0
57853,-98.0392156862745,4,2,1,60,0,0
58197,340.909090909091,4,2,1,60,1,0
58197,-99.009900990099,4,2,1,60,0,0
58537,337.078651685393,4,2,1,70,1,1
80110,-100,4,2,1,60,0,0

[HitObjects]
448,192,386,5,0,0:0:0:0:
320,192,791,1,0,0:0:0:0:
192,192,1197,1,0,0:0:0:0:
320,192,1602,1,2,0:0:0:0:
448,192,1602,1,0,0:0:0:0:
64,192,2008,1,0,0:0:0:0:
448,192,2413,1,0,0:0:0:0:
320,192,2818,1,0,0:0:0:0:
64,192,3224,1,2,0:0:0:0:
192,192,3224,1,0,0:0:0:0:
448,192,3629,1,0,0:0:0:0:
192,192,4035,1,8,0:0:0:0:
320,192,4035,1,0,0:0:0:0:
64,192,4440,1,0,0:0:0:0:
448,192,4643,1,2,0:0:0:0:
64,192,4845,1,2,0:0:0:0:
192,192,4845,1,0,0:0:0:0:
320,192,5251,1,0,0:0:0:0:
192,192,5656,1,0,0:0:0:0:
448,192,6062,1,0,0:0:0:0:
64,192,6467,1,2,0:0:0:0:
320,192,6467,1,0,0:0:0:0:
192,192,6872,1,2,0:0:0:0:
448,192,6872,1,0,0:0:0:0:
320,192,7278,1,8,0:0:0:0:
448,192,7278,1,0,0:0:0:0:
64,192,7480,1,0,0:0:0:0:
320,192,7886,1,0,0:0:0:0:
64,192,8089,1,2,0:0:0:0:
192,192,8089,1,0,0:0:0:0:
320,192,8494,1,0,0:0:0:0:
448,192,8899,1,0,0:0:0:0:
64,192,9305,1,0,0:0:0:0:
320,192,9710,1,2,0:0:0:0:
448,192,9710,1,0,0:0:0:0:
192,192,10116,1,0,0:0:0:0:
64,192,10521,1,8,0:0:0:0:
320,192,10521,1,0,0:0:0:0:
448,192,10926,1,0,0:0:0:0:
320,192,11129,1,2,0:0:0:0:
64,192,11332,1,2,0:0:0:0:
192,192,11332,1,4,0:0:0:0:
448,192,12680,1,8,0:0:0:0:
320,192,12743,1,8,0:0:0:0:
192,192,12806,1,0,0:0:0:0:
64,192,12869,1,0,0:0:0:0:
320,192,13017,1,4,0:0:0:0:
448,192,13017,1,8,0:0:0:0:
64,192,13206,1,0,0:0:0:0:
192,192,13270,1,8,0:0:0:0:
320,192,13333,1,8,0:0:0:0:
448,192,13396,1,8,0:0:0:0:
64,192,13523,1,4,0:0:0:0:
192,192,13523,1,8,0:0:0:0:
320,192,13663,1,8,0:0:0:0:
448,192,13663,1,0,0:0:0:0:
64,192,13747,1,8,0:0:0:0:
192,192,13747,1,0,0:0:0:0:
320,192,13860,1,2,0:0:0:0:
192,192,13944,1,2,0:0:0:0:
64,192,14028,1,2,0:0:0:0:
448,192,14028,1,0,0:0:0:0:
320,192,14197,1,2,0:0:0:0:
192,192,14281,1,0,0:0:0:0:
320,192,14365,1,8,0:0:0:0:
448,192,14365,1,0,0:0:0:0:
320,192,14534,1,8,0:0:0:0:
448,192,14534,1,0,0:0:0:0:
64,192,14787,1,8,0:0:0:0:
448,192,14787,1,0,0:0:0:0:
192,192,14913,1,2,0:0:0:0:
320,192,14913,1,0,0:0:0:0:
64,192,15039,1,8,0:0:0:0:
448,192,15039,1,0,0:0:0:0:
320,192,15124,1,2,0:0:0:0:
192,192,15208,1,2,0:0:0:0:
320,192,15292,1,2,0:0:0:0:
192,192,15376,1,0,0:0:0:0:
64,192,15377,128,2,15714:0:0:0:0:
448,192,15377,1,4,0:0:0:0:
320,192,15714,1,2,0:0:0:0:
448,192,15714,1,0,0:0:0:0:
192,192,15882,1,0,0:0:0:0:
64,192,16051,1,2,0:0:0:0:
448,192,16051,1,0,0:0:0:0:
320,192,16219,1,0,0:0:0:0:
64,192,16388,1,2,0:0:0:0:
192,192,16388,1,0,0:0:0:0:
320,192,16556,1,0,0:0:0:0:
64,192,16725,1,2,0:0:0:0:
192,192,16725,1,4,0:0:0:0:
448,192,16725,128,0,17062:0:0:0:0:
192,192,17062,1,8,0:0:0:0:
320,192,17062,1,0,0:0:0:0:
64,192,17230,1,0,0:0:0:0:
320,192,17399,1,2,0:0:0:0:
448,192,17399,1,0,0:0:0:0:
192,192,17568,1,2,0:0:0:0:
64,192,17736,1,8,0:0:0:0:
320,192,17736,1,0,0:0:0:0:
192,192,17905,1,2,0:0:0:0:
320,192,17989,1,2,0:0:0:0:
64,192,18073,1,2,0:0:0:0:
192,192,18073,128,4,18410:0:0:0:0:
448,192,18073,1,0,0:0:0:0:
64,192,18410,1,2,0:0:0:0:
448,192,18410,1,0,0:0:0:0:
320,192,18579,1,0,0:0:0:0:
64,192,18747,1,2,0:0:0:0:
192,192,18747,1,0,0:0:0:0:
320,192,18916,1,0,0:0:0:0:
64,192,19084,1,2,0:0:0:0:
448,192,19084,1,0,0:0:0:0:
192,192,19253,1,0,0:0:0:0:
64,192,19421,1,2,0:0:0:0:
320,192,19421,1,4,0:0:0:0:
448,192,19421,1,0,0:0:0:0:
64,192,19590,1,8,0:0:0:0:
192,192,19590,1,0,0:0:0:0:
320,192,19674,1,8,0:0:0:0:
192,192,19759,1,8,0:0:0:0:
448,192,19759,1,0,0:0:0:0:
64,192,19927,1,8,0:0:0:0:
448,192,19927,1,0,0:0:0:0:
320,192,20011,1,10,0:0:0:0:
64,192,20096,1,2,0:0:0:0:
192,192,20180,1,8,0:0:0:0:
320,192,20264,1,2,0:0:0:0:
448,192,20264,1,8,0:0:0:0:
64,192,20433,1,8,0:0:0:0:
448,192,20433,1,0,0:0:0:0:
320,192,20517,1,8,0:0:0:0:
64,192,20601,1,2,0:0:0:0:
192,192,20685,1,2,0:0:0:0:
64,192,20770,1,2,0:0:0:0:
320,192,20770,1,4,0:0:0:0:
448,192,20770,128,0,21107:0:0:0:0:
192,192,20938,1,0,0:0:0:0:
64,192,21107,1,8,0:0:0:0:
192,192,21107,1,0,0:0:0:0:
320,192,21275,1,2,0:0:0:0:
64,192,21444,1,8,0:0:0:0:
448,192,21444,1,0,0:0:0:0:
192,192,21612,1,2,0:0:0:0:
320,192,21612,1,0,0:0:0:0:
64,192,21781,1,0,0:0:0:0:
320,192,21950,1,2,0:0:0:0:
448,192,21950,1,0,0:0:0:0:
64,192,22118,128,2,22455:0:0:0:0:
192,192,22118,1,4,0:0:0:0:
448,192,22118,1,0,0:0:0:0:
320,192,22287,1,2,0:0:0:0:
320,192,22455,1,8,0:0:0:0:
448,192,22455,1,0,0:0:0:0:
192,192,22624,1,2,0:0:0:0:
64,192,22792,1,8,0:0:0:0:
448,192,22792,1,0,0:0:0:0:
320,192,22876,1,8,0:0:0:0:
64,192,22961,1,2,0:0:0:0:
192,192,22961,1,0,0:0:0:0:
192,192,23129,1,2,0:0:0:0:
448,192,23129,1,0,0:0:0:0:
320,192,23298,1,8,0:0:0:0:
448,192,23298,1,0,0:0:0:0:
192,192,23382,1,8,0:0:0:0:
64,192,23466,1,2,0:0:0:0:
320,192,23466,128,4,23803:0:0:0:0:
448,192,23466,1,0,0:0:0:0:
192,192,23635,1,0,0:0:0:0:
192,192,23803,1,8,0:0:0:0:
448,192,23803,1,0,0:0:0:0:
64,192,23972,1,2,0:0:0:0:
320,192,23972,1,0,0:0:0:0:
64,192,24141,1,2,0:0:0:0:
192,192,24141,1,0,0:0:0:0:
192,192,24309,1,2,0:0:0:0:
320,192,24309,1,0,0:0:0:0:
320,192,24478,1,8,0:0:0:0:
448,192,24478,1,0,0:0:0:0:
64,192,24646,1,4,0:0:0:0:
192,192,24646,128,2,25489:0:0:0:0:
448,192,24646,1,0,0:0:0:0:
320,192,25152,1,0,0:0:0:0:
64,192,25489,1,8,0:0:0:0:
448,192,25489,1,0,0:0:0:0:
320,192,25573,1,0,0:0:0:0:
64,192,25742,1,8,0:0:0:0:
192,192,25742,1,0,0:0:0:0:
320,192,25826,1,8,0:0:0:0:
448,192,25826,1,0,0:0:0:0:
64,192,26163,1,2,0:0:0:0:
192,192,26163,1,4,0:0:0:0:
448,192,26163,1,0,0:0:0:0:
192,192,26500,1,8,0:0:0:0:
320,192,26500,1,0,0:0:0:0:
448,192,26669,1,0,0:0:0:0:
64,192,26837,1,2,0:0:0:0:
192,192,26837,1,0,0:0:0:0:
64,192,27006,1,2,0:0:0:0:
320,192,27174,1,8,0:0:0:0:
448,192,27174,1,0,0:0:0:0:
192,192,27343,1,0,0:0:0:0:
64,192,27511,1,2,0:0:0:0:
448,192,27511,1,0,0:0:0:0:
448,192,27680,1,2,0:0:0:0:
64,192,27848,1,8,0:0:0:0:
320,192,27848,1,0,0:0:0:0:
192,192,28017,1,0,0:0:0:0:
320,192,28185,1,2,0:0:0:0:
448,192,28185,1,0,0:0:0:0:
320,192,28354,1,2,0:0:0:0:
64,192,28523,1,8,0:0:0:0:
192,192,28523,1,0,0:0:0:0:
320,192,28691,1,0,0:0:0:0:
192,192,28775,1,0,0:0:0:0:
64,192,28860,1,2,0:0:0:0:
448,192,28860,1,0,0:0:0:0:
320,192,29028,1,0,0:0:0:0:
64,192,29197,1,8,0:0:0:0:
192,192,29197,1,0,0:0:0:0:
320,192,29365,1,0,0:0:0:0:
64,192,29534,1,2,0:0:0:0:
448,192,29534,1,0,0:0:0:0:
64,192,29702,1,2,0:0:0:0:
192,192,29871,1,8,0:0:0:0:
448,192,29871,1,0,0:0:0:0:
320,192,30039,1,0,0:0:0:0:
64,192,30208,1,2,0:0:0:0:
192,192,30208,1,0,0:0:0:0:
192,192,30376,1,2,0:0:0:0:
320,192,30545,1,8,0:0:0:0:
448,192,30545,1,0,0:0:0:0:
64,192,30714,1,2,0:0:0:0:
192,192,30882,1,8,0:0:0:0:
320,192,30882,1,0,0:0:0:0:
320,192,31051,1,2,0:0:0:0:
64,192,31219,1,8,0:0:0:0:
448,192,31219,1,0,0:0:0:0:
64,192,31388,1,2,0:0:0:0:
192,192,31388,128,4,31725:0:0:0:0:
320,192,31388,1,0,0:0:0:0:
320,192,31725,1,2,0:0:0:0:
448,192,31725,1,0,0:0:0:0:
64,192,31893,128,8,32146:0:0:0:0:
192,192,31893,1,0,0:0:0:0:
192,192,32146,1,8,0:0:0:0:
320,192,32230,1,2,0:0:0:0:
448,192,32230,1,0,0:0:0:0:
64,192,32399,1,2,0:0:0:0:
320,192,32399,1,0,0:0:0:0:
64,192,32568,1,8,0:0:0:0:
448,192,32568,1,0,0:0:0:0:
192,192,32736,1,2,0:0:0:0:
448,192,32736,128,0,33073:0:0:0:0:
64,192,33073,1,2,0:0:0:0:
192,192,33073,1,0,0:0:0:0:
320,192,33242,128,8,33494:0:0:0:0:
448,192,33242,1,0,0:0:0:0:
192,192,33494,1,8,0:0:0:0:
64,192,33579,1,2,0:0:0:0:
448,192,33579,1,0,0:0:0:0:
192,192,33747,1,2,0:0:0:0:
448,192,33747,1,0,0:0:0:0:
192,192,33916,1,8,0:0:0:0:
320,192,33916,1,0,0:0:0:0:
64,192,34084,128,4,34421:0:0:0:0:
320,192,34084,1,2,0:0:0:0:
448,192,34084,1,0,0:0:0:0:
320,192,34421,1,2,0:0:0:0:
448,192,34421,1,0,0:0:0:0:
64,192,34590,1,8,0:0:0:0:
192,192,34590,128,0,34843:0:0:0:0:
320,192,34843,1,8,0:0:0:0:
64,192,34927,1,2,0:0:0:0:
448,192,34927,1,0,0:0:0:0:
64,192,35096,1,2,0:0:0:0:
320,192,35096,1,0,0:0:0:0:
192,192,35264,1,8,0:0:0:0:
320,192,35264,1,0,0:0:0:0:
192,192,35433,1,2,0:0:0:0:
448,192,35433,128,0,35770:0:0:0:0:
320,192,35601,1,0,0:0:0:0:
64,192,35770,1,2,0:0:0:0:
192,192,35770,1,0,0:0:0:0:
320,192,35938,1,8,0:0:0:0:
448,192,35938,1,0,0:0:0:0:
64,192,36107,1,2,0:0:0:0:
320,192,36107,1,0,0:0:0:0:
64,192,36275,1,8,0:0:0:0:
448,192,36275,1,0,0:0:0:0:
192,192,36444,1,8,0:0:0:0:
448,192,36444,1,0,0:0:0:0:
320,192,36528,1,8,0:0:0:0:
64,192,36612,1,8,0:0:0:0:
192,192,36612,1,0,0:0:0:0:
320,192,36781,1,0,0:0:0:0:
64,192,36950,1,2,0:0:0:0:
192,192,36950,1,4,0:0:0:0:
448,192,36950,1,0,0:0:0:0:
192,192,37287,1,8,0:0:0:0:
320,192,37287,1,0,0:0:0:0:
64,192,37455,1,0,0:0:0:0:
320,192,37624,1,2,0:0:0:0:
448,192,37624,1,0,0:0:0:0:
448,192,37792,1,2,0:0:0:0:
64,192,37961,1,8,0:0:0:0:
192,192,37961,1,0,0:0:0:0:
320,192,38129,1,0,0:0:0:0:
64,192,38298,1,2,0:0:0:0:
448,192,38298,1,0,0:0:0:0:
64,192,38466,1,2,0:0:0:0:
192,192,38635,1,8,0:0:0:0:
448,192,38635,1,0,0:0:0:0:
320,192,38803,1,0,0:0:0:0:
64,192,38972,1,2,0:0:0:0:
192,192,38972,1,0,0:0:0:0:
192,192,39141,1,2,0:0:0:0:
320,192,39309,1,8,0:0:0:0:
448,192,39309,1,0,0:0:0:0:
192,192,39478,1,0,0:0:0:0:
320,192,39562,1,0,0:0:0:0:
64,192,39646,1,2,0:0:0:0:
448,192,39646,1,0,0:0:0:0:
192,192,39815,1,0,0:0:0:0:
320,192,39983,1,8,0:0:0:0:
448,192,39983,1,0,0:0:0:0:
192,192,40152,1,0,0:0:0:0:
64,192,40320,1,2,0:0:0:0:
448,192,40320,1,0,0:0:0:0:
448,192,40489,1,2,0:0:0:0:
64,192,40657,1,8,0:0:0:0:
320,192,40657,1,0,0:0:0:0:
192,192,40826,1,0,0:0:0:0:
320,192,40994,1,2,0:0:0:0:
448,192,40994,1,0,0:0:0:0:
320,192,41163,1,2,0:0:0:0:
64,192,41332,1,8,0:0:0:0:
192,192,41332,1,0,0:0:0:0:
448,192,41500,1,2,0:0:0:0:
192,192,41669,1,8,0:0:0:0:
320,192,41669,1,0,0:0:0:0:
192,192,41837,1,2,0:0:0:0:
64,192,42006,1,8,0:0:0:0:
448,192,42006,1,0,0:0:0:0:
192,192,42174,1,2,0:0:0:0:
320,192,42174,128,4,42511:0:0:0:0:
448,192,42174,1,0,0:0:0:0:
64,192,42511,1,2,0:0:0:0:
192,192,42511,1,0,0:0:0:0:
320,192,42680,1,8,0:0:0:0:
448,192,42680,128,0,42933:0:0:0:0:
320,192,42933,1,8,0:0:0:0:
64,192,43017,1,2,0:0:0:0:
192,192,43017,1,0,0:0:0:0:
192,192,43185,1,2,0:0:0:0:
448,192,43185,1,0,0:0:0:0:
64,192,43354,1,8,0:0:0:0:
448,192,43354,1,0,0:0:0:0:
64,192,43523,128,2,43860:0:0:0:0:
320,192,43523,1,0,0:0:0:0:
320,192,43860,1,2,0:0:0:0:
448,192,43860,1,0,0:0:0:0:
64,192,44028,1,8,0:0:0:0:
192,192,44028,128,0,44281:0:0:0:0:
320,192,44281,1,8,0:0:0:0:
64,192,44365,1,2,0:0:0:0:
448,192,44365,1,0,0:0:0:0:
64,192,44534,1,2,0:0:0:0:
320,192,44534,1,0,0:0:0:0:
192,192,44702,1,8,0:0:0:0:
320,192,44702,1,0,0:0:0:0:
64,192,44871,1,4,0:0:0:0:
192,192,44871,1,2,0:0:0:0:
448,192,44871,128,0,45208:0:0:0:0:
64,192,45208,1,2,0:0:0:0:
192,192,45208,1,0,0:0:0:0:
320,192,45376,128,8,45629:0:0:0:0:
448,192,45376,1,0,0:0:0:0:
192,192,45629,1,8,0:0:0:0:
64,192,45714,1,2,0:0:0:0:
448,192,45714,1,0,0:0:0:0:
192,192,45882,1,2,0:0:0:0:
448,192,45882,1,0,0:0:0:0:
192,192,46051,1,8,0:0:0:0:
320,192,46051,1,0,0:0:0:0:
64,192,46219,128,2,46556:0:0:0:0:
320,192,46219,1,4,0:0:0:0:
448,192,46219,1,0,0:0:0:0:
320,192,46556,1,2,0:0:0:0:
448,192,46556,1,0,0:0:0:0:
64,192,46725,1,8,0:0:0:0:
192,192,46725,1,0,0:0:0:0:
192,192,46893,1,2,0:0:0:0:
448,192,46893,1,0,0:0:0:0:
320,192,47062,128,8,47315:0:0:0:0:
448,192,47062,1,0,0:0:0:0:
192,192,47315,1,2,0:0:0:0:
64,192,47399,1,8,0:0:0:0:
448,192,47399,1,0,0:0:0:0:
64,192,47736,1,2,0:0:0:0:
192,192,47736,1,4,0:0:0:0:
448,192,47736,1,0,0:0:0:0:
320,192,47905,1,2,0:0:0:0:
448,192,47905,1,0,0:0:0:0:
64,192,48242,1,2,0:0:0:0:
448,192,48242,1,0,0:0:0:0:
192,192,48410,1,8,0:0:0:0:
320,192,48410,1,0,0:0:0:0:
448,192,48579,1,2,0:0:0:0:
64,192,48747,1,0,0:0:0:0:
192,192,48747,1,0,0:0:0:0:
320,192,48916,1,8,0:0:0:0:
64,192,49084,1,2,0:0:0:0:
448,192,49084,1,0,0:0:0:0:
192,192,49253,1,2,0:0:0:0:
320,192,49253,1,0,0:0:0:0:
320,192,49590,1,2,0:0:0:0:
448,192,49590,1,0,0:0:0:0:
64,192,49759,1,8,0:0:0:0:
192,192,49759,1,0,0:0:0:0:
320,192,49927,1,2,0:0:0:0:
64,192,50096,1,0,0:0:0:0:
448,192,50096,1,0,0:0:0:0:
192,192,50264,1,8,0:0:0:0:
320,192,50433,1,2,0:0:0:0:
448,192,50433,1,0,0:0:0:0:
64,192,50601,1,2,0:0:0:0:
192,192,50601,1,0,0:0:0:0:
192,192,50938,1,2,0:0:0:0:
320,192,50938,1,0,0:0:0:0:
64,192,51107,1,8,0:0:0:0:
448,192,51107,1,0,0:0:0:0:
192,192,51275,1,2,0:0:0:0:
320,192,51444,1,0,0:0:0:0:
448,192,51444,1,0,0:0:0:0:
192,192,51612,1,8,0:0:0:0:
64,192,51781,1,2,0:0:0:0:
320,192,51781,1,0,0:0:0:0:
192,192,51950,1,2,0:0:0:0:
448,192,51950,1,0,0:0:0:0:
320,192,52287,1,2,0:0:0:0:
448,192,52287,1,0,0:0:0:0:
64,192,52455,1,8,0:0:0:0:
192,192,52455,1,0,0:0:0:0:
320,192,52624,1,0,0:0:0:0:
64,192,52792,1,2,0:0:0:0:
448,192,52792,1,0,0:0:0:0:
64,192,52961,1,8,0:0:0:0:
192,192,53045,1,0,0:0:0:0:
320,192,53129,1,8,0:0:0:0:
448,192,53129,1,0,0:0:0:0:
320,192,53298,1,2,0:0:0:0:
64,192,53466,1,2,0:0:0:0:
192,192,53466,1,0,0:0:0:0:
64,192,53635,1,2,0:0:0:0:
192,192,53635,1,0,0:0:0:0:
64,192,53803,1,8,0:0:0:0:
320,192,53803,1,0,0:0:0:0:
448,192,53803,1,0,0:0:0:0:
64,192,53972,1,8,0:0:0:0:
320,192,53972,1,0,0:0:0:0:
448,192,53972,1,0,0:0:0:0:
192,192,54141,1,2,0:0:0:0:
64,192,54309,1,2,0:0:0:0:
320,192,54478,1,8,0:0:0:0:
448,192,54478,1,0,0:0:0:0:
320,192,54646,1,2,0:0:0:0:
192,192,54815,1,2,0:0:0:0:
192,192,54983,1,2,0:0:0:0:
448,192,54983,1,0,0:0:0:0:
448,192,55152,1,2,0:0:0:0:
64,192,55320,1,2,0:0:0:0:
192,192,55320,1,0,0:0:0:0:
64,192,55489,1,8,0:0:0:0:
320,192,55489,1,0,0:0:0:0:
320,192,55657,1,2,0:0:0:0:
448,192,55657,1,0,0:0:0:0:
64,192,55826,1,8,0:0:0:0:
192,192,55826,1,0,0:0:0:0:
320,192,55910,1,8,0:0:0:0:
192,192,55994,1,8,0:0:0:0:
448,192,56079,1,8,0:0:0:0:
64,192,56163,1,8,0:0:0:0:
320,192,56163,1,4,0:0:0:0:
192,192,56332,1,8,0:0:0:0:
448,192,56332,1,0,0:0:0:0:
64,192,56416,1,8,0:0:0:0:
320,192,56500,1,8,0:0:0:0:
448,192,56584,1,8,0:0:0:0:
64,192,56669,1,8,0:0:0:0:
192,192,56669,1,4,0:0:0:0:
320,192,56837,1,8,0:0:0:0:
448,192,56837,1,0,0:0:0:0:
192,192,56921,1,8,0:0:0:0:
320,192,57006,1,8,0:0:0:0:
64,192,57090,1,8,0:0:0:0:
192,192,57174,1,8,0:0:0:0:
448,192,57174,1,4,0:0:0:0:
320,192,57505,128,0,57853:0:0:0:0:
192,192,57853,128,0,58197:0:0:0:0:
64,192,58197,128,0,58537:0:0:0:0:
192,192,58537,1,2,0:0:0:0:
320,192,58537,1,4,0:0:0:0:
448,192,58537,1,0,0:0:0:0:
64,192,58705,1,0,0:0:0:0:
192,192,58874,1,8,0:0:0:0:
448,192,58874,1,0,0:0:0:0:
320,192,59042,1,0,0:0:0:0:
64,192,59211,1,2,0:0:0:0:
192,192,59211,1,0,0:0:0:0:
192,192,59379,1,2,0:0:0:0:
320,192,59548,1,8,0:0:0:0:
448,192,59548,128,0,59885:0:0:0:0:
64,192,59885,1,2,0:0:0:0:
192,192,59885,1,0,0:0:0:0:
64,192,60053,1,2,0:0:0:0:
192,192,60222,128,8,60559:0:0:0:0:
448,192,60222,1,0,0:0:0:0:
320,192,60559,1,2,0:0:0:0:
448,192,60559,1,0,0:0:0:0:
320,192,60728,1,2,0:0:0:0:
64,192,60896,128,8,61233:0:0:0:0:
192,192,60896,1,0,0:0:0:0:
320,192,61233,1,2,0:0:0:0:
448,192,61233,1,4,0:0:0:0:
192,192,61402,1,0,0:0:0:0:
64,192,61570,1,8,0:0:0:0:
320,192,61570,1,0,0:0:0:0:
448,192,61739,1,0,0:0:0:0:
64,192,61907,1,2,0:0:0:0:
192,192,61907,1,0,0:0:0:0:
192,192,62076,1,2,0:0:0:0:
320,192,62244,128,8,62581:0:0:0:0:
448,192,62244,1,0,0:0:0:0:
64,192,62581,1,2,0:0:0:0:
448,192,62581,1,0,0:0:0:0:
448,192,62750,1,2,0:0:0:0:
64,192,62919,1,8,0:0:0:0:
192,192,62919,1,0,0:0:0:0:
320,192,63087,1,0,0:0:0:0:
64,192,63256,1,2,0:0:0:0:
448,192,63256,1,0,0:0:0:0:
64,192,63424,1,2,0:0:0:0:
320,192,63593,1,8,0:0:0:0:
448,192,63593,1,0,0:0:0:0:
192,192,63761,1,0,0:0:0:0:
64,192,63930,1,2,0:0:0:0:
320,192,63930,1,4,0:0:0:0:
448,192,63930,1,0,0:0:0:0:
192,192,64098,1,0,0:0:0:0:
64,192,64267,1,8,0:0:0:0:
320,192,64267,1,0,0:0:0:0:
448,192,64435,1,0,0:0:0:0:
192,192,64604,1,2,0:0:0:0:
320,192,64604,1,0,0:0:0:0:
192,192,64772,1,2,0:0:0:0:
64,192,64941,1,8,0:0:0:0:
448,192,64941,1,0,0:0:0:0:
192,192,65110,1,0,0:0:0:0:
320,192,65278,1,2,0:0:0:0:
448,192,65278,1,0,0:0:0:0:
320,192,65447,1,2,0:0:0:0:
64,192,65615,1,8,0:0:0:0:
448,192,65615,1,0,0:0:0:0:
320,192,65784,1,0,0:0:0:0:
192,192,65952,1,2,0:0:0:0:
448,192,65952,1,0,0:0:0:0:
192,192,66121,1,2,0:0:0:0:
64,192,66289,1,8,0:0:0:0:
320,192,66289,1,0,0:0:0:0:
448,192,66458,1,0,0:0:0:0:
64,192,66626,1,2,0:0:0:0:
192,192,66626,1,4,0:0:0:0:
320,192,66795,1,0,0:0:0:0:
192,192,66963,128,8,67301:0:0:0:0:
448,192,66963,1,0,0:0:0:0:
320,192,67301,1,2,0:0:0:0:
448,192,67301,1,0,0:0:0:0:
320,192,67469,1,2,0:0:0:0:
64,192,67638,1,8,0:0:0:0:
192,192,67638,1,0,0:0:0:0:
64,192,67806,1,2,0:0:0:0:
320,192,67975,1,8,0:0:0:0:
448,192,67975,1,0,0:0:0:0:
192,192,68143,1,2,0:0:0:0:
448,192,68143,1,0,0:0:0:0:
64,192,68312,1,8,0:0:0:0:
192,192,68312,1,0,0:0:0:0:
64,192,68480,1,2,0:0:0:0:
320,192,68480,1,0,0:0:0:0:
320,192,68649,1,8,0:0:0:0:
448,192,68649,1,0,0:0:0:0:
192,192,68817,1,0,0:0:0:0:
320,192,68902,1,8,0:0:0:0:
448,192,68902,1,0,0:0:0:0:
64,192,68986,1,8,0:0:0:0:
192,192,68986,1,0,0:0:0:0:
64,192,69323,1,2,0:0:0:0:
320,192,69323,1,4,0:0:0:0:
448,192,69323,1,0,0:0:0:0:
192,192,69492,1,0,0:0:0:0:
320,192,69660,1,8,0:0:0:0:
448,192,69660,1,0,0:0:0:0:
192,192,69829,1,0,0:0:0:0:
64,192,69997,1,2,0:0:0:0:
320,192,69997,1,0,0:0:0:0:
320,192,70166,1,2,0:0:0:0:
64,192,70334,128,8,70671:0:0:0:0:
192,192,70334,1,0,0:0:0:0:
320,192,70671,1,2,0:0:0:0:
448,192,70671,1,0,0:0:0:0:
448,192,70840,1,2,0:0:0:0:
64,192,71008,1,8,0:0:0:0:
320,192,71008,128,0,71345:0:0:0:0:
64,192,71345,1,2,0:0:0:0:
192,192,71345,1,0,0:0:0:0:
192,192,71514,1,2,0:0:0:0:
320,192,71683,1,8,0:0:0:0:
448,192,71683,128,0,72020:0:0:0:0:
64,192,72020,1,2,0:0:0:0:
192,192,72020,1,4,0:0:0:0:
320,192,72188,1,0,0:0:0:0:
192,192,72357,1,8,0:0:0:0:
448,192,72357,1,0,0:0:0:0:
64,192,72525,1,0,0:0:0:0:
320,192,72694,1,2,0:0:0:0:
448,192,72694,1,0,0:0:0:0:
320,192,72862,1,2,0:0:0:0:
64,192,73031,1,8,0:0:0:0:
192,192,73031,128,0,73368:0:0:0:0:
64,192,73368,1,2,0:0:0:0:
448,192,73368,1,0,0:0:0:0:
64,192,73536,1,2,0:0:0:0:
320,192,73705,1,8,0:0:0:0:
448,192,73705,1,0,0:0:0:0:
192,192,73874,1,0,0:0:0:0:
64,192,74042,1,2,0:0:0:0:
448,192,74042,1,0,0:0:0:0:
448,192,74211,1,2,0:0:0:0:
64,192,74379,1,8,0:0:0:0:
192,192,74379,1,0,0:0:0:0:
320,192,74548,1,0,0:0:0:0:
64,192,74716,1,2,0:0:0:0:
192,192,74716,1,4,0:0:0:0:
448,192,74716,1,0,0:0:0:0:
320,192,74885,1,0,0:0:0:0:
192,192,75053,1,8,0:0:0:0:
448,192,75053,1,0,0:0:0:0:
64,192,75222,1,0,0:0:0:0:
192,192,75390,1,2,0:0:0:0:
448,192,75390,1,0,0:0:0:0:
192,192,75559,1,2,0:0:0:0:
320,192,75728,1,8,0:0:0:0:
448,192,75728,1,0,0:0:0:0:
192,192,75896,1,0,0:0:0:0:
64,192,76065,1,2,0:0:0:0:
448,192,76065,1,0,0:0:0:0:
64,192,76233,1,2,0:0:0:0:
320,192,76402,1,8,0:0:0:0:
448,192,76402,1,0,0:0:0:0:
192,192,76570,1,0,0:0:0:0:
64,192,76739,1,2,0:0:0:0:
320,192,76739,1,0,0:0:0:0:
320,192,76907,1,2,0:0:0:0:
64,192,77076,1,8,0:0:0:0:
448,192,77076,1,0,0:0:0:0:
192,192,77244,1,0,0:0:0:0:
64,192,77413,1,2,0:0:0:0:
320,192,77413,1,4,0:0:0:0:
448,192,77413,1,0,0:0:0:0:
192,192,77581,1,0,0:0:0:0:
64,192,77750,1,8,0:0:0:0:
320,192,77750,128,0,78087:0:0:0:0:
64,192,78087,1,2,0:0:0:0:
192,192,78087,1,0,0:0:0:0:
192,192,78256,1,2,0:0:0:0:
320,192,78424,1,8,0:0:0:0:
448,192,78424,1,0,0:0:0:0:
64,192,78593,1,0,0:0:0:0:
192,192,78761,1,2,0:0:0:0:
448,192,78761,1,0,0:0:0:0:
192,192,78930,1,2,0:0:0:0:
320,192,79098,1,8,0:0:0:0:
448,192,79098,1,0,0:0:0:0:
192,192,79267,1,0,0:0:0:0:
64,192,79435,1,2,0:0:0:0:
448,192,79435,1,0,0:0:0:0:
192,192,79604,1,0,0:0:0:0:
320,192,79688,1,8,0:0:0:0:
448,192,79688,1,0,0:0:0:0:
64,192,79772,1,8,0:0:0:0:
192,192,79772,1,0,0:0:0:0:
320,192,79941,1,0,0:0:0:0:
64,192,80110,1,2,0:0:0:0:
192,192,80110,1,4,0:0:0:0:
448,192,80110,1,0,0:0:0:0:
320,192,80278,1,2,0:0:0:0:
448,192,80278,1,0,0:0:0:0:
64,192,80447,1,0,0:0:0:0:
192,192,80615,1,2,0:0:0:0:
448,192,80615,1,0,0:0:0:0:
64,192,80784,1,8,0:0:0:0:
320,192,80784,1,0,0:0:0:0:
320,192,80952,1,2,0:0:0:0:
192,192,81121,1,2,0:0:0:0:
448,192,81121,1,0,0:0:0:0:
192,192,81289,1,2,0:0:0:0:
320,192,81458,1,8,0:0:0:0:
448,192,81458,1,0,0:0:0:0:
192,192,81542,1,8,0:0:0:0:
64,192,81626,1,8,0:0:0:0:
448,192,81711,1,8,0:0:0:0:
64,192,81795,1,8,0:0:0:0:
192,192,81795,1,0,0:0:0:0:
320,192,81879,1,8,0:0:0:0:
448,192,81963,1,8,0:0:0:0:
64,192,82048,1,8,0:0:0:0:
320,192,82132,1,8,0:0:0:0:
448,192,82132,1,0,0:0:0:0:
192,192,82469,1,0,0:0:0:0:
320,192,82638,1,0,0:0:0:0:
64,192,82806,128,2,83143:0:0:0:0:
192,192,82806,1,4,0:0:0:0:
448,192,82806,1,0,0:0:0:0:
320,192,82975,1,2,0:0:0:0:
320,192,83143,1,8,0:0:0:0:
448,192,83143,1,0,0:0:0:0:
192,192,83312,1,2,0:0:0:0:
64,192,83480,1,8,0:0:0:0:
448,192,83480,1,0,0:0:0:0:
192,192,83649,1,2,0:0:0:0:
320,192,83817,1,2,0:0:0:0:
64,192,83986,1,8,0:0:0:0:
192,192,83986,1,0,0:0:0:0:
320,192,84154,1,2,0:0:0:0:
448,192,84154,128,0,84492:0:0:0:0:
192,192,84323,1,2,0:0:0:0:
64,192,84492,1,8,0:0:0:0:
192,192,84492,1,0,0:0:0:0:
320,192,84660,1,2,0:0:0:0:
64,192,84829,1,8,0:0:0:0:
448,192,84829,1,0,0:0:0:0:
192,192,84913,1,8,0:0:0:0:
320,192,84997,1,2,0:0:0:0:
448,192,84997,1,0,0:0:0:0:
64,192,85166,1,2,0:0:0:0:
320,192,85166,1,0,0:0:0:0:
64,192,85334,1,8,0:0:0:0:
192,192,85334,1,0,0:0:0:0:
192,192,85503,128,2,85840:0:0:0:0:
448,192,85503,1,0,0:0:0:0:
320,192,85671,1,2,0:0:0:0:
320,192,85840,1,8,0:0:0:0:
448,192,85840,1,0,0:0:0:0:
192,192,86008,1,2,0:0:0:0:
64,192,86177,1,2,0:0:0:0:
320,192,86177,1,0,0:0:0:0:
64,192,86345,1,2,0:0:0:0:
448,192,86345,1,0,0:0:0:0:
192,192,86514,1,2,0:0:0:0:
448,192,86514,1,0,0:0:0:0:
64,192,86683,1,4,0:0:0:0:
192,192,86683,128,8,87357:0:0:0:0:
320,192,86683,1,0,0:0:0:0:
