osu file format v14

[General]
AudioFilename: audio.mp3
AudioLeadIn: 0
PreviewTime: 57708
Countdown: 0
SampleSet: Soft
StackLeniency: 0.4
Mode: 0
LetterboxInBreaks: 0
WidescreenStoryboard: 1

[Editor]
Bookmarks: 60404
DistanceSpacing: 0.9
BeatDivisor: 4
GridSize: 32
TimelineZoom: 1.500001

[Metadata]
Title:Sign (TV Size)
TitleUnicode:Sign (TV Size)
Artist:FLOW
ArtistUnicode:FLOW
Creator:Nevo
Version:Nao's Hard
Source:NARUTO-ナルト-疾風伝
Tags:shippuuden shipuuden shippuden nine tails opening kage naotoshi nao tomori lit120 monstrata haruto yukiyo haruto_aizawa -Hakurei-
BeatmapID:1675173
BeatmapSetID:794419

[Difficulty]
HPDrainRate:5
CircleSize:3.5
OverallDifficulty:6.5
ApproachRate:7.5
SliderMultiplier:1.86
SliderTickRate:1

[Events]
//Background and Video events
0,0,"532559.jpg",0,0
Video,0,"video.avi"
//Break Periods
//Storyboard Layer 0 (Background)
//Storyboard Layer 1 (Fail)
//Storyboard Layer 2 (Pass)
//Storyboard Layer 3 (Foreground)
//Storyboard Sound Samples

[TimingPoints]
1876,405.405405405405,4,2,10,60,1,0
1876,-232.558139534884,4,2,10,60,0,0
10794,411.805405405405,4,2,10,60,1,0
10794,-200,4,2,10,60,0,0
11617,446.428571428571,4,2,10,60,1,0
11617,-153.846153846154,4,2,10,60,0,0
12844,-100,4,2,10,5,0,0
12956,287.081339712919,4,2,10,80,1,0
13027,260.869565217391,4,2,10,80,1,0
13157,262.008733624454,4,2,10,80,1,0
13287,-100,4,2,10,80,0,0
13288,330.578512396694,4,2,10,80,1,0
13453,287.081339712919,4,2,10,80,1,0
13668,242.914979757085,4,2,10,80,1,0
13789,289.855072463768,4,2,10,80,1,0
13931,342.857142857143,4,2,10,80,1,0
14016,428.571428571429,4,2,10,80,1,0
14123,379.746835443038,4,2,10,80,1,0
14217,312.5,4,2,10,80,1,0
14295,338.983050847458,4,2,10,80,1,0
15142,-100,4,2,10,80,0,0
15227,-100,4,2,10,80,0,0
15650,337.078651685393,4,2,10,80,1,0
15650,-125,4,2,10,80,0,0
19694,-125,4,2,10,80,0,0
20706,-100,4,2,10,80,0,0
21380,-100,4,2,10,80,0,0
21717,-100,4,2,10,80,0,0
22728,-100,4,2,10,80,0,0
23065,-100,4,2,10,80,0,0
24076,-100,4,2,10,80,0,0
24414,-100,4,2,10,80,0,0
24919,-181.818181818182,4,2,10,80,0,0
24920,-100,4,2,10,80,0,0
25003,-181.818181818182,4,2,10,80,0,0
25425,-181.818181818182,4,2,10,80,0,0
25509,-181.818181818182,4,2,10,80,0,0
25762,-181.818181818182,4,2,10,80,0,0
25930,-100,4,2,10,80,0,0
26352,-100,4,2,10,5,0,0
26436,-100,4,2,10,80,0,0
27110,-100,4,2,10,80,0,0
31661,-100,4,2,10,80,0,0
32166,-100,4,2,10,80,0,0
33009,-100,4,2,10,80,0,0
33515,-100,4,2,10,80,0,0
34357,-100,4,2,10,80,0,0
34863,-100,4,2,10,80,0,0
37223,-100,4,2,10,80,0,0
37475,-100,4,2,10,5,0,0
37560,-100,4,2,10,80,0,0
42447,-100,4,2,10,80,0,0
42953,-100,4,2,10,80,0,0
43796,-100,4,2,10,80,0,0
44301,-100,4,2,10,80,0,0
45144,-100,4,2,10,80,0,0
45649,-100,4,2,10,80,0,0
46492,-100,4,2,10,80,0,0
46998,-100,4,2,10,80,0,0
47672,-100,4,2,10,80,0,0
47841,352.941176470588,4,2,10,80,1,0
48017,337.078651685393,4,2,10,80,1,0
53410,-100,4,2,10,80,0,0
54084,-100,4,2,10,80,0,0
54421,-100,4,2,10,80,0,0
56106,-100,4,2,10,80,0,0
58803,-90.9090909090909,4,2,10,100,0,1
59140,-90.9090909090909,4,2,10,100,0,1
61500,-90.9090909090909,4,2,10,100,0,1
61837,-90.9090909090909,4,2,10,100,0,1
64196,-90.9090909090909,4,2,10,100,0,1
64533,-90.9090909090909,4,2,10,100,0,1
69168,-90.9090909090909,4,2,10,100,0,1
69252,-90.9090909090909,4,2,10,100,0,1
69421,-90.9090909090909,4,2,10,5,0,1
69590,-90.9090909090909,4,2,10,100,0,1
69927,-90.9090909090909,4,2,10,100,0,1
72286,-90.9090909090909,4,2,10,100,0,1
72623,-90.9090909090909,4,2,10,100,0,1
74983,-90.9090909090909,4,2,10,100,0,1
75320,-90.9090909090909,4,2,10,100,0,1
82399,-100,4,2,10,80,0,0
83073,-100,4,2,10,80,0,0
87033,-100,4,2,10,20,0,0
88466,-100,4,2,10,5,0,0

[Colours]
Combo1 : 254,230,133
Combo2 : 128,128,192
Combo3 : 192,192,192

[HitObjects]
128,127,1876,5,2,3:2:0:0:
128,127,3497,1,0,3:2:0:0:
221,79,4308,1,0,0:0:0:0:
310,124,4916,1,0,3:2:0:0:
310,124,5119,5,2,3:2:0:0:
310,124,6740,1,0,3:2:0:0:
367,192,7146,1,0,3:2:0:0:
317,266,7551,1,0,0:0:0:0:
232,233,8362,5,0,3:2:0:0:
149,195,9173,1,0,0:0:0:0:
64,231,9578,1,0,0:0:0:0:
129,294,9984,2,0,L|131:376,1,79.980001220398,2|0,3:2|0:0,0:0:0:0:
215,231,10794,2,0,L|212:133,1,93,0|0,0:0|0:0,0:0:0:0:
270,79,11411,1,0,3:2:0:0:
270,79,11617,6,0,B|317:22|443:68|327:103|416:140|496:81,1,241.799988931275,2|0,3:2|0:0,0:0:0:0:
256,192,12956,12,8,14217,0:3:0:0:
256,192,14295,12,8,15311,0:0:0:0:
332,215,15650,6,0,L|482:214,1,148.8,6|0,3:2|3:2,0:0:0:0:
404,306,16155,2,0,L|254:305,1,148.8,0|0,0:0|0:0,0:0:0:0:
103,352,16661,2,0,L|177:353,1,74.4,0|0,3:2|0:0,0:0:0:0:
25,280,16998,6,0,P|-4:224|18:138,1,148.8,6|0,3:2|3:2,0:0:0:0:
240,183,17503,2,0,B|160:208|62:213,1,148.8,0|0,0:0|0:0,0:0:0:0:
267,283,18009,2,0,P|332:281|363:280,1,74.4,0|0,3:2|0:0,0:0:0:0:
446,208,18346,6,0,P|449:155|457:99,1,74.4,6|0,3:2|0:0,0:0:0:0:
348,70,18683,1,0,3:2:0:0:
348,70,18852,2,0,P|351:107|353:144,2,74.4,0|2|0,0:0|3:2|0:0,0:0:0:0:
249,174,19357,2,0,P|226:127|211:100,1,74.4,0|0,3:2|0:0,0:0:0:0:
174,249,19694,6,0,P|217:220|334:253,1,148.8,6|0,3:2|3:2,0:0:0:0:
376,313,20200,1,8,0:0:0:0:
376,313,20284,1,8,0:0:0:0:
376,313,20369,2,0,L|462:308,1,74.4,8|8,0:3|0:0,0:0:0:0:
280,362,20706,2,0,L|230:355,2,46.5,8|8|8,0:0|0:0|0:3,0:0:0:0:
202,265,21043,6,0,B|146:258|146:258|88:277|88:277|14:264,1,186,6|8,3:2|0:0,0:0:0:0:
37,104,21548,2,0,P|69:153|80:192,1,93,8|2,0:3|0:0,0:0:0:0:
161,123,21885,2,0,P|176:79|203:42,2,93,4|0|4,0:3|0:0|0:3,0:0:0:0:
276,121,22391,6,0,B|342:111|342:111|396:131|396:131|466:120,1,186,6|8,3:2|0:0,0:0:0:0:
406,36,22897,1,0,3:2:0:0:
326,207,23065,2,0,L|326:264,2,46.5,10|8|4,0:0|0:0|0:3,0:0:0:0:
252,121,23402,2,0,P|189:116|142:132,1,93,0|8,0:0|0:0,0:0:0:0:
142,137,23655,1,8,0:0:0:0:
140,137,23739,6,0,L|137:255,1,93,6|0,3:2|3:2,0:0:0:0:
203,303,24076,1,8,0:0:0:0:
297,235,24245,2,0,P|353:224|419:244,2,93,0|8|4,3:2|0:3|0:3,0:0:0:0:
203,303,24751,1,8,0:0:0:0:
116,270,24919,6,0,B|72:206|138:206|88:115,2,153.450004682922,6|2|10,3:2|0:3|0:0,0:0:0:0:
116,270,26015,1,8,0:0:0:0:
116,270,26099,1,8,0:0:0:0:
293,152,26436,6,0,L|492:137,2,186,4|10|2,3:2|0:0|3:2,0:0:0:0:
137,90,27447,1,10,0:0:0:0:
59,145,27616,6,0,P|50:203|68:334,1,186,2|2,0:0|3:2,0:0:0:0:
163,364,28121,2,0,P|233:352|276:358,1,93,10|0,0:0|0:0,0:0:0:0:
344,297,28458,2,0,P|402:307|464:303,1,93,2|0,3:2|3:2,0:0:0:0:
503,225,28796,1,10,0:0:0:0:
503,225,28964,1,2,0:0:0:0:
425,151,29133,6,0,B|358:143|358:143|318:177|318:177|223:167,1,186,0|10,3:2|0:0,0:0:0:0:
172,104,29638,1,0,0:0:0:0:
87,159,29807,2,0,P|82:213|85:260,2,93,2|0|10,3:2|3:2|0:0,0:0:0:0:
188,218,30312,6,0,B|245:241|245:241|381:185,1,186,2|0,0:0|3:2,0:0:0:0:
257,50,30818,2,0,P|248:107|247:152,1,93,8|0,0:0|3:2,0:0:0:0:
368,221,31155,1,10,0:0:0:0:
368,221,31324,2,0,B|432:212|479:213|473:220,1,93,2|8,3:2|0:0,0:0:0:0:
233,275,31661,6,0,B|157:252|157:252|29:292,1,186,6|2,3:2|3:2,0:0:0:0:
209,369,32166,2,0,L|316:360,1,93,10|8,0:0|0:0,0:0:0:0:
383,280,32503,1,2,3:2:0:0:
383,280,32672,2,0,P|439:273|497:291,1,93,0|10,3:2|0:0,0:0:0:0:
286,256,33009,6,0,B|255:193|255:193|288:75,1,186,2|0,3:2|3:2,0:0:0:0:
353,185,33515,1,10,0:0:0:0:
185,52,33852,2,0,P|102:49|70:58,2,93,2|0|10,3:2|3:2|0:0,0:0:0:0:
295,111,34357,6,0,B|362:94|362:94|488:134,1,186,6|0,3:2|3:2,0:0:0:0:
351,192,34863,2,0,L|246:213,1,93,10|8,0:0|0:0,0:0:0:0:
157,159,35200,1,0,3:2:0:0:
157,159,35369,1,0,3:2:0:0:
72,217,35537,1,8,0:0:0:0:
72,217,35706,6,0,P|52:158|146:59,1,186,0|0,3:2|3:2,0:0:0:0:
233,88,36211,2,0,L|339:82,1,93,12|0,0:0|3:2,0:0:0:0:
420,138,36548,1,10,0:0:0:0:
353,224,36717,1,10,0:0:0:0:
353,224,36801,1,8,0:0:0:0:
353,224,36885,1,8,0:0:0:0:
157,159,37223,6,0,P|96:163|63:282,1,186,4|8,3:2|0:0,0:0:0:0:
145,327,37728,1,2,0:0:0:0:
232,275,37897,2,0,L|347:273,1,93,2|0,3:2|3:2,0:0:0:0:
423,328,38234,1,10,0:0:0:0:
492,246,38402,6,0,B|496:65|496:65|497:37,1,186,2|2,0:0|3:2,0:0:0:0:
395,103,38908,2,0,L|392:218,1,93,10|0,0:0|0:0,0:0:0:0:
295,254,39245,2,0,L|298:139,1,93,2|0,3:2|3:2,0:0:0:0:
226,93,39582,1,10,0:0:0:0:
147,156,39751,6,0,P|81:172|-8:95,1,186,2|2,0:0|0:0,0:0:0:0:
96,70,40256,1,10,0:0:0:0:
96,70,40425,2,0,L|13:251,1,186,2|2,0:0|3:2,0:0:0:0:
86,323,40930,1,10,0:0:0:0:
178,270,41099,6,0,B|279:247|259:301|375:277,1,186,2|0,0:0|3:2,0:0:0:0:
459,219,41605,2,0,L|457:101,1,93,8|0,0:0|3:2,0:0:0:0:
314,75,41942,1,10,0:0:0:0:
314,75,42110,2,0,L|317:186,1,93,2|8,3:2|0:0,0:0:0:0:
212,31,42447,6,0,B|151:14|151:14|18:54,1,186,6|0,3:2|3:2,0:0:0:0:
0,170,42953,1,10,0:0:0:0:
0,170,43121,2,0,L|99:142,1,93,10|0,0:0|3:2,0:0:0:0:
156,222,43458,2,0,L|57:250,1,93,2|8,3:2|0:0,0:0:0:0:
183,128,43796,6,0,P|230:158|225:299,1,186,2|0,3:2|3:2,0:0:0:0:
152,334,44301,2,0,B|244:309|244:309|358:364,2,186,10|2|10,0:0|3:2|0:0,0:0:0:0:
340,249,45144,6,0,P|391:245|434:358,1,186,6|0,3:2|3:2,0:0:0:0:
244,310,45649,2,0,L|243:195,1,93,8|10,0:0|0:0,0:0:0:0:
242,187,45902,1,8,0:0:0:0:
242,187,45987,2,0,P|187:165|132:172,1,93,2|0,3:2|3:2,0:0:0:0:
62,217,46324,1,8,0:0:0:0:
105,327,46492,6,0,B|155:287|155:287|153:147,1,186,6|0,3:2|3:2,0:0:0:0:
82,72,46998,1,8,0:0:0:0:
82,72,47166,1,0,3:2:0:0:
182,31,47335,2,0,P|246:30|293:47,1,93,8|8,0:0|0:0,0:0:0:0:
296,50,47588,1,8,0:0:0:0:
296,50,47672,2,0,P|406:49|430:49,1,93,10|2,0:0|0:0,0:0:0:0:
226,134,48017,5,6,3:2:0:0:
226,134,48185,2,0,L|226:342,1,186,2|2,3:2|3:2,0:0:0:0:
131,359,48691,1,8,0:0:0:0:
38,224,49028,2,0,L|39:115,1,93,2|8,0:0|0:0,0:0:0:0:
112,53,49365,5,2,3:2:0:0:
197,108,49533,2,0,P|299:115|392:95,1,186,2|2,3:2|3:2,0:0:0:0:
457,33,50039,1,8,0:0:0:0:
492,214,50376,2,0,L|505:321,1,93,2|8,0:0|0:0,0:0:0:0:
388,208,50713,5,2,3:2:0:0:
388,208,50882,2,0,P|320:192|233:276,1,186,2|2,3:2|3:2,0:0:0:0:
330,293,51387,1,8,0:0:0:0:
135,137,51724,2,0,L|140:230,1,93,2|10,0:0|0:0,0:0:0:0:
71,308,52061,5,2,3:2:0:0:
172,357,52230,2,0,P|328:342|392:331,1,186,2|2,3:2|3:2,0:0:0:0:
445,234,52736,2,0,P|345:227|242:231,1,186,8|2,0:0|0:0,0:0:0:0:
163,268,53241,1,8,0:0:0:0:
86,204,53410,6,0,L|82:103,1,93,10|0,0:0|3:2,0:0:0:0:
187,66,53747,2,0,L|183:158,1,93,2|2,3:2|3:2,0:0:0:0:
289,24,54084,1,12,0:0:0:0:
289,24,54252,2,0,L|297:132,2,93,14|2|2,0:0|3:2|3:2,0:0:0:0:
393,126,54758,6,0,P|369:186|237:197,2,186,10|2|2,0:0|3:2|3:2,0:0:0:0:
295,116,55601,1,0,3:2:0:0:
359,214,55769,2,0,L|355:327,1,93,2|0,3:2|3:2,0:0:0:0:
267,364,56106,5,10,0:0:0:0:
267,364,56191,1,8,0:0:0:0:
267,364,56275,2,0,L|162:359,1,93,8|0,0:0|3:2,0:0:0:0:
117,255,56612,5,8,0:0:0:0:
117,255,56697,1,8,0:0:0:0:
117,255,56781,2,0,L|222:260,1,93,8|0,0:0|3:2,0:0:0:0:
300,185,57118,1,8,0:0:0:0:
300,185,57202,1,8,0:0:0:0:
300,185,57286,1,8,0:0:0:0:
300,185,57370,1,8,0:0:0:0:
300,185,57455,5,8,0:0:0:0:
334,189,58803,6,0,P|345:109|315:59,1,102.300003121948,6|0,3:2|0:0,0:0:0:0:
246,234,59140,2,0,P|309:283|368:282,1,102.300003121948,10|0,0:0|0:0,0:0:0:0:
251,135,59477,2,0,P|176:165|147:216,1,102.300003121948,2|0,3:2|3:2,0:0:0:0:
328,286,59814,2,0,B|401:264|454:254|454:254|484:289|458:341,1,204.600006243897,10|0,0:0|3:2,0:0:0:0:
188,290,60488,6,0,L|82:293,1,102.300003121948,10|0,0:0|0:0,0:0:0:0:
19,220,60825,1,2,3:2:0:0:
81,141,60994,1,0,3:2:0:0:
81,141,61163,2,0,L|183:138,1,102.300003121948,10|0,0:0|0:0,0:0:0:0:
322,188,61500,6,0,P|311:108|341:58,1,102.300003121948,6|0,3:2|0:0,0:0:0:0:
410,233,61837,2,0,P|346:282|287:281,1,102.300003121948,10|0,0:0|0:0,0:0:0:0:
405,134,62174,2,0,P|479:164|508:215,1,102.300003121948,2|0,3:2|3:2,0:0:0:0:
327,285,62511,2,0,P|316:205|346:155,1,102.300003121948,10|0,0:0|0:0,0:0:0:0:
410,233,62848,2,0,B|432:306|442:359|442:359|407:389|355:363,1,204.600006243897,0|8,3:2|0:0,0:0:0:0:
175,247,63522,5,2,3:2:0:0:
175,247,63691,2,0,P|168:187|157:125,1,102.300003121948,2|8,3:2|0:0,0:0:0:0:
294,118,64028,2,0,P|280:207|271:352,1,204.600006243897,2|2,0:0|0:0,0:0:0:0:
368,308,64533,2,0,B|371:229|373:198|382:195,1,102.300003121948,10|0,0:0|0:0,0:0:0:0:
399,108,64870,1,2,3:2:0:0:
399,108,65039,1,0,3:2:0:0:
475,186,65208,1,10,0:0:0:0:
375,206,65376,6,0,P|291:202|166:206,1,204.600006243897,2|2,0:0|3:2,0:0:0:0:
83,259,65882,1,10,0:0:0:0:
83,259,66050,1,2,0:0:0:0:
178,327,66219,2,0,P|273:334|310:339,1,102.300003121948,2|2,3:2|3:2,0:0:0:0:
397,366,66556,1,10,0:0:0:0:
484,284,66724,5,2,0:0:0:0:
484,284,66893,2,0,P|460:150|472:68,1,204.600006243897,4|10,3:2|0:0,0:0:0:0:
268,15,67567,1,0,3:2:0:0:
268,15,67736,1,0,3:2:0:0:
188,92,67904,2,0,L|75:86,1,102.300003121948,8|0,0:0|3:2,0:0:0:0:
269,170,68241,2,0,L|382:164,1,102.300003121948,8|0,0:0|3:2,0:0:0:0:
191,245,68578,6,0,P|139:239|77:256,1,102.300003121948,14|0,0:0|3:2,0:0:0:0:
257,344,68915,2,0,P|309:350|397:300,1,153.450004682922,10|8,0:0|0:0,0:0:0:0:
407,277,69252,1,10,0:0:0:0:
210,67,69590,6,0,L|199:183,1,102.300003121948,6|0,3:2|0:0,0:0:0:0:
189,270,69927,2,0,L|282:227,1,102.300003121948,10|0,0:0|0:0,0:0:0:0:
376,187,70264,2,0,L|281:119,1,102.300003121948,2|0,3:2|3:2,0:0:0:0:
465,143,70601,2,0,P|477:207|361:285,1,204.600006243897,10|0,0:0|3:2,0:0:0:0:
146,197,71275,6,0,P|78:195|29:212,1,102.300003121948,10|0,0:0|0:0,0:0:0:0:
209,278,71612,1,2,3:2:0:0:
209,278,71781,1,0,3:2:0:0:
243,187,71949,2,0,L|232:69,1,102.300003121948,10|0,0:0|0:0,0:0:0:0:
409,67,72286,6,0,L|420:183,1,102.300003121948,6|0,3:2|0:0,0:0:0:0:
430,270,72623,2,0,L|336:227,1,102.300003121948,10|0,0:0|0:0,0:0:0:0:
243,187,72960,2,0,L|337:119,1,102.300003121948,2|0,3:2|3:2,0:0:0:0:
430,270,73297,2,0,L|335:337,1,102.300003121948,10|0,0:0|0:0,0:0:0:0:
243,303,73634,2,0,B|145:276|145:276|39:321,1,204.600006243897,0|8,3:2|0:0,0:0:0:0:
229,111,74309,5,2,3:2:0:0:
229,111,74477,1,2,3:2:0:0:
133,153,74646,1,10,0:0:0:0:
221,218,74814,2,0,P|310:202|434:188,1,204.600006243897,2|2,0:0|0:0,0:0:0:0:
359,298,75320,2,0,P|273:311|169:332,1,153.450004682922,10|0,0:0|0:0,0:0:0:0:
174,334,75657,2,0,P|76:323|48:316,1,102.300003121948,2|2,3:2|3:2,0:0:0:0:
2,232,75994,1,10,0:0:0:0:
99,122,76163,6,0,L|100:224,1,102.300003121948,2|0,0:0|3:2,0:0:0:0:
194,151,76500,2,0,L|189:46,1,102.300003121948,2|8,3:2|0:0,0:0:0:0:
292,87,76837,1,0,0:0:0:0:
292,87,77005,6,0,L|395:79,1,102.300003121948,2|0,3:2|3:2,0:0:0:0:
494,134,77342,1,10,0:0:0:0:
391,191,77511,2,0,P|384:248|402:307,1,102.300003121948,2|4,0:0|3:2,0:0:0:0:
491,335,77848,2,0,P|372:334|269:336,1,204.600006243897,0|0,0:0|0:0,0:0:0:0:
191,379,78353,1,0,3:2:0:0:
191,379,78522,1,0,3:2:0:0:
106,325,78691,1,8,0:0:0:0:
232,198,79028,6,0,P|229:123|100:97,1,204.600006243897,0|0,3:2|0:0,0:0:0:0:
66,178,79533,1,0,3:2:0:0:
144,246,79702,2,0,L|144:351,1,102.300003121948,10|10,0:0|0:0,0:0:0:0:
144,348,79955,1,8,0:0:0:0:
144,348,80039,1,10,0:0:0:0:
307,140,80376,6,0,B|316:112|358:95|358:95|404:143|361:230,1,204.600006243897,4|2,3:2|0:0,0:0:0:0:
282,282,80882,1,2,3:2:0:0:
200,215,81050,2,0,L|83:209,1,102.300003121948,10|8,0:0|0:3,0:0:0:0:
15,273,81387,1,4,0:3:0:0:
88,182,81556,2,0,P|94:124|77:62,1,102.300003121948,4|8,0:3|0:0,0:0:0:0:
70,56,81809,1,8,0:0:0:0:
70,56,81893,1,10,0:0:0:0:
195,95,82061,2,0,L|264:84,3,51.1500015609742,8|8|10|8,0:0|0:0|0:0|0:0,0:0:0:0:
185,134,82399,5,10,0:0:0:0:
185,134,83073,6,0,P|161:264|149:334,1,186,6|8,3:2|0:0,0:0:0:0:
70,251,83578,1,0,3:2:0:0:
70,251,83747,2,0,P|62:178|55:121,2,93,14|0|0,0:0|3:2|3:2,0:0:0:0:
19,347,84252,1,8,0:0:0:0:
19,347,84421,6,0,P|74:368|193:324,1,186,6|8,3:2|0:0,0:0:0:0:
260,245,84927,1,0,3:2:0:0:
361,294,85095,1,10,0:0:0:0:
361,294,85179,1,8,0:0:0:0:
361,294,85264,2,0,L|466:284,2,93,0|0|8,3:2|3:2|0:0,0:0:0:0:
411,174,85769,6,0,B|437:104|437:104|380:-14,1,186,6|8,3:2|0:0,0:0:0:0:
294,56,86275,1,0,3:2:0:0:
184,17,86443,2,0,L|76:14,2,93,8|4|4,0:3|0:3|0:3,0:0:0:0:
103,116,86949,6,0,B|67:166|67:166|78:212|78:212|60:262|60:262|120:297|110:371,1,279,14|0,0:0|0:0,0:0:0:0:
