osu file format v14

[General]
AudioFilename: audio.mp3
AudioLeadIn: 0
PreviewTime: 58254
Countdown: 0
SampleSet: Soft
StackLeniency: 0.7
Mode: 0
LetterboxInBreaks: 0
EpilepsyWarning: 1
WidescreenStoryboard: 1

[Editor]
DistanceSpacing: 1.9
BeatDivisor: 4
GridSize: 32
TimelineZoom: 4.879997

[Metadata]
Title:Sign
TitleUnicode:Sign
Artist:FLOW
ArtistUnicode:FLOW
Creator:Kagetsu
Version:full ver
Source:
Tags:
BeatmapID:1759210
BeatmapSetID:840444

[Difficulty]
HPDrainRate:6
CircleSize:4
OverallDifficulty:9
ApproachRate:9.3
SliderMultiplier:1.8
SliderTickRate:1

[Events]
//Background and Video events
0,0,"532559.jpg",0,0
//Break Periods
2,134971,145004
2,169867,178751
//Storyboard Layer 0 (Background)
//Storyboard Layer 1 (Fail)
//Storyboard Layer 2 (Pass)
//Storyboard Layer 3 (Foreground)
//Storyboard Sound Samples

[TimingPoints]
2354,405.405405405405,4,2,1,40,1,0
2354,-133.333333333333,4,2,1,40,0,0
12083,447.761194029851,4,2,1,40,1,0
13195,-100,4,2,1,5,0,0
13426,287.081339712919,4,2,1,60,1,0
13497,260.869565217391,4,2,1,60,1,0
13562,-66.6666666666667,4,2,1,60,0,0
13627,262.008733624454,4,2,1,60,1,0
13758,330.578512396694,4,2,1,60,1,0
13923,287.081339712919,4,2,1,60,1,0
14066,-66.6666666666667,4,2,1,60,0,0
14138,242.914979757085,4,2,1,60,1,0
14259,289.855072463768,4,2,1,60,1,0
14403,342.857142857143,4,2,1,60,1,0
14498,428.571428571429,4,2,1,60,1,0
14593,379.746835443038,4,2,1,60,1,0
14593,-66.6666666666667,4,2,1,60,0,0
14687,312.5,4,2,1,60,1,0
14765,338.983050847458,4,2,1,60,1,0
14765,-66.6666666666667,4,2,1,60,0,0
16120,337.078651685393,4,2,1,60,1,0
20839,-74.0740740740741,4,2,1,60,0,0
21513,-100,4,2,1,60,0,0
25389,-125,4,2,1,60,0,0
25895,-74.0740740740741,4,2,1,60,0,0
25979,-74.0740740740741,4,2,1,5,0,0
26232,-100,4,2,1,60,0,0
26822,-100,4,2,1,5,0,0
26906,-100,4,2,1,60,0,0
48479,-125,4,2,1,60,0,0
53872,-100,4,2,1,60,0,0
56569,-66.6666666666667,4,2,1,60,0,0
58002,-100,4,2,1,5,0,0
59266,-90.9090909090909,4,2,1,80,0,1
69547,-74.0740740740741,4,2,1,80,0,1
70053,-90.9090909090909,4,2,1,80,0,1
82188,-74.0740740740741,4,2,1,80,0,1
82861,-74.0740740740741,4,2,1,60,0,0
83536,-125,4,2,1,60,0,0
87834,-125,4,2,1,5,0,0
87918,-74.0740740740741,4,2,1,60,0,0
88002,-74.0740740740741,4,2,1,5,0,0
88255,-100,4,2,1,60,0,0
99379,-74.0740740740741,4,2,1,60,0,0
99716,-125,4,2,1,60,0,0
105109,-100,4,2,1,60,0,0
107806,-66.6666666666667,4,2,1,60,0,0
110418,-66.6666666666667,4,2,1,5,0,0
110502,-90.9090909090909,4,2,1,80,0,1
120783,-74.0740740740741,4,2,1,80,0,1
121289,-90.9090909090909,4,2,1,80,0,1
133423,-74.0740740740741,4,2,1,80,0,1
134771,-111.111111111111,4,2,1,60,0,0
145558,-111.111111111111,4,2,1,60,0,0
155165,-111.111111111111,4,2,1,5,0,0
155334,-111.111111111111,4,2,1,60,0,0
156345,-100,4,2,1,60,0,0
167131,-58.8235294117647,4,2,1,60,0,0
168480,346.820809248555,4,2,1,60,1,0
168480,-58.8235294117647,4,2,1,60,0,0
168566,-58.8235294117647,4,2,1,25,0,0
169867,337.078651685393,4,2,1,60,1,0
169867,-100,4,2,1,60,0,0
179305,-74.0740740740741,4,2,1,60,0,0
179558,-74.0740740740741,4,2,1,5,0,0
179642,-74.0740740740741,4,2,1,60,0,0
179895,-74.0740740740741,4,2,1,5,0,0
179979,-74.0740740740741,4,2,1,60,0,0
180232,-74.0740740740741,4,2,1,5,0,0
180316,-74.0740740740741,4,2,1,60,0,0
180569,-74.0740740740741,4,2,1,5,0,0
180653,-100,4,2,1,60,0,0
191102,-74.0740740740741,4,2,1,60,0,0
191355,-74.0740740740741,4,2,1,5,0,0
191440,-90.9090909090909,4,2,1,80,0,1
201720,-74.0740740740741,4,2,1,80,0,1
202226,-90.9090909090909,4,2,1,80,0,1
219754,-74.0740740740741,4,2,1,80,0,1
221102,-90.9090909090909,4,2,1,80,0,0

[Colours]
Combo1 : 254,230,133
Combo2 : 128,128,192
Combo3 : 192,192,192
SliderBorder : 200,230,196

[HitObjects]
234,313,2354,6,0,P|301:306|390:300,1,135.000005149842,2|0,0:0|0:0,0:0:0:0:
457,334,3164,2,0,P|476:308|464:199,1,135.000005149842
407,140,3975,2,0,P|339:135|272:128,1,135.000005149842,2|0,0:0|0:0,0:0:0:0:
189,76,4786,1,8,0:1:0:0:
56,222,5191,1,0,0:0:0:0:
161,324,5597,6,0,P|187:262|153:184,1,135.000005149842,2|0,0:0|0:0,0:0:0:0:
96,128,6408,2,0,P|118:79|214:76,1,135.000005149842
270,129,7218,2,0,P|325:125|432:110,1,135.000005149842,2|2,0:0|0:0,0:0:0:0:
512,237,8029,2,0,P|457:233|350:218,1,135.000005149842,8|0,0:1|0:0,0:0:0:0:
276,239,8840,1,2,0:0:0:0:
116,173,9245,1,0,0:0:0:0:
128,325,9651,1,0,0:0:0:0:
198,121,10056,1,0,0:0:0:0:
251,336,10462,6,0,P|308:326|406:317,1,135.000005149842,2|0,0:0|0:0,0:0:0:0:
468,263,11272,1,8,0:1:0:0:
415,106,11678,1,0,0:0:0:0:
289,209,12083,5,2,0:0:0:0:
273,56,13426,5,8,0:0:0:0:
273,56,13497,1,8,0:0:0:0:
273,56,13562,2,0,P|315:66|350:80,1,67.5000025749208,8|8,0:0|0:0,0:0:0:0:
489,106,13758,1,6,0:0:0:0:
489,106,13923,5,8,0:0:0:0:
489,106,13994,1,8,0:0:0:0:
489,106,14066,2,0,P|478:148|464:183,1,67.5000025749208,8|8,0:0|0:0,0:0:0:0:
438,322,14259,1,6,0:0:0:0:
438,322,14403,1,8,0:0:0:0:
438,322,14498,1,8,0:0:0:0:
438,322,14593,2,0,P|395:311|360:297,1,67.5000025749208,8|0,0:3|0:0,0:0:0:0:
130,366,14765,6,0,P|125:330|119:296,1,67.5000025749208,8|0,0:3|0:0,0:0:0:0:
323,227,14934,2,0,P|327:191|334:148,1,67.5000025749208,2|0,0:0|0:1,0:0:0:0:
27,261,15103,2,0,P|22:223|17:187,1,67.5000025749208,8|2,0:0|0:0,0:0:0:0:
251,110,15273,2,0,P|255:68|262:11,1,67.5000025749208,8|8,0:0|0:0,0:0:0:0:
21,43,15442,1,0,0:1:0:0:
21,43,15527,1,8,0:0:0:0:
21,43,15612,2,0,P|46:38|68:36,1,45.0000017166138,8|8,0:3|0:3,0:0:0:0:
156,205,15781,1,8,0:0:0:0:
156,205,15866,1,8,0:0:0:0:
156,205,15951,2,0,P|193:207|240:210,1,67.5000025749208,8|2,0:3|0:0,0:0:0:0:
392,86,16120,6,0,P|436:134|433:269,1,180,6|2,0:0|0:0,0:0:0:0:
356,333,16625,1,0,0:0:0:0:
356,333,16794,2,0,P|307:323|251:316,1,90,2|0,0:0|0:0,0:0:0:0:
160,337,17131,2,0,P|115:346|71:352,1,90,2|0,0:0|0:0,0:0:0:0:
5,222,17468,6,0,P|83:225|159:160,1,180,6|2,0:0|0:0,0:0:0:0:
264,191,17973,1,0,0:0:0:0:
264,191,18142,2,0,P|269:138|275:77,1,90,2|0,0:0|0:0,0:0:0:0:
380,17,18479,2,0,P|384:61|388:106,1,90,2|0,0:0|0:0,0:0:0:0:
492,208,18816,6,0,L|397:195,1,90,6|0,0:0|0:0,0:0:0:0:
244,313,19153,2,0,L|334:301,1,90,2|0,0:0|0:0,0:0:0:0:
432,381,19490,2,0,L|444:291,1,90,2|0,0:0|0:0,0:0:0:0:
301,114,19827,2,0,L|313:204,1,90,2|0,0:0|0:0,0:0:0:0:
78,330,20164,1,6,0:0:0:0:
209,179,20333,1,8,0:0:0:0:
209,179,20417,1,8,0:0:0:0:
209,179,20502,1,8,0:0:0:0:
18,62,20670,1,8,0:0:0:0:
18,62,20754,1,8,0:0:0:0:
18,62,20839,6,0,L|25:137,1,60.7500002317429,8|8,0:3|0:3,0:0:0:0:
60,229,21007,2,0,L|135:222,1,60.7500002317429,8|8,0:3|0:3,0:0:0:0:
209,77,21176,2,0,L|269:82,1,60.7500002317429,8|8,0:3|0:3,0:0:0:0:
376,119,21344,2,0,L|370:179,1,60.7500002317429,8|8,0:3|0:3,0:0:0:0:
260,260,21512,5,6,0:0:0:0:
452,342,21681,1,2,0:0:0:0:
479,176,21849,1,8,0:0:0:0:
286,359,22018,1,2,0:0:0:0:
210,177,22186,1,8,0:0:0:0:
383,280,22355,1,2,0:0:0:0:
383,280,22523,1,2,0:0:0:0:
151,329,22692,1,8,0:0:0:0:
319,154,22861,5,6,0:0:0:0:
319,154,23029,1,2,0:0:0:0:
66,220,23198,1,8,0:0:0:0:
182,44,23366,1,2,0:0:0:0:
241,233,23535,1,8,0:0:0:0:
241,233,23619,1,8,0:0:0:0:
241,233,23703,1,8,0:0:0:0:
78,128,23872,1,2,0:0:0:0:
274,332,24040,1,8,0:0:0:0:
301,69,24208,5,6,0:0:0:0:
301,69,24377,1,2,0:0:0:0:
125,236,24546,1,8,0:0:0:0:
386,240,24714,1,2,0:0:0:0:
136,30,24883,1,8,0:0:0:0:
136,30,24967,1,8,0:0:0:0:
136,30,25052,1,8,0:3:0:0:
241,233,25220,1,8,0:0:0:0:
415,30,25389,6,0,P|458:57|491:207,1,180,6|0,0:0|0:0,0:0:0:0:
489,191,25895,2,0,P|446:198|392:215,1,60.7500002317429,4|0,0:0|0:0,0:0:0:0:
210,86,26232,6,0,P|254:95|296:112,1,90,8|8,0:0|0:0,0:0:0:0:
332,94,26485,1,8,0:0:0:0:
331,100,26569,2,0,P|309:170|296:269,1,135,8|0,0:0|0:0,0:0:0:0:
305,257,26906,6,0,P|227:278|124:216,1,180,6|8,0:0|0:0,0:0:0:0:
136,121,27412,1,0,0:0:0:0:
204,356,27580,1,2,0:0:0:0:
397,262,27749,1,2,0:0:0:0:
231,189,27917,1,8,0:0:0:0:
334,371,28086,6,0,P|423:356|513:345,1,180,2|2,0:0|0:0,0:0:0:0:
410,173,28591,2,0,P|402:217|396:261,1,90,8|0,0:0|0:0,0:0:0:0:
237,374,28928,2,0,P|231:329|223:285,1,90,2|0,0:0|0:0,0:0:0:0:
91,140,29266,1,8,0:0:0:0:
12,335,29434,6,0,P|31:270|141:249,1,180,2|2,0:0|0:0,0:0:0:0:
238,191,29940,2,0,P|244:141|251:93,1,90,8|0,0:0|0:0,0:0:0:0:
391,104,30277,2,0,P|384:54|377:6,1,90,2|2,0:0|0:0,0:0:0:0:
179,29,30614,1,8,0:0:0:0:
334,206,30782,6,0,P|423:199|534:179,1,180,2|2,0:0|0:0,0:0:0:0:
391,104,31288,1,8,0:0:0:0:
246,251,31457,1,2,0:0:0:0:
417,251,31625,1,8,0:0:0:0:
161,165,31794,1,2,0:0:0:0:
297,362,31962,1,8,0:0:0:0:
254,121,32131,6,0,P|152:127|95:67,1,180,6|2,0:0|0:0,0:0:0:0:
241,7,32636,1,8,0:0:0:0:
391,104,32805,1,8,0:0:0:0:
391,104,32889,1,8,0:0:0:0:
391,104,32973,2,0,P|370:180|363:213,1,90,2|2,0:0|0:0,0:0:0:0:
470,298,33311,1,8,0:0:0:0:
177,371,33479,6,0,P|144:325|168:196,1,180,2|2,0:0|0:0,0:0:0:0:
219,117,33985,2,0,P|159:109|106:104,1,90,8|2,0:0|0:0,0:0:0:0:
50,148,34237,1,8,0:0:0:0:
50,148,34321,2,0,P|42:88|37:35,1,90,2|2,0:0|0:0,0:0:0:0:
173,219,34659,1,8,0:0:0:0:
355,61,34827,6,0,P|335:185|324:282,1,180,6|2,0:0|0:0,0:0:0:0:
219,117,35333,1,8,0:0:0:0:
429,201,35502,1,0,0:0:0:0:
429,201,35586,1,0,0:0:0:0:
429,201,35670,5,2,0:0:0:0:
314,323,35839,1,2,0:0:0:0:
302,61,36007,1,8,0:0:0:0:
240,305,36176,1,2,0:0:0:0:
204,48,36344,1,8,0:0:0:0:
156,305,36513,1,2,0:0:0:0:
102,66,36681,1,8,0:0:0:0:
82,323,36850,1,2,0:0:0:0:
377,122,37018,5,8,0:0:0:0:
419,108,37103,1,8,0:0:0:0:
462,118,37187,1,8,0:0:0:0:
495,148,37271,1,8,0:0:0:0:
511,180,37355,2,0,L|502:238,1,45,8|8,0:0|0:0,0:0:0:0:
456,347,37524,5,0,0:3:0:0:
453,350,37608,1,0,0:3:0:0:
451,354,37693,2,0,P|368:344|266:338,1,180,6|8,0:0|0:0,0:0:0:0:
130,129,38198,1,0,0:0:0:0:
281,318,38366,1,2,0:0:0:0:
121,264,38535,1,2,0:0:0:0:
327,169,38703,1,8,0:0:0:0:
54,356,38872,6,0,P|22:308|38:180,1,180,2|2,0:0|0:0,0:0:0:0:
130,129,39378,2,0,L|142:38,1,90,8|2,0:0|0:0,0:0:0:0:
309,0,39715,2,0,L|321:89,1,90,2|2,0:0|0:0,0:0:0:0:
228,251,40052,1,8,0:0:0:0:
481,296,40221,6,0,P|507:243|468:135,1,180,2|2,0:0|0:0,0:0:0:0:
172,116,40726,2,0,P|217:126|265:135,1,90,8|0,0:0|0:0,0:0:0:0:
412,224,41063,2,0,P|367:232|322:241,1,90,2|2,0:0|0:0,0:0:0:0:
226,361,41400,1,8,0:0:0:0:
57,245,41569,6,0,B|177:222|177:222|228:251,1,180,2|2,0:0|0:0,0:0:0:0:
394,102,42075,1,8,0:0:0:0:
394,102,42159,1,8,0:0:0:0:
394,102,42243,1,8,0:3:0:0:
164,122,42412,1,8,0:0:0:0:
423,258,42580,1,2,0:0:0:0:
274,46,42749,1,8,0:0:0:0:
351,336,42917,6,0,B|282:323|282:323|236:341|236:341|155:327,1,180,6|2,0:0|0:0,0:0:0:0:
61,134,43423,1,8,0:0:0:0:
19,347,43591,1,8,0:0:0:0:
19,347,43676,1,8,0:0:0:0:
19,347,43760,1,2,0:0:0:0:
228,189,43928,1,2,0:0:0:0:
98,266,44097,1,8,0:0:0:0:
252,80,44266,6,0,P|331:73|456:52,1,180,2|2,0:0|0:0,0:0:0:0:
345,180,44771,1,8,0:0:0:0:
167,33,44940,1,8,0:0:0:0:
167,33,45024,1,8,0:0:0:0:
167,33,45108,1,2,0:0:0:0:
203,203,45277,1,2,0:0:0:0:
341,36,45445,1,8,0:0:0:0:
497,149,45614,6,0,P|519:234|477:311,1,180,6|2,0:0|0:0,0:0:0:0:
238,336,46119,1,8,0:0:0:0:
419,218,46288,1,8,0:0:0:0:
419,218,46372,1,8,0:0:0:0:
419,218,46457,1,2,0:0:0:0:
254,120,46625,1,2,0:0:0:0:
387,358,46794,1,8,0:0:0:0:
129,264,46962,6,0,P|139:175|149:85,1,180,6|2,0:0|0:0,0:0:0:0:
399,37,47468,1,8,0:0:0:0:
243,232,47636,1,2,0:0:0:0:
486,178,47805,1,8,0:0:0:0:
253,49,47973,2,0,L|263:121,1,45,8|8,0:0|0:0,0:0:0:0:
376,150,48142,2,0,L|366:222,1,45,8|8,0:0|0:0,0:0:0:0:
476,291,48311,2,0,L|440:349,1,45,8|8,0:0|0:0,0:0:0:0:
339,306,48479,5,6,0:0:0:0:
339,306,48647,2,0,P|282:300|214:357,1,144,2|2,0:0|0:0,0:0:0:0:
102,350,49153,2,0,P|111:320|121:277,1,72,8|0,0:0|0:0,0:0:0:0:
213,222,49490,2,0,P|199:188|190:153,1,72
75,67,49827,5,2,0:0:0:0:
75,67,49996,2,0,P|146:60|240:42,1,144,2|2,0:0|0:0,0:0:0:0:
330,112,50502,2,0,P|318:79|308:35,1,72,8|0,0:0|0:0,0:0:0:0:
440,158,50839,2,0,P|451:125|462:81,1,72,2|0,0:0|0:0,0:0:0:0:
249,194,51176,5,2,0:0:0:0:
249,194,51344,2,0,P|220:258|240:333,1,144,2|2,0:0|0:0,0:0:0:0:
338,356,51850,2,0,P|385:348|436:344,1,72,8|0,0:0|0:0,0:0:0:0:
512,256,52187,2,0,P|476:251|440:245,1,72
363,68,52524,5,2,0:0:0:0:
363,68,52693,2,0,P|353:142|345:221,1,144,2|2,0:0|0:0,0:0:0:0:
176,237,53198,2,0,P|135:207|150:113,1,144,8|0,0:0|0:0,0:0:0:0:
226,79,53703,1,8,0:0:0:0:
436,320,53872,6,0,P|346:308|242:298,1,180,2|2,0:0|0:0,0:0:0:0:
99,322,54378,1,2,0:0:0:0:
334,187,54546,1,12,0:0:0:0:
89,58,54715,1,8,0:0:0:0:
184,232,54884,1,2,0:0:0:0:
184,232,55052,1,2,0:0:0:0:
336,40,55221,5,12,0:0:0:0:
483,235,55389,1,2,0:0:0:0:
257,299,55558,1,2,0:0:0:0:
471,120,55726,1,8,0:0:0:0:
375,324,55895,1,2,0:0:0:0:
152,187,56063,1,2,0:0:0:0:
378,123,56232,1,8,0:0:0:0:
140,295,56400,1,2,0:0:0:0:
204,45,56569,6,0,P|213:92|220:129,1,67.5000025749208,8|8,0:0|0:0,0:0:0:0:
64,159,56737,2,0,P|58:192|51:226,1,67.5000025749208,8|8,0:0|0:0,0:0:0:0:
69,355,56906,2,0,P|131:386|199:368,1,135.000005149842,6|8,0:0|0:0,0:0:0:0:
235,306,57158,1,8,0:0:0:0:
248,300,57242,2,0,P|239:253|232:216,1,67.5000025749208,8|8,0:0|0:0,0:0:0:0:
325,78,57412,2,0,P|387:47|455:65,1,135.000005149842,6|8,0:0|0:0,0:0:0:0:
491,135,57664,1,8,0:0:0:0:
504,141,57748,2,0,P|495:188|488:225,1,67.5000025749208,8|8,0:0|0:0,0:0:0:0:
393,350,57917,2,0,P|384:303|377:266,1,67.5000025749208,8|0,0:0|0:0,0:0:0:0:
358,329,59266,6,0,P|431:343|513:228,2,198.000006042481,6|8|2,0:0|0:0|0:0,0:0:0:0:
247,190,60109,1,2,0:0:0:0:
384,117,60277,2,0,P|396:177|406:230,1,99.0000030212403,8|0,0:0|0:0,0:0:0:0:
253,372,60615,2,0,P|263:319|273:265,1,99.0000030212403,2|2,0:0|0:0,0:0:0:0:
99,175,60952,5,8,0:0:0:0:
156,314,61119,1,0,0:0:0:0:
0,141,61289,1,2,0:0:0:0:
217,106,61457,1,2,0:0:0:0:
58,331,61626,2,0,P|116:320|175:310,1,99.0000030212403,8|0,0:0|0:0,0:0:0:0:
460,178,61963,6,0,P|388:115|297:143,1,198.000006042481,6|8,0:0|0:0,0:0:0:0:
239,264,62468,1,0,0:0:0:0:
449,384,62637,2,0,P|460:334|473:276,1,99.0000030212403,2|2,0:0|0:0,0:0:0:0:
297,143,62974,2,0,L|325:272,1,99.0000030212403,8|0,0:0|0:0,0:0:0:0:
414,183,63311,6,0,P|463:176|512:169,1,99.0000030212403,2|2,0:0|0:0,0:0:0:0:
358,344,63648,2,0,P|267:328|154:316,1,198.000006042481,8|2,0:0|0:0,0:0:0:0:
43,366,64154,1,2,0:0:0:0:
0,212,64322,2,0,P|49:206|97:198,1,99.0000030212403,8|0,0:0|0:0,0:0:0:0:
263,29,64659,6,0,P|340:83|338:178,2,198.000006042481,6|8|2,0:0|0:0|0:0,0:0:0:0:
117,101,65502,1,2,0:0:0:0:
238,232,65671,2,0,P|247:186|260:127,1,99.0000030212403,8|0,0:0|0:0,0:0:0:0:
14,83,66008,2,0,P|28:141|57:289,1,198.000006042481,2|8,0:0|0:0,0:0:0:0:
139,356,66513,1,0,0:0:0:0:
345,270,66682,1,2,0:0:0:0:
156,180,66850,1,2,0:0:0:0:
264,375,67019,2,0,P|312:368|382:359,1,99.0000030212403,8|0,0:0|0:0,0:0:0:0:
509,204,67356,6,0,P|437:141|346:169,1,198.000006042481,6|8,0:0|0:0,0:0:0:0:
263,281,67861,1,0,0:0:0:0:
483,299,68030,1,2,0:0:0:0:
257,125,68199,1,2,0:0:0:0:
164,327,68367,1,8,0:0:0:0:
257,38,68535,1,2,0:0:0:0:
387,275,68704,5,8,0:0:0:0:
82,64,68872,1,2,0:0:0:0:
255,358,69041,5,12,0:0:0:0:
425,64,69210,1,2,0:0:0:0:
75,211,69379,5,8,0:0:0:0:
429,208,69546,1,8,0:0:0:0:
429,208,69631,1,8,0:0:0:0:
429,208,69715,2,8,L|501:192,1,60.7500002317429
168,131,69884,2,0,L|96:115,1,60.7500002317429,8|8,0:0|0:0,0:0:0:0:
47,321,70053,6,0,P|134:326|207:246,2,198.000006042481,6|8|2,0:0|0:0|0:0,0:0:0:0:
5,197,70895,1,2,0:0:0:0:
187,33,71063,2,0,P|175:93|165:146,1,99.0000030212403,8|0,0:0|0:0,0:0:0:0:
346,265,71401,2,0,P|336:212|326:158,1,99.0000030212403,2|2,0:0|0:0,0:0:0:0:
512,202,71738,1,8,0:0:0:0:
319,63,71907,1,0,0:0:0:0:
444,306,72075,1,2,0:0:0:0:
480,94,72244,1,2,0:0:0:0:
345,265,72412,2,0,P|296:258|247:252,1,99.0000030212403,8|0,0:0|0:0,0:0:0:0:
52,316,72749,6,0,P|8:246|45:142,1,198.000006042481,6|8,0:0|0:0,0:0:0:0:
149,104,73254,1,0,0:0:0:0:
246,251,73423,2,0,P|257:201|270:143,1,99.0000030212403,2|2,0:0|0:0,0:0:0:0:
384,5,73760,2,0,P|394:53|405:101,1,99.0000030212403,8|0,0:0|0:0,0:0:0:0:
357,263,74098,5,2,0:0:0:0:
512,151,74266,1,2,0:0:0:0:
455,369,74435,2,0,B|377:353|314:340|314:340|252:373,1,198.000006042481,8|2,0:0|0:0,0:0:0:0:
185,196,74940,1,2,0:0:0:0:
58,343,75109,2,0,P|107:336|178:329,1,99.0000030212403,8|0,0:0|0:0,0:0:0:0:
357,260,75446,6,0,P|371:179|290:83,1,198.000006042481,6|8,0:0|0:0,0:0:0:0:
156,52,75952,1,0,0:0:0:0:
101,231,76120,1,2,0:0:0:0:
280,192,76289,1,2,0:0:0:0:
54,110,76457,1,8,0:0:0:0:
214,304,76626,6,0,P|266:295|325:289,1,99.0000030212403,0|2,0:0|0:0,0:0:0:0:
503,189,76963,2,0,P|450:180|391:174,1,99.0000030212403,2|8,0:0|0:0,0:0:0:0:
415,50,77300,1,0,0:0:0:0:
179,177,77468,2,0,P|153:37|190:-7,1,198.000006042481,2|8,0:0|0:0,0:0:0:0:
310,113,77974,5,0,0:0:0:0:
310,113,78058,1,0,0:0:0:0:
310,113,78143,2,0,P|286:204|281:229,1,99.0000030212403,6|0,0:0|0:0,0:0:0:0:
132,335,78480,2,0,P|120:286|106:239,1,99.0000030212403,8|0,0:0|0:0,0:0:0:0:
376,181,78817,1,2,0:0:0:0:
235,300,78985,1,0,0:0:0:0:
379,371,79154,2,0,P|428:359|476:350,1,99.0000030212403,8|0,0:0|0:0,0:0:0:0:
473,94,79490,5,2,0:0:0:0:
285,208,79659,1,2,0:0:0:0:
352,17,79827,1,8,0:0:0:0:
416,270,79996,1,2,0:0:0:0:
217,144,80164,1,8,0:0:0:0:
512,197,80333,1,8,0:0:0:0:
512,197,80417,1,8,0:0:0:0:
512,197,80502,1,8,0:0:0:0:
260,359,80670,1,8,0:0:0:0:
361,104,80839,6,0,P|409:95|458:84,1,99.0000030212403,6|0,0:0|0:0,0:0:0:0:
199,247,81176,2,0,P|254:256|309:268,1,99.0000030212403,0|2,0:0|0:0,0:0:0:0:
448,199,81513,1,8,0:0:0:0:
225,120,81682,1,0,0:0:0:0:
296,264,81850,1,0,0:0:0:0:
441,73,82019,1,0,0:0:0:0:
162,60,82188,6,0,L|169:0,1,60.7500002317429,8|8,0:0|0:0,0:0:0:0:
364,164,82356,2,0,L|357:104,1,60.7500002317429,8|8,0:0|0:0,0:0:0:0:
141,243,82525,2,0,L|148:183,1,60.7500002317429,8|8,0:0|0:0,0:0:0:0:
386,331,82693,2,0,L|379:271,1,60.7500002317429,8|8,0:0|0:0,0:0:0:0:
120,367,82862,1,12,0:0:0:0:
120,367,83536,6,0,P|155:360|211:352,1,72,6|0,0:0|0:0,0:0:0:0:
242,258,83873,2,0,P|286:264|330:272,1,72,2|0,0:0|0:0,0:0:0:0:
403,345,84210,2,0,P|409:309|417:253,1,72,2|0,0:0|0:0,0:0:0:0:
512,223,84547,2,0,P|505:178|497:134,1,72,2|0,0:0|0:0,0:0:0:0:
375,26,84884,6,0,P|365:92|354:183,1,144,6|2,0:0|0:0,0:0:0:0:
197,77,85390,1,0,0:0:0:0:
197,77,85558,2,0,P|243:81|300:85,1,72,2|0,0:0|0:0,0:0:0:0:
60,175,85895,2,0,P|106:171|163:167,1,72,2|0,0:0|0:0,0:0:0:0:
271,335,86232,5,6,0:0:0:0:
122,261,86401,1,2,0:0:0:0:
273,187,86570,1,8,0:0:0:0:
95,356,86738,5,2,0:0:0:0:
95,356,86822,1,2,0:0:0:0:
95,356,86907,1,8,0:3:0:0:
354,259,87075,1,8,0:3:0:0:
98,91,87244,1,8,0:0:0:0:
283,358,87412,6,0,P|374:346|493:332,1,180,6|0,0:0|0:0,0:0:0:0:
472,348,87918,2,0,P|478:302|485:247,1,60.7500002317429,4|0,0:0|0:0,0:0:0:0:
512,128,88255,6,0,P|523:55|493:-12,1,135,8|8,0:0|0:0,0:0:0:0:
487,5,88592,2,0,P|437:26|374:31,1,90,8|0,0:0|0:0,0:0:0:0:
194,0,88929,6,0,L|183:89,1,90,6|0,0:0|0:0,0:0:0:0:
364,203,89266,2,0,P|358:158|349:114,1,90,8|0,0:0|0:0,0:0:0:0:
293,305,89603,1,2,0:0:0:0:
94,259,89772,1,2,0:0:0:0:
234,165,89940,1,8,0:0:0:0:
183,373,90109,6,0,P|94:358|4:347,1,180,2|2,0:0|0:0,0:0:0:0:
199,269,90615,2,0,P|243:261|288:256,1,90,8|0,0:0|0:0,0:0:0:0:
438,75,90952,1,2,0:0:0:0:
392,274,91119,1,2,0:0:0:0:
285,146,91289,1,8,0:0:0:0:
506,185,91458,6,0,P|491:274|480:364,1,180,2|0,0:0|0:0,0:0:0:0:
300,344,91963,2,0,P|292:300|287:255,1,90,8|0,0:0|0:0,0:0:0:0:
395,150,92300,2,0,P|403:106|408:61,1,90,2|2,0:0|0:0,0:0:0:0:
280,0,92637,1,8,0:0:0:0:
147,140,92806,6,0,P|210:159|298:92,1,180,2|2,0:0|0:0,0:0:0:0:
35,36,93311,2,0,L|44:135,1,90,8|0,0:0|0:0,0:0:0:0:
204,58,93648,1,8,0:0:0:0:
101,230,93817,1,8,0:0:0:0:
101,230,93901,1,8,0:0:0:0:
101,230,93985,1,2,0:0:0:0:
322,235,94154,6,0,P|381:222|498:200,1,180,6|2,0:0|0:0,0:0:0:0:
407,309,94659,1,8,0:0:0:0:
185,196,94827,1,8,0:0:0:0:
185,196,94912,1,8,0:0:0:0:
185,196,94996,1,2,0:0:0:0:
265,357,95164,1,2,0:0:0:0:
352,147,95333,1,8,0:0:0:0:
157,308,95502,6,0,P|72:316|3:236,1,180,2|2,0:0|0:0,0:0:0:0:
192,65,96007,1,8,0:0:0:0:
110,225,96176,1,8,0:0:0:0:
110,225,96260,1,8,0:0:0:0:
110,225,96344,1,2,0:0:0:0:
278,137,96513,1,2,0:0:0:0:
33,88,96682,1,8,0:0:0:0:
346,214,96850,6,0,P|378:183|382:50,1,180,6|2,0:0|0:0,0:0:0:0:
461,246,97355,1,8,0:0:0:0:
295,41,97524,1,8,0:0:0:0:
295,41,97608,1,8,0:0:0:0:
295,41,97693,1,2,0:0:0:0:
247,236,97862,1,2,0:0:0:0:
492,149,98030,1,8,0:0:0:0:
328,329,98198,6,0,B|258:320|258:320|220:340|220:340|150:330,1,180,6|2,0:0|0:0,0:0:0:0:
67,86,98704,1,8,0:0:0:0:
2,330,98872,1,2,0:0:0:0:
221,209,99041,1,8,0:0:0:0:
34,232,99209,1,8,0:0:0:0:
34,232,99294,1,8,0:0:0:0:
34,232,99379,2,0,P|28:202|15:137,1,60.7500002317429,8|8,0:0|0:0,0:0:0:0:
179,118,99547,2,0,P|184:88|198:23,1,60.7500002317429,8|8,0:0|0:0,0:0:0:0:
367,122,99715,5,6,0:0:0:0:
367,122,99884,2,0,P|438:115|532:97,1,144,2|2,0:0|0:0,0:0:0:0:
512,267,100390,2,0,L|488:191,1,72,8|0,0:0|0:0,0:0:0:0:
368,334,100727,2,0,L|392:258,1,72
261,132,101064,5,2,0:0:0:0:
261,132,101232,2,0,P|290:196|270:271,1,144,2|2,0:0|0:0,0:0:0:0:
185,333,101738,2,0,P|155:324|112:314,1,72,8|0,0:0|0:0,0:0:0:0:
0,239,102075,2,0,P|28:233|68:217,1,72
163,84,102412,5,2,0:0:0:0:
163,84,102581,2,0,P|91:75|15:62,1,144,2|2,0:0|0:0,0:0:0:0:
230,172,103086,2,0,P|244:146|258:105,1,72,8|0,0:0|0:0,0:0:0:0:
343,18,103423,2,0,P|360:49|371:83,1,72
345,205,103761,5,2,0:0:0:0:
345,205,103929,2,0,P|328:277|324:351,1,144,2|0,0:0|0:0,0:0:0:0:
470,356,104435,2,0,P|511:326|496:232,1,144,8|0,0:0|0:0,0:0:0:0:
436,166,104940,1,8,0:0:0:0:
225,343,105109,6,0,P|159:356|75:274,1,180,2|0,0:0|0:0,0:0:0:0:
284,110,105615,1,2,0:0:0:0:
171,258,105783,1,12,0:0:0:0:
361,263,105952,1,8,0:0:0:0:
164,88,106119,1,2,0:0:0:0:
272,229,106289,1,2,0:0:0:0:
373,97,106458,5,12,0:0:0:0:
171,258,106626,1,2,0:0:0:0:
65,38,106795,1,2,0:0:0:0:
385,75,106963,5,8,0:0:0:0:
158,281,107132,1,2,0:0:0:0:
75,18,107300,1,2,0:0:0:0:
397,53,107468,5,8,0:0:0:0:
43,138,107637,1,2,0:0:0:0:
265,69,107806,6,0,P|218:60|181:53,1,67.5000025749208,8|8,0:0|0:0,0:0:0:0:
102,228,107974,2,0,P|135:221|168:215,1,67.5000025749208,8|8,0:0|0:0,0:0:0:0:
374,148,108143,2,0,P|405:210|387:278,1,135.000005149842,6|8,0:0|0:0,0:0:0:0:
304,285,108395,1,8,0:0:0:0:
291,291,108479,2,0,P|300:338|307:375,1,67.5000025749208,8|8,0:0|0:0,0:0:0:0:
30,343,108648,2,0,P|-1:281|17:213,1,135.000005149842,6|8,0:0|0:0,0:0:0:0:
102,228,108900,1,8,0:0:0:0:
108,239,108985,2,0,P|117:192|124:155,1,67.5000025749208,8|8,0:0|0:0,0:0:0:0:
277,135,109154,2,0,P|268:88|261:51,1,67.5000025749208,8|8,0:0|0:0,0:0:0:0:
119,76,109322,6,0,L|179:81,2,45.0000017166138,2|2|2,0:0|0:0|0:0,0:0:0:0:
228,232,109491,2,0,P|247:229|311:223,1,45.0000017166138,2|8,0:0|0:3,0:0:0:0:
382,129,109659,2,0,L|429:122,2,45.0000017166138,2|2|2,0:0|0:0|0:0,0:0:0:0:
506,262,109828,2,0,L|439:251,1,67.5000025749208,8|8,0:3|0:3,0:0:0:0:
307,343,109997,2,0,L|240:353,1,67.5000025749208,2|2,0:0|0:0,0:0:0:0:
108,239,110165,6,0,P|68:158|163:166,1,202.500007724762,12|0,0:0|0:0,0:0:0:0:
167,169,110502,6,0,P|258:153|371:141,2,198.000006042481,6|8|2,0:0|0:0|0:0,0:0:0:0:
8,287,111345,1,2,0:0:0:0:
131,357,111513,2,0,P|143:297|153:244,1,99.0000030212403,8|0,0:0|0:0,0:0:0:0:
17,84,111851,2,0,P|27:137|37:191,1,99.0000030212403,2|2,0:0|0:0,0:0:0:0:
144,150,112188,1,8,0:0:0:0:
330,62,112355,1,0,0:0:0:0:
238,272,112525,1,2,0:0:0:0:
147,37,112694,1,2,0:0:0:0:
316,207,112862,2,0,P|365:200|414:194,1,99.0000030212403,8|0,0:0|0:0,0:0:0:0:
205,356,113199,6,0,P|107:364|43:289,1,198.000006042481,6|8,0:0|0:0,0:0:0:0:
128,185,113704,1,0,0:0:0:0:
316,207,113873,2,0,P|309:253|301:305,1,99.0000030212403,2|2,0:0|0:0,0:0:0:0:
486,383,114210,2,0,P|493:338|501:285,1,99.0000030212403,8|0,0:0|0:0,0:0:0:0:
512,59,114547,6,0,P|463:66|414:73,1,99.0000030212403,2|2,0:0|0:0,0:0:0:0:
211,237,114884,2,0,P|175:202|172:63,1,198.000006042481,8|0,0:0|0:0,0:0:0:0:
276,10,115390,1,2,0:0:0:0:
287,172,115558,2,0,P|336:179|385:186,1,99.0000030212403,8|0,0:0|0:0,0:0:0:0:
498,293,115895,6,0,P|442:370|347:366,2,198.000006042481,6|8|2,0:0|0:0|0:0,0:0:0:0:
287,172,116738,1,2,0:0:0:0:
203,303,116907,2,0,P|251:292|299:282,1,99.0000030212403,8|0,0:0|0:0,0:0:0:0:
31,132,117244,2,0,P|47:223|59:336,1,198.000006042481,2|8,0:0|0:0,0:0:0:0:
270,86,117749,1,0,0:0:0:0:
157,234,117918,1,2,0:0:0:0:
86,64,118086,1,2,0:0:0:0:
290,199,118255,2,0,P|338:192|408:183,1,99.0000030212403,8|0,0:0|0:0,0:0:0:0:
496,346,118592,6,0,P|406:372|334:310,1,198.000006042481,6|8,0:0|0:0,0:0:0:0:
290,199,119097,1,0,0:0:0:0:
398,102,119266,1,2,0:0:0:0:
426,275,119435,5,2,0:0:0:0:
160,218,119603,1,8,0:0:0:0:
398,102,119771,1,2,0:0:0:0:
212,329,119940,5,8,0:0:0:0:
335,34,120108,1,2,0:0:0:0:
98,122,120277,5,12,0:0:0:0:
436,17,120446,1,2,0:0:0:0:
102,305,120614,5,8,0:0:0:0:
364,195,120782,1,8,0:0:0:0:
372,203,120867,1,8,0:0:0:0:
372,203,120951,2,8,L|300:219,1,60.7500002317429
98,330,121120,2,0,L|26:314,1,60.7500002317429,8|8,0:0|0:0,0:0:0:0:
36,38,121289,6,0,P|123:33|196:113,2,198.000006042481,6|8|2,0:0|0:0|0:0,0:0:0:0:
18,187,122131,1,2,0:0:0:0:
264,218,122300,2,0,P|273:169|283:120,1,99.0000030212403,8|0,0:0|0:0,0:0:0:0:
459,30,122637,2,0,P|449:83|439:137,1,99.0000030212403,2|2,0:0|0:0,0:0:0:0:
269,104,122974,1,8,0:0:0:0:
422,313,123143,1,0,0:0:0:0:
172,235,123311,1,2,0:0:0:0:
419,142,123480,1,2,0:0:0:0:
294,337,123648,2,0,P|245:330|196:324,1,99.0000030212403,8|0,0:0|0:0,0:0:0:0:
2,166,123985,6,0,P|97:173|163:104,1,198.000006042481,6|8,0:0|0:0,0:0:0:0:
135,0,124491,1,0,0:0:0:0:
248,185,124659,2,0,L|360:165,1,99.0000030212403,2|2,0:0|0:0,0:0:0:0:
512,47,124997,2,0,L|400:27,1,99.0000030212403,8|0,0:0|0:0,0:0:0:0:
361,189,125334,5,2,0:0:0:0:
282,46,125502,1,2,0:0:0:0:
502,150,125671,2,0,P|488:208|459:356,1,198.000006042481,8|2,0:0|0:0,0:0:0:0:
271,231,126176,1,2,0:0:0:0:
217,362,126345,2,0,P|266:355|337:348,1,99.0000030212403,8|0,0:0|0:0,0:0:0:0:
106,183,126682,6,0,P|27:208|4:324,1,198.000006042481,6|8,0:0|0:0,0:0:0:0:
104,381,127188,1,0,0:0:0:0:
279,248,127356,1,2,0:0:0:0:
97,272,127525,1,2,0:0:0:0:
315,349,127693,1,8,0:0:0:0:
207,115,127862,6,0,L|192:212,1,99.0000030212403,0|2,0:0|0:0,0:0:0:0:
406,312,128199,2,0,L|392:213,1,99.0000030212403,2|8,0:0|0:0,0:0:0:0:
197,312,128536,1,0,0:0:0:0:
323,110,128704,2,0,P|462:79|488:27,1,198.000006042481,2|8,0:0|0:0,0:0:0:0:
249,22,129210,5,0,0:0:0:0:
249,22,129294,1,0,0:0:0:0:
249,22,129379,2,0,P|158:46|133:51,1,99.0000030212403,6|0,0:0|0:0,0:0:0:0:
0,135,129716,2,0,P|49:147|96:161,1,99.0000030212403,8|0,0:0|0:0,0:0:0:0:
84,310,130053,1,2,0:0:0:0:
195,144,130221,1,0,0:0:0:0:
293,254,130390,2,0,P|244:263|196:274,1,99.0000030212403,8|0,0:0|0:0,0:0:0:0:
468,265,130727,5,2,0:0:0:0:
283,151,130896,1,2,0:0:0:0:
347,342,131064,1,8,0:0:0:0:
412,97,131233,1,2,0:0:0:0:
198,258,131401,1,8,0:0:0:0:
507,156,131570,1,8,0:0:0:0:
507,156,131654,1,8,0:0:0:0:
507,156,131737,1,8,0:0:0:0:
295,3,131907,1,8,0:0:0:0:
295,239,132076,6,0,P|343:230|392:219,1,99.0000030212403,6|0,0:0|0:0,0:0:0:0:
106,335,132413,2,0,P|161:344|216:356,1,99.0000030212403,0|2,0:0|0:0,0:0:0:0:
313,333,132749,1,8,0:0:0:0:
450,143,132918,1,0,0:0:0:0:
202,179,133086,1,0,0:0:0:0:
439,326,133255,1,0,0:0:0:0:
424,53,133424,6,0,L|484:60,1,60.7500002317429,8|8,0:0|0:0,0:0:0:0:
346,239,133592,2,0,L|406:232,1,60.7500002317429,8|8,0:0|0:0,0:0:0:0:
241,32,133761,2,0,L|301:39,1,60.7500002317429,8|8,0:0|0:0,0:0:0:0:
179,261,133929,2,0,L|239:254,1,60.7500002317429,8|8,0:0|0:0,0:0:0:0:
117,19,134098,1,12,0:0:0:0:
117,19,134771,5,2,0:0:0:0:
167,371,145558,6,0,L|172:290,1,80.9999975280763,2|8,0:0|0:3,0:0:0:0:
45,296,145895,2,0,L|41:195,1,80.9999975280763,2|2,0:0|0:0,0:0:0:0:
140,164,146232,2,0,P|171:91|138:20,1,161.999995056153,8|8,0:0|0:0,0:0:0:0:
275,47,146738,5,0,0:0:0:0:
275,47,146822,1,0,0:0:0:0:
275,47,146907,2,0,P|318:42|388:37,1,80.9999975280763,2|8,0:0|0:3,0:0:0:0:
461,105,147244,2,0,P|464:64|469:24,1,80.9999975280763,2|2,0:0|0:0,0:0:0:0:
512,196,147581,1,8,0:0:0:0:
346,135,147749,2,0,P|313:188|315:288,1,161.999995056153,8|0,0:0|0:0,0:0:0:0:
335,380,148255,6,0,P|294:375|217:363,1,80.9999975280763,2|8,0:0|0:3,0:0:0:0:
204,277,148592,2,0,P|163:281|123:287,1,80.9999975280763,2|0,0:0|0:0,0:0:0:0:
22,348,148929,2,0,P|17:307|11:267,1,80.9999975280763,8|0,0:0|0:0,0:0:0:0:
84,197,149266,2,0,P|88:156|94:116,1,80.9999975280763,8|0,0:0|0:0,0:0:0:0:
301,68,149603,5,2,0:0:0:0:
191,182,149772,1,8,0:3:0:0:
319,253,149940,2,0,P|360:248|437:236,1,80.9999975280763,2|8,0:0|0:3,0:0:0:0:
493,187,150277,1,8,0:0:0:0:
503,28,150446,1,8,0:0:0:0:
323,146,150615,1,2,0:0:0:0:
440,94,150783,1,8,0:3:0:0:
299,14,150952,6,0,L|218:9,1,80.9999975280763,2|8,0:0|0:3,0:0:0:0:
175,100,151289,2,0,L|74:96,1,80.9999975280763,2|2,0:0|0:0,0:0:0:0:
2,55,151626,2,0,P|-29:127|-2:214,1,161.999995056153,8|8,0:0|0:0,0:0:0:0:
105,218,152132,5,0,0:0:0:0:
105,218,152216,1,0,0:0:0:0:
105,217,152299,2,0,P|93:258|77:327,1,80.9999975280763,2|8,0:0|0:3,0:0:0:0:
200,370,152636,2,0,P|196:329|191:289,1,80.9999975280763,2|2,0:0|0:0,0:0:0:0:
402,277,152973,1,8,0:0:0:0:
331,191,153143,2,0,P|298:244|310:345,1,161.999995056153,8|0,0:0|0:0,0:0:0:0:
395,384,153649,6,0,P|436:379|513:367,1,80.9999975280763,2|8,0:0|0:3,0:0:0:0:
500,258,153986,2,0,P|495:217|489:177,1,80.9999975280763,2|0,0:0|0:0,0:0:0:0:
331,191,154323,2,0,P|335:150|341:110,1,80.9999975280763,8|0,0:0|0:0,0:0:0:0:
426,30,154659,1,8,0:0:0:0:
138,62,154828,6,0,P|150:142|158:222,1,161.999995056153,6|0,0:0|0:0,0:0:0:0:
113,310,155334,2,0,P|186:356|278:330,1,161.999995056153,2|8,0:3|0:0,0:0:0:0:
397,260,155839,1,8,0:0:0:0:
392,251,155923,1,8,0:0:0:0:
387,244,156008,2,0,P|451:239|519:273,1,121.499996292114,8|0,0:0|0:0,0:0:0:0:
512,289,156345,6,0,P|470:331|325:319,1,180,2|8,0:0|0:0,0:0:0:0:
276,252,156850,1,0,0:0:0:0:
276,252,157019,2,0,P|269:218|254:149,1,90,2|2,0:0|0:0,0:0:0:0:
443,157,157356,2,0,P|451:112|461:69,1,90,8|2,0:0|0:0,0:0:0:0:
252,48,157693,6,0,L|367:66,1,90,2|2,0:0|0:0,0:0:0:0:
108,22,158030,1,8,0:0:0:0:
108,22,158199,2,0,P|145:82|126:187,1,180,0|2,0:0|0:0,0:0:0:0:
11,233,158704,2,0,P|2:282|-2:353,1,90,8|0,0:0|0:0,0:0:0:0:
189,356,159041,6,0,P|231:346|301:336,1,90,2|0,0:0|0:0,0:0:0:0:
463,267,159379,1,8,0:0:0:0:
463,267,159547,2,0,P|377:283|319:206,1,180,0|2,0:0|0:0,0:0:0:0:
383,126,160053,2,0,P|341:119|271:106,1,90,8|0,0:0|0:0,0:0:0:0:
101,56,160390,6,0,P|53:114|70:211,1,180,2|8,0:0|0:0,0:0:0:0:
167,270,160895,1,0,0:0:0:0:
294,110,161064,2,0,L|276:211,1,90,2|0,0:0|0:0,0:0:0:0:
407,340,161401,2,0,L|391:251,1,90,8|0,0:0|0:0,0:0:0:0:
450,24,161738,6,0,P|513:83|505:170,1,180,2|0,0:0|0:0,0:0:0:0:
278,198,162244,1,2,0:0:0:0:
423,117,162412,1,8,0:0:0:0:
484,278,162581,1,8,0:0:0:0:
257,89,162750,1,2,0:0:0:0:
512,65,162918,1,2,0:0:0:0:
277,298,163087,5,12,0:0:0:0:
328,16,163255,1,2,0:0:0:0:
512,158,163424,1,2,0:0:0:0:
174,158,163592,5,8,0:0:0:0:
438,226,163761,1,2,0:0:0:0:
193,366,163929,1,2,0:0:0:0:
240,64,164097,5,8,0:0:0:0:
384,322,164266,1,2,0:0:0:0:
95,241,164435,5,12,0:0:0:0:
387,130,164603,1,2,0:0:0:0:
387,130,164772,1,2,0:0:0:0:
55,97,164940,5,12,0:0:0:0:
271,294,165109,1,2,0:0:0:0:
271,294,165277,1,0,0:0:0:0:
8,205,165446,5,8,0:0:0:0:
278,151,165615,1,2,0:0:0:0:
26,339,165783,5,8,0:3:0:0:
188,48,165952,1,2,0:0:0:0:
188,48,166036,1,0,0:0:0:0:
188,48,166120,1,8,0:0:0:0:
386,209,166289,1,8,0:3:0:0:
95,241,166457,1,2,0:0:0:0:
95,241,166541,1,8,0:0:0:0:
95,241,166626,1,8,0:0:0:0:
456,302,166794,1,8,0:0:0:0:
345,17,166963,5,2,0:0:0:0:
345,17,167047,1,8,0:0:0:0:
345,17,167131,2,0,P|354:64|361:101,1,76.5000014591217,8|8,0:0|0:0,0:0:0:0:
221,248,167299,2,0,P|229:203|238:159,1,76.5000014591217,8|8,0:0|0:0,0:0:0:0:
440,159,167468,6,0,P|471:228|455:301,1,153.000002918243,2|8,0:0|0:0,0:0:0:0:
392,359,167720,1,8,0:0:0:0:
386,372,167806,2,0,P|339:363|300:358,1,76.5000014591217,8|8,0:0|0:0,0:0:0:0:
43,293,167974,2,0,P|10:225|26:152,1,153.000002918243,2|8,0:0|0:0,0:0:0:0:
90,95,168226,1,8,0:0:0:0:
96,82,168310,2,0,P|143:91|180:98,1,76.5000014591217,8|8,0:0|0:0,0:0:0:0:
221,248,168480,2,0,P|268:239|305:232,1,76.5000014591217,8|0,0:0|0:0,0:0:0:0:
373,229,179305,6,0,P|461:237|512:308,1,182.250000695229,6|0,0:0|0:0,0:0:0:0:
495,335,179642,2,0,B|434:327|434:327|401:335|401:335|374:322|374:322|318:319,1,182.250000695229,2|0,0:0|0:0,0:0:0:0:
292,337,179979,2,0,P|210:346|191:264,1,182.250000695229,2|0,0:0|0:0,0:0:0:0:
207,242,180316,2,0,B|166:243|119:268|119:268|81:247|33:246,1,182.250000695229,2|0,0:0|0:0,0:0:0:0:
29,149,180653,6,0,P|92:168|180:101,1,180,6|2,0:0|0:0,0:0:0:0:
263,19,181159,1,0,0:0:0:0:
263,19,181327,2,0,P|216:14|166:8,1,90,2|0,0:0|0:0,0:0:0:0:
400,117,181664,2,0,P|354:122|303:128,1,90,2|0,0:0|0:0,0:0:0:0:
181,237,182001,6,0,P|270:252|360:263,1,180,6|2,0:0|0:0,0:0:0:0:
506,195,182507,1,0,0:0:0:0:
506,195,182675,2,0,P|497:244|489:289,1,90,2|0,0:0|0:0,0:0:0:0:
375,351,183013,2,0,P|367:306|358:262,1,90,2|0,0:0|0:0,0:0:0:0:
288,139,183350,6,0,P|333:147|377:156,1,90,6|0,0:0|0:0,0:0:0:0:
512,46,183687,2,0,P|467:55|423:62,1,90,2|0,0:0|0:0,0:0:0:0:
170,23,184024,2,0,P|179:72|187:117,1,90,2|0,0:0|0:0,0:0:0:0:
74,137,184361,2,0,P|82:181|90:225,1,90,2|0,0:0|0:0,0:0:0:0:
256,354,184698,6,0,P|288:323|292:190,1,180,6|2,0:0|0:0,0:0:0:0:
420,206,185204,1,0,0:0:0:0:
420,206,185372,2,0,L|434:117,1,90,2|0,0:0|0:0,0:0:0:0:
302,15,185709,2,0,L|316:103,1,90,6|0,0:0|0:0,0:0:0:0:
294,315,186046,6,0,P|222:323|129:232,1,180,6|2,0:0|0:0,0:0:0:0:
20,176,186552,1,0,0:0:0:0:
20,176,186720,2,0,P|70:174|113:150,1,90,2|0,0:0|0:0,0:0:0:0:
284,55,187057,2,0,P|240:35|191:34,1,90,2|0,0:0|0:0,0:0:0:0:
399,214,187395,6,0,P|432:160|386:31,1,180,6|2,0:0|0:0,0:0:0:0:
337,131,187900,1,0,0:0:0:0:
337,131,188069,2,0,P|292:139|248:146,1,90,2|0,0:0|0:0,0:0:0:0:
112,224,188406,2,0,P|157:231|201:240,1,90,2|0,0:0|0:0,0:0:0:0:
323,340,188743,6,0,P|315:295|306:251,1,90,6|0,0:0|0:0,0:0:0:0:
187,71,189080,1,8,0:0:0:0:
438,191,189249,1,8,0:0:0:0:
158,332,189417,1,8,0:0:0:0:
342,57,189586,1,8,0:0:0:0:
415,296,189754,1,8,0:0:0:0:
141,184,189923,1,2,0:0:0:0:
435,84,190091,5,8,0:0:0:0:
90,270,190260,1,2,0:0:0:0:
475,220,190428,5,8,0:0:0:0:
79,104,190597,1,2,0:0:0:0:
297,382,190765,6,0,L|312:297,1,60,8|2,0:0|0:0,0:0:0:0:
377,134,190934,6,0,L|333:124,1,45,2|2,0:0|0:0,0:0:0:0:
315,102,191102,2,0,P|252:77|147:126,1,182.250000695229,12|0,0:0|0:0,0:0:0:0:
150,149,191440,6,0,P|206:206|322:210,1,198.000006042481,6|8,0:0|0:0,0:0:0:0:
453,102,191945,1,0,0:0:0:0:
405,304,192114,2,0,P|345:316|292:326,1,99.0000030212403,2|2,0:0|0:0,0:0:0:0:
122,222,192452,2,0,P|175:232|229:242,1,99.0000030212403,8|0,0:0|0:0,0:0:0:0:
9,336,192788,6,0,P|-15:279|30:155,1,198.000006042481,2|8,0:0|0:0,0:0:0:0:
249,106,193294,1,0,0:0:0:0:
132,311,193462,1,2,0:0:0:0:
86,76,193631,1,2,0:0:0:0:
302,217,193799,2,0,P|351:210|400:204,1,99.0000030212403,8|0,0:0|0:0,0:0:0:0:
512,15,194136,6,0,P|446:84|351:75,1,198.000006042481,6|8,0:0|0:0,0:0:0:0:
236,9,194641,1,0,0:0:0:0:
164,149,194810,2,0,P|210:142|262:134,1,99.0000030212403,2|2,0:0|0:0,0:0:0:0:
497,218,195147,2,0,P|452:211|399:203,1,99.0000030212403,8|0,0:0|0:0,0:0:0:0:
176,172,195484,5,2,0:0:0:0:
353,325,195653,1,2,0:0:0:0:
94,326,195822,2,0,P|58:291|55:152,1,198.000006042481,8|2,0:0|0:0,0:0:0:0:
154,76,196327,1,0,0:0:0:0:
277,266,196496,2,0,P|231:259|179:251,1,99.0000030212403,8|0,0:0|0:0,0:0:0:0:
326,71,196832,6,0,P|419:52|486:120,2,198.000006042481,6|8|2,0:0|0:0|0:0,0:0:0:0:
289,178,197675,1,2,0:0:0:0:
404,345,197844,2,0,P|414:296|425:248,1,99.0000030212403,8|0,0:0|0:0,0:0:0:0:
241,361,198181,2,0,P|145:367|79:298,1,198.000006042481,2|8,0:0|0:0,0:0:0:0:
297,114,198686,1,0,0:0:0:0:
184,262,198855,1,2,0:0:0:0:
113,92,199023,1,2,0:0:0:0:
327,261,199192,2,0,P|375:254|445:245,1,99.0000030212403,8|0,0:0|0:0,0:0:0:0:
512,72,199529,6,0,P|440:9|349:34,1,198.000006042481,6|8,0:0|0:0,0:0:0:0:
234,191,200035,1,0,0:0:0:0:
418,105,200204,1,2,0:0:0:0:
171,25,200372,1,2,0:0:0:0:
249,297,200541,1,8,0:0:0:0:
319,112,200709,1,2,0:0:0:0:
82,200,200878,5,8,0:0:0:0:
432,85,201046,1,2,0:0:0:0:
144,126,201215,5,12,0:0:0:0:
489,270,201383,1,2,0:0:0:0:
114,291,201552,5,8,0:0:0:0:
493,170,201720,1,8,0:0:0:0:
493,170,201805,1,8,0:0:0:0:
493,170,201889,2,0,P|448:176|392:185,1,60.7500002317429,8|8,0:0|0:0,0:0:0:0:
246,359,202058,2,0,P|201:353|145:344,1,60.7500002317429,8|8,0:0|0:0,0:0:0:0:
73,64,202226,6,0,P|143:20|247:57,2,198.000006042481,6|8|0,0:0|0:0|0:0,0:0:0:0:
49,195,203069,1,2,0:0:0:0:
185,350,203238,2,0,P|234:341|283:331,1,99.0000030212403,8|0,0:0|0:0,0:0:0:0:
470,240,203575,2,0,P|417:230|363:220,1,99.0000030212403,2|2,0:0|0:0,0:0:0:0:
240,148,203911,1,8,0:0:0:0:
130,63,204080,1,0,0:0:0:0:
214,264,204248,1,2,0:0:0:0:
344,75,204417,1,2,0:0:0:0:
65,243,204585,2,0,P|58:194|52:145,1,99.0000030212403,8|0,0:0|0:0,0:0:0:0:
400,175,204923,6,0,P|305:182|239:113,1,198.000006042481,6|8,0:0|0:0,0:0:0:0:
459,76,205429,1,0,0:0:0:0:
406,297,205597,2,0,L|294:277,1,99.0000030212403,2|2,0:0|0:0,0:0:0:0:
110,361,205935,2,0,L|222:341,1,99.0000030212403,8|0,0:0|0:0,0:0:0:0:
113,132,206271,5,2,0:0:0:0:
1,307,206440,1,2,0:0:0:0:
246,206,206609,2,0,P|343:187|439:165,1,198.000006042481,8|2,0:0|0:0,0:0:0:0:
512,80,207114,1,2,0:0:0:0:
450,311,207283,2,0,P|401:304|330:297,1,99.0000030212403,8|0,0:0|0:0,0:0:0:0:
116,235,207619,6,0,P|102:154|183:58,1,198.000006042481,6|8,0:0|0:0,0:0:0:0:
317,27,208125,1,0,0:0:0:0:
372,206,208293,1,2,0:0:0:0:
199,170,208462,1,2,0:0:0:0:
419,85,208630,1,8,0:0:0:0:
259,330,208799,6,0,P|207:321|148:315,1,99.0000030212403,0|2,0:0|0:0,0:0:0:0:
0,197,209136,2,0,P|53:188|112:182,1,99.0000030212403,2|8,0:0|0:0,0:0:0:0:
145,332,209473,1,0,0:0:0:0:
355,236,209641,2,0,P|324:97|272:71,1,198.000006042481,2|8,0:0|0:0,0:0:0:0:
477,38,210147,5,0,0:0:0:0:
477,38,210231,1,0,0:0:0:0:
477,38,210316,2,0,P|453:129|448:154,1,99.0000030212403,6|0,0:0|0:0,0:0:0:0:
276,298,210653,2,0,P|264:249|250:202,1,99.0000030212403,8|0,0:0|0:0,0:0:0:0:
81,85,210990,1,2,0:0:0:0:
136,269,211158,1,0,0:0:0:0:
284,74,211327,2,0,P|235:62|187:54,1,99.0000030212403,8|0,0:0|0:0,0:0:0:0:
1,133,211664,5,2,0:0:0:0:
250,202,211833,1,2,0:0:0:0:
172,36,212001,1,8,0:0:0:0:
116,289,212170,1,2,0:0:0:0:
314,126,212338,1,8,0:0:0:0:
5,228,212507,1,8,0:0:0:0:
5,228,212591,1,8,0:0:0:0:
5,228,212676,1,8,0:0:0:0:
217,381,212844,1,8,0:0:0:0:
200,122,213013,6,0,P|189:170|180:218,1,99.0000030212403,6|0,0:0|0:0,0:0:0:0:
398,328,213350,2,0,P|387:279|380:230,1,99.0000030212403,8|0,0:0|0:0,0:0:0:0:
397,93,213686,1,2,0:0:0:0:
281,266,213855,1,2,0:0:0:0:
512,238,214023,1,8,0:0:0:0:
292,42,214192,6,0,P|241:35|171:24,1,99.0000030212403,0|2,0:0|0:0,0:0:0:0:
23,181,214529,2,0,P|71:173|121:167,1,99.0000030212403,2|8,0:0|0:0,0:0:0:0:
314,154,214866,1,0,0:0:0:0:
151,321,215034,2,0,P|235:366|326:334,1,198.000006042481,2|8,0:0|0:0,0:0:0:0:
494,299,215540,5,0,0:0:0:0:
494,299,215624,1,0,0:0:0:0:
494,299,215709,2,0,P|470:208|465:183,1,99.0000030212403,6|0,0:0|0:0,0:0:0:0:
292,42,216046,2,0,P|277:89|266:137,1,99.0000030212403,8|0,0:0|0:0,0:0:0:0:
244,278,216383,1,2,0:0:0:0:
387,124,216552,1,2,0:0:0:0:
147,213,216721,2,0,P|98:204|50:193,1,99.0000030212403,8|0,0:0|0:0,0:0:0:0:
81,335,217058,5,2,0:0:0:0:
190,99,217227,1,2,0:0:0:0:
33,206,217395,1,8,0:0:0:0:
258,272,217564,1,2,0:0:0:0:
82,70,217732,1,8,0:0:0:0:
189,363,217901,1,8,0:0:0:0:
189,363,217985,1,8,0:0:0:0:
189,363,218070,1,8,0:0:0:0:
343,162,218238,1,8,0:0:0:0:
139,147,218407,6,0,P|150:198|159:244,1,99.0000030212403,6|0,0:0|0:0,0:0:0:0:
339,348,218743,2,0,P|350:297|359:251,1,99.0000030212403,8|0,0:0|0:0,0:0:0:0:
496,176,219080,1,8,0:0:0:0:
249,101,219249,1,8,0:3:0:0:
267,271,219417,1,0,0:0:0:0:
441,73,219586,1,0,0:0:0:0:
148,60,219755,6,0,L|155:0,1,60.7500002317429,8|8,0:0|0:0,0:0:0:0:
350,164,219923,2,0,L|343:104,1,60.7500002317429,8|8,0:0|0:0,0:0:0:0:
170,266,220092,2,0,L|177:206,1,60.7500002317429,8|8,0:0|0:0,0:0:0:0:
415,354,220260,2,0,L|408:294,1,60.7500002317429,8|8,0:0|0:0,0:0:0:0:
102,364,220429,1,12,0:0:0:0:
102,364,221102,6,0,P|158:355|214:349,1,99.0000030212403,6|0,0:0|0:0,0:0:0:0:
219,184,221440,1,8,0:0:0:0:
326,357,221608,1,0,0:0:0:0:
435,238,221777,2,0,P|385:232|336:225,1,99.0000030212403,2|2,0:0|0:0,0:0:0:0:
134,264,222114,1,8,0:0:0:0:
265,86,222282,1,0,0:0:0:0:
0,32,222451,6,0,P|21:109|49:244,1,198.000006042481,6|8,0:0|0:0,0:0:0:0:
219,184,222956,1,0,0:0:0:0:
74,340,223125,1,2,0:0:0:0:
301,255,223293,1,2,0:0:0:0:
127,122,223462,1,8,0:0:0:0:
232,349,223631,1,0,0:0:0:0:
437,148,223799,6,0,P|388:141|332:133,1,99.0000030212403,6|0,0:0|0:0,0:0:0:0:
156,261,224136,1,8,0:0:0:0:
234,72,224305,1,0,0:0:0:0:
345,224,224473,1,2,0:0:0:0:
110,166,224642,1,2,0:0:0:0:
232,349,224810,2,0,P|281:342|337:334,1,99.0000030212403,8|0,0:0|0:0,0:0:0:0:
504,253,225147,6,0,P|541:163|501:77,1,198.000006042481,6|8,0:0|0:0,0:0:0:0:
263,208,225653,1,0,0:0:0:0:
449,163,225822,1,2,0:0:0:0:
449,163,225906,1,8,0:0:0:0:
449,163,225991,1,8,0:0:0:0:
208,78,226159,1,8,0:0:0:0:
341,281,226327,1,2,0:0:0:0:
78,141,226496,5,6,0:0:0:0:
351,117,226665,1,2,0:0:0:0:
215,336,226833,1,8,0:0:0:0:
475,259,227002,1,2,0:0:0:0:
210,207,227170,1,8,0:0:0:0:
368,24,227339,1,2,0:0:0:0:
368,24,227507,1,2,0:0:0:0:
121,270,227676,1,8,0:0:0:0:
449,149,227845,5,6,0:0:0:0:
449,149,228013,1,2,0:0:0:0:
215,336,228182,1,8,0:0:0:0:
143,46,228350,1,2,0:0:0:0:
388,260,228519,1,8,0:0:0:0:
388,260,228603,1,8,0:0:0:0:
388,260,228687,1,8,0:0:0:0:
40,211,228856,1,2,0:0:0:0:
297,34,229024,1,8,0:0:0:0:
323,361,229192,5,6,0:0:0:0:
323,361,229361,1,2,0:0:0:0:
449,126,229530,1,8,0:0:0:0:
137,323,229698,1,2,0:0:0:0:
320,6,229867,1,8,0:0:0:0:
320,6,229951,1,8,0:0:0:0:
320,6,230036,1,8,0:3:0:0:
479,303,230204,1,8,0:0:0:0:
66,50,230373,5,12,0:0:0:0:
