osu file format v14

[General]
AudioFilename: audio.mp3
AudioLeadIn: 0
PreviewTime: 56299
Countdown: 1
SampleSet: Soft
StackLeniency: 0.7
Mode: 0
LetterboxInBreaks: 0
WidescreenStoryboard: 0

[Editor]
DistanceSpacing: 1.4
BeatDivisor: 4
GridSize: 16
TimelineZoom: 2

[Metadata]
Title:Remember (TV Size)
TitleUnicode:Remember (TV Size)
Artist:FLOW
ArtistUnicode:FLOW
Creator:222slavexx222
Version:Hard
Source:Naruto
Tags:Flow, Remember, Naruto Opening 8, Crissof
BeatmapID:1693169
BeatmapSetID:805993

[Difficulty]
HPDrainRate:6
CircleSize:3.7
OverallDifficulty:6
ApproachRate:8
SliderMultiplier:1.4
SliderTickRate:2

[Events]
//Background and Video events
0,0,"Naruto Hinata.jpg",0,0
//Break Periods
//Storyboard Layer 0 (Background)
//Storyboard Layer 1 (Fail)
//Storyboard Layer 2 (Pass)
//Storyboard Layer 3 (Foreground)
//Storyboard Sound Samples

[TimingPoints]
609,348.837209302326,4,2,0,40,1,0
4184,-100,4,2,0,5,0,0
4271,-100,4,2,0,40,0,0
7549,348.837209302326,4,2,0,50,1,0
20107,-83.3333333333333,4,2,0,50,0,0
22897,-100,4,2,0,40,0,0
28479,-71.4285714285714,4,2,0,40,0,0
34060,-100,4,2,0,40,0,0
39642,-71.4285714285714,4,2,0,40,0,0
42432,-71.4285714285714,4,2,0,35,0,0
43828,-71.4285714285714,4,2,0,30,0,0
44525,-71.4285714285714,4,2,0,25,0,0
44700,-71.4285714285714,4,2,0,24,0,0
44874,-71.4285714285714,4,2,0,23,0,0
45049,-71.4285714285714,4,2,0,22,0,0
45136,-71.4285714285714,4,2,0,21,0,0
45223,-100,4,2,0,20,0,0
53595,-100,4,2,0,20,0,0
54293,-100,4,2,0,30,0,0
54990,-100,4,2,0,35,0,0
55688,-100,4,2,0,40,0,0
56037,-100,4,2,0,45,0,0
56211,-100,4,2,0,50,0,0
56386,-100,4,2,0,60,0,1
61967,-83.3333333333333,4,2,0,60,0,1
67549,-100,4,2,0,60,0,1
73130,-83.3333333333333,4,2,0,60,0,1
75921,-100,4,2,0,50,0,0

[Colours]
Combo1 : 128,0,255
Combo2 : 89,181,255
Combo3 : 0,140,255
Combo4 : 0,0,255
Combo5 : 0,0,160

[HitObjects]
151,93,609,6,0,P|122:121|115:178,1,70
127,245,957,1,0,0:0:0:0:
203,183,1132,1,0,0:0:0:0:
237,274,1306,2,0,P|279:261|301:221,1,70
293,143,1655,1,0,0:0:0:0:
203,183,1829,1,0,0:0:0:0:
117,133,2004,6,0,P|128:93|166:70,1,70
245,58,2353,1,0,0:0:0:0:
293,143,2527,1,0,0:0:0:0:
367,79,2702,2,0,P|410:106|424:152,1,70
440,216,3050,1,0,0:0:0:0:
392,301,3225,1,0,0:0:0:0:
392,301,3312,1,0,0:0:0:0:
392,301,3399,6,0,B|340:300|308:255,1,70
359,183,3748,1,0,0:0:0:0:
424,110,3922,2,0,P|374:75|310:69,1,105
314,74,4271,2,0,P|276:87|239:77,1,70
144,62,4620,1,0,0:0:0:0:
144,62,4707,1,0,0:0:0:0:
144,62,4795,6,0,P|115:81|100:112,1,70
195,142,5143,1,0,0:0:0:0:
153,231,5318,1,0,0:0:0:0:
249,216,5492,1,0,0:0:0:0:
224,311,5667,1,0,0:0:0:0:
318,287,5841,1,0,0:0:0:0:
343,192,6015,1,0,0:0:0:0:
284,112,6190,6,0,P|304:71|325:53,1,70
419,40,6539,2,0,P|460:59|477:96,1,70
392,135,6888,2,0,P|410:172|443:190,1,70
502,256,7236,2,0,P|505:299|477:336,1,70
374,339,7549,6,0,L|279:339,1,70,4|0,0:0|0:0,0:0:0:0:
281,228,7898,2,0,L|184:228,1,70
95,258,8247,2,0,L|95:178,1,70
189,117,8596,2,0,L|227:58,1,70
301,152,8945,5,0,0:0:0:0:
346,261,9119,2,0,P|382:248|407:218,1,70,4|0,0:0|0:0,0:0:0:0:
451,116,9468,1,0,0:0:0:0:
451,116,9555,1,0,0:0:0:0:
451,116,9642,2,0,P|404:80|372:78,1,70,4|0,0:0|0:0,0:0:0:0:
302,153,9990,2,0,P|262:163|220:152,1,70
129,91,10340,6,0,B|112:158|112:158|136:233,1,140,4|0,0:0|0:0,0:0:0:0:
234,158,10862,1,0,0:0:0:0:
289,52,11037,2,0,L|379:52,1,70
304,158,11386,2,0,L|215:158,1,70
157,74,11735,5,0,0:0:0:0:
43,108,11909,2,0,P|29:143|36:182,1,70,4|0,0:0|0:0,0:0:0:0:
153,176,12259,1,0,0:0:0:0:
153,176,12346,1,0,0:0:0:0:
153,176,12433,2,0,P|161:218|146:263,1,70,4|0,0:0|0:0,0:0:0:0:
236,332,12782,2,0,P|268:320|287:291,1,70
342,186,13130,6,0,B|334:114|334:114|268:68,1,140,4|0,0:0|0:0,0:0:0:0:
234,186,13654,1,0,0:0:0:0:
147,103,13829,2,0,L|90:182,1,70
110,278,14177,2,0,L|198:298,1,70
234,186,14525,5,0,0:0:0:0:
196,88,14700,2,0,P|217:61|250:54,1,70,4|0,0:0|0:0,0:0:0:0:
325,147,15049,1,0,0:0:0:0:
325,147,15136,1,0,0:0:0:0:
325,147,15223,2,0,P|368:133|397:97,1,70,4|0,0:0|0:0,0:0:0:0:
440,222,15572,2,0,P|401:238|381:269,1,70
298,342,15921,6,0,B|228:326|228:326|182:268,1,140,4|0,0:0|0:0,0:0:0:0:
290,213,16444,1,0,0:0:0:0:
272,94,16619,2,0,L|179:61,1,70
114,146,16967,2,0,L|202:179,1,70
290,213,17317,5,0,0:0:0:0:
371,298,17491,2,0,P|407:285|432:255,1,70,4|0,0:0|0:0,0:0:0:0:
434,151,17840,1,0,0:0:0:0:
434,151,17927,1,0,0:0:0:0:
434,151,18014,2,0,P|417:114|376:85,1,70,4|0,0:0|0:0,0:0:0:0:
290,150,18363,2,0,P|251:164|213:160,1,70
144,72,18712,6,0,B|100:126|100:126|106:198,1,140,4|0,0:0|0:0,0:0:0:0:
222,162,19235,1,0,0:0:0:0:
267,51,19410,2,0,L|360:42,1,70
428,119,19758,2,0,L|356:160,1,70
385,236,20020,1,0,0:0:0:0:
385,236,20107,6,0,B|361:275|361:275|287:302,1,83.9999974365235,4|0,0:0|0:0,0:0:0:0:
183,311,20456,2,0,B|140:306|140:306|103:258,1,83.9999974365235,4|0,0:0|0:0,0:0:0:0:
229,188,20804,2,0,B|204:155|204:155|161:150,1,83.9999974365235,4|0,0:0|0:0,0:0:0:0:
19,130,21153,2,0,B|24:86|24:86|72:50,1,83.9999974365235,4|0,0:0|0:0,0:0:0:0:
161,150,21502,6,0,B|128:174|128:174|123:217,1,83.9999974365235,4|0,0:0|0:0,0:0:0:0:
213,329,21851,2,0,B|253:323|253:323|279:288,1,83.9999974365235,4|0,0:0|0:0,0:0:0:0:
338,186,22200,1,0,0:0:0:0:
412,277,22374,1,0,0:0:0:0:
460,169,22549,1,0,0:0:0:0:
385,78,22723,1,0,0:0:0:0:
385,78,22811,1,0,0:0:0:0:
385,78,22898,6,0,P|354:61|319:62,1,70,0|4,0:0|0:0,0:0:0:0:
240,150,23247,2,0,P|200:165|165:152,1,70,0|4,0:0|0:0,0:0:0:0:
56,142,23596,2,0,P|54:197|81:228,1,70,0|4,0:0|0:0,0:0:0:0:
167,260,23945,2,0,P|211:269|231:303,1,70,0|4,0:0|0:0,0:0:0:0:
292,191,24293,6,0,P|255:172|234:133,1,70,0|4,0:0|0:0,0:0:0:0:
179,45,24642,2,0,P|215:27|249:32,1,70,0|4,0:0|0:0,0:0:0:0:
316,124,24991,2,0,P|364:124|403:101,1,70
438,10,25340,1,0,0:0:0:0:
506,106,25514,1,0,0:0:0:0:
425,194,25689,6,0,P|418:227|427:261,1,70,0|4,0:0|0:0,0:0:0:0:
343,346,26038,2,0,P|308:349|278:333,1,70,0|4,0:0|0:0,0:0:0:0:
326,225,26386,2,0,P|270:214|230:232,1,70,0|4,0:0|0:0,0:0:0:0:
286,100,26735,2,0,P|324:91|365:106,1,70,0|4,0:0|0:0,0:0:0:0:
390,209,27084,6,0,P|355:227|322:223,1,70,0|4,0:0|0:0,0:0:0:0:
215,178,27432,2,0,P|167:169|135:188,1,70,0|4,0:0|0:0,0:0:0:0:
215,276,27782,2,0,P|183:297|139:296,1,70
49,238,28131,1,0,0:0:0:0:
73,123,28305,1,0,0:0:0:0:
73,123,28392,1,0,0:0:0:0:
73,123,28479,6,0,B|118:138|118:138|148:179,1,97.9999970092774,4|0,0:0|0:0,0:0:0:0:
210,299,28828,1,0,0:0:0:0:
239,164,29003,2,0,B|319:109|319:109|423:117,1,195.999994018555,4|0,0:0|0:0,0:0:0:0:
361,242,29526,1,0,0:0:0:0:
239,164,29700,2,0,B|141:175|141:175|76:249,1,195.999994018555,4|0,0:0|0:0,0:0:0:0:
208,289,30224,1,0,0:0:0:0:
335,338,30398,2,0,B|408:273|408:273|414:165,1,195.999994018555,4|0,0:0|0:0,0:0:0:0:
351,52,30921,1,0,0:0:0:0:
276,170,31096,1,0,0:0:0:0:
413,174,31270,6,0,L|408:294,1,97.9999970092774,4|0,0:0|0:0,0:0:0:0:
292,345,31619,2,0,L|185:344,1,97.9999970092774,4|0,0:0|0:0,0:0:0:0:
208,207,31968,2,0,L|106:207,1,97.9999970092774,4|0,0:0|0:0,0:0:0:0:
1,122,32317,2,0,L|67:44,1,97.9999970092774,4|0,0:0|0:0,0:0:0:0:
198,17,32666,6,0,L|271:98,1,97.9999970092774,4|0,0:0|0:0,0:0:0:0:
136,140,33014,2,0,L|208:207,1,97.9999970092774
332,149,33362,1,0,0:0:0:0:
323,286,33537,1,0,0:0:0:0:
207,206,33711,1,0,0:0:0:0:
173,339,33886,1,0,0:0:0:0:
173,339,33974,1,0,0:0:0:0:
173,339,34060,6,0,P|204:356|239:355,1,70,0|4,0:0|0:0,0:0:0:0:
272,234,34409,2,0,P|312:219|347:232,1,70,0|4,0:0|0:0,0:0:0:0:
456,242,34758,2,0,P|458:187|431:156,1,70,0|4,0:0|0:0,0:0:0:0:
345,124,35107,2,0,P|301:115|281:81,1,70,0|4,0:0|0:0,0:0:0:0:
220,193,35455,6,0,P|257:211|278:251,1,70,0|4,0:0|0:0,0:0:0:0:
333,339,35804,2,0,P|296:356|262:351,1,70,0|4,0:0|0:0,0:0:0:0:
196,260,36153,2,0,P|147:259|108:282,1,70
74,374,36502,1,0,0:0:0:0:
6,278,36676,1,0,0:0:0:0:
87,190,36851,6,0,P|93:156|84:122,1,70,0|4,0:0|0:0,0:0:0:0:
169,38,37200,2,0,P|203:34|233:50,1,70,0|4,0:0|0:0,0:0:0:0:
186,159,37548,2,0,P|242:170|282:152,1,70,0|4,0:0|0:0,0:0:0:0:
226,284,37897,2,0,P|188:293|147:278,1,70,0|4,0:0|0:0,0:0:0:0:
122,175,38246,6,0,P|157:156|190:161,1,70,0|4,0:0|0:0,0:0:0:0:
297,206,38595,2,0,P|344:214|376:195,1,70,0|4,0:0|0:0,0:0:0:0:
297,108,38944,2,0,P|329:87|373:88,1,70
463,146,39293,1,0,0:0:0:0:
439,261,39467,1,0,0:0:0:0:
439,261,39554,1,0,0:0:0:0:
439,261,39641,6,0,B|401:251|401:251|366:198,1,70,4|0,0:0|0:0,0:0:0:0:
302,85,39990,1,0,0:0:0:0:
273,220,40165,2,0,B|193:275|193:275|89:267,1,195.999994018555,4|0,0:0|0:0,0:0:0:0:
151,142,40688,1,0,0:0:0:0:
273,220,40862,2,0,B|370:208|370:208|436:135,1,195.999994018555,4|0,0:0|0:0,0:0:0:0:
304,95,41386,1,0,0:0:0:0:
177,46,41560,2,0,B|104:111|104:111|98:219,1,195.999994018555,4|0,0:0|0:0,0:0:0:0:
161,332,42083,1,0,0:0:0:0:
236,214,42258,1,0,0:0:0:0:
99,210,42432,6,0,L|104:90,1,97.9999970092774,4|0,0:0|0:0,0:0:0:0:
220,39,42781,2,0,L|327:40,1,97.9999970092774,4|0,0:0|0:0,0:0:0:0:
304,177,43130,2,0,L|406:177,1,97.9999970092774,4|0,0:0|0:0,0:0:0:0:
511,262,43479,2,0,L|445:340,1,97.9999970092774,4|0,0:0|0:0,0:0:0:0:
314,367,43828,6,0,L|241:286,1,97.9999970092774,4|0,0:0|0:0,0:0:0:0:
376,244,44176,2,0,L|304:177,1,97.9999970092774,4|0,0:0|0:0,0:0:0:0:
173,200,44524,1,0,0:0:0:0:
77,135,44699,1,0,0:0:0:0:
182,78,44874,1,0,0:0:0:0:
288,143,45049,1,0,0:0:0:0:
288,143,45136,1,0,0:0:0:0:
288,143,45224,6,0,P|294:177|283:209,1,70,4|0,0:0|0:0,0:0:0:0:
380,219,45573,2,0,P|427:238|441:264,1,70
383,334,45921,2,0,P|335:351|294:347,1,70
227,311,46269,1,4,0:0:0:0:
294,238,46445,1,0,0:0:0:0:
206,194,46619,6,0,P|215:152|237:118,1,70
325,145,46968,2,0,P|339:103|329:69,1,70
245,35,47317,2,0,P|206:28|170:40,1,70
213,146,47666,1,4,0:0:0:0:
101,105,47840,1,0,0:0:0:0:
101,105,47927,1,0,0:0:0:0:
101,105,48014,6,0,P|105:148|132:177,1,70
213,146,48363,2,0,P|196:176|196:211,1,70
244,296,48712,2,0,P|275:266|290:232,1,70
362,304,49060,1,4,0:0:0:0:
389,209,49235,1,0,0:0:0:0:
487,214,49410,6,0,P|490:179|475:148,1,70
412,72,49759,2,0,P|387:103|338:115,1,70
389,209,50107,2,0,P|346:217|306:197,1,70
259,133,50456,1,4,0:0:0:0:
191,61,50631,1,0,0:0:0:0:
191,61,50718,1,0,0:0:0:0:
191,61,50805,6,0,P|151:80|123:117,1,70
174,187,51154,2,0,P|161:226|188:274,1,70
245,314,51503,2,0,P|287:308|333:280,1,70
274,205,51852,2,0,P|317:189|370:186,1,70
351,102,52112,1,0,0:0:0:0:
351,102,52200,6,0,L|430:140,1,70,4|0,0:0|0:0,0:0:0:0:
472,192,52461,1,0,0:0:0:0:
472,192,52549,2,0,L|399:257,1,70,4|0,0:0|0:0,0:0:0:0:
346,221,52810,1,0,0:0:0:0:
346,221,52897,2,0,L|313:311,1,70,4|0,0:0|0:0,0:0:0:0:
256,332,53159,1,0,0:0:0:0:
256,332,53246,2,0,L|160:332,1,70,4|0,0:0|0:0,0:0:0:0:
86,265,53596,6,0,L|81:224,2,35,4|0|0,0:0|0:0|0:0,0:0:0:0:
197,222,53945,2,0,L|224:194,2,35,4|0|0,0:0|0:0|0:0,0:0:0:0:
125,127,54293,2,0,L|120:83,2,35,4|0|0,0:0|0:0|0:0,0:0:0:0:
223,60,54642,2,0,L|268:83,2,35,4|0|0,0:0|0:0|0:0,0:0:0:0:
245,176,54990,2,0,L|290:199,2,35,4|0|0,0:0|0:0|0:0,0:0:0:0:
359,143,55339,2,0,L|404:166,2,35,4|0|0,0:0|0:0|0:0,0:0:0:0:
355,263,55688,2,0,L|310:310,3,35,4|0|4|0,0:0|0:0|0:0|0:0,0:0:0:0:
244,309,56037,2,0,L|190:299,3,35,4|0|4|0,0:0|0:0|0:0|0:0,0:0:0:0:
131,225,56386,6,0,P|134:186|157:158,1,70,4|0,0:0|0:0,0:0:0:0:
248,92,56735,1,0,0:0:0:0:
273,207,56909,1,0,0:0:0:0:
366,133,57084,2,0,P|382:171|418:195,1,70,4|0,0:0|0:0,0:0:0:0:
352,296,57432,1,0,0:0:0:0:
273,207,57607,1,0,0:0:0:0:
366,133,57781,6,0,P|345:105|315:86,1,70,4|0,0:0|0:0,0:0:0:0:
196,90,58131,2,0,P|160:106|134:142,1,70
189,237,58479,2,0,P|199:273|189:312,1,70,4|0,0:0|0:0,0:0:0:0:
73,314,58828,2,0,P|59:275|70:237,1,70
61,128,59177,6,0,B|124:96|124:96|217:126,1,140,4|0,0:0|0:0,0:0:0:0:
290,182,59700,1,0,0:0:0:0:
295,301,59875,2,0,L|371:336,1,70
439,242,60224,2,0,L|468:163,1,70
450,55,60572,6,0,B|378:33|378:33|299:76,1,140,4|0,0:0|0:0,0:0:0:0:
291,175,61095,2,0,L|224:198,1,70
183,86,61444,2,0,L|101:95,1,70
67,203,61793,1,0,0:0:0:0:
67,203,61880,1,0,0:0:0:0:
67,203,61968,6,0,P|73:248|101:285,1,83.9999974365235,4|0,0:0|0:0,0:0:0:0:
231,319,62317,2,0,P|281:301|308:276,1,83.9999974365235,4|0,0:0|0:0,0:0:0:0:
202,180,62666,2,0,P|232:151|272:142,1,83.9999974365235,4|0,0:0|0:0,0:0:0:0:
344,235,63014,1,0,0:0:0:0:
390,126,63189,1,0,0:0:0:0:
475,206,63362,6,0,P|475:249|453:288,1,83.9999974365235,4|0,0:0|0:0,0:0:0:0:
344,235,63712,2,0,P|304:223|281:189,1,83.9999974365235,4|0,0:0|0:0,0:0:0:0:
330,81,64061,2,0,P|290:63|238:74,1,83.9999974365235,4|0,0:0|0:0,0:0:0:0:
201,175,64410,1,0,0:0:0:0:
133,78,64584,1,0,0:0:0:0:
251,68,64759,6,0,P|284:104|294:151,1,83.9999974365235,4|0,0:0|0:0,0:0:0:0:
409,119,65107,2,0,P|411:162|387:203,1,83.9999974365235
293,137,65456,2,0,P|256:151|222:201,1,83.9999974365235,4|0,0:0|0:0,0:0:0:0:
306,271,65805,2,0,P|275:298|235:312,1,83.9999974365235
119,292,66154,6,0,L|71:203,1,83.9999974365235,4|0,0:0|0:0,0:0:0:0:
94,101,66503,2,0,L|186:64,1,83.9999974365235,4|0,0:0|0:0,0:0:0:0:
283,106,66852,2,0,L|235:211,1,83.9999974365235,4|0,0:0|0:0,0:0:0:0:
135,213,67200,1,0,0:0:0:0:
135,213,67288,1,0,0:0:0:0:
135,213,67375,1,0,0:0:0:0:
135,213,67462,1,0,0:0:0:0:
135,213,67549,6,0,P|138:174|161:146,1,70,4|0,0:0|0:0,0:0:0:0:
248,92,67898,1,0,0:0:0:0:
273,207,68072,1,0,0:0:0:0:
366,133,68247,2,0,P|382:171|418:195,1,70,4|0,0:0|0:0,0:0:0:0:
352,296,68595,1,0,0:0:0:0:
273,207,68770,1,0,0:0:0:0:
366,133,68945,6,0,P|345:105|315:86,1,70,4|0,0:0|0:0,0:0:0:0:
196,90,69294,2,0,P|160:106|134:142,1,70
189,237,69642,2,0,P|199:273|189:312,1,70,4|0,0:0|0:0,0:0:0:0:
73,314,69991,2,0,P|59:275|70:237,1,70
61,128,70340,6,0,B|124:96|124:96|217:126,1,140,4|0,0:0|0:0,0:0:0:0:
293,178,70863,1,0,0:0:0:0:
285,297,71038,2,0,L|370:330,1,70
436,239,71387,2,0,L|465:160,1,70
450,55,71735,6,0,B|378:33|378:33|299:76,1,140,4|0,0:0|0:0,0:0:0:0:
291,175,72258,2,0,L|224:198,1,70
183,86,72607,2,0,L|101:95,1,70
62,200,72955,1,0,0:0:0:0:
62,200,73043,1,0,0:0:0:0:
62,200,73131,6,0,P|81:236|117:257,1,83.9999974365235,4|0,0:0|0:0,0:0:0:0:
203,176,73479,2,0,P|251:193|281:236,1,83.9999974365235,4|0,0:0|0:0,2:0:0:0:
376,272,73828,2,0,P|390:209|374:167,1,83.9999974365235,4|0,0:0|0:0,0:0:0:0:
329,87,74177,2,0,P|290:69|249:65,1,83.9999974365235
203,176,74525,6,0,P|153:171|106:141,1,83.9999974365235,4|0,0:0|0:0,0:0:0:0:
33,232,74875,2,0,P|54:288|91:312,1,83.9999974365235,4|0,0:0|0:0,0:0:0:0:
182,342,75224,2,0,P|228:351|286:333,1,83.9999974365235,4|0,0:0|0:0,0:0:0:0:
358,273,75573,2,0,P|350:229|326:200,1,83.9999974365235
212,234,75921,5,0,0:0:0:0:
166,124,76095,2,0,P|130:137|105:167,1,70,4|0,0:0|0:0,0:0:0:0:
61,268,76444,1,0,0:0:0:0:
61,268,76531,1,0,0:0:0:0:
61,268,76618,2,0,P|108:304|140:306,1,70,4|0,0:0|0:0,0:0:0:0:
212,234,76967,2,0,P|249:221|292:232,1,70
383,293,77316,6,0,B|400:226|400:226|376:151,1,140,4|0,0:0|0:0,0:0:0:0:
278,226,77838,1,0,0:0:0:0:
223,332,78013,2,0,L|133:332,1,70
208,226,78362,2,0,L|297:226,1,70
355,310,78711,5,0,0:0:0:0:
469,276,78885,2,0,P|482:240|475:201,1,70,4|0,0:0|0:0,0:0:0:0:
359,208,79235,1,0,0:0:0:0:
359,208,79322,1,0,0:0:0:0:
359,208,79409,2,0,P|351:166|365:120,1,70,4|0,0:0|0:0,0:0:0:0:
276,52,79758,2,0,P|243:63|224:92,1,70
170,198,80106,6,0,B|178:270|178:270|243:315,1,140,4|0,0:0|0:0,0:0:0:0:
278,198,80630,1,0,0:0:0:0:
365,281,80805,2,0,L|422:202,1,70
402,106,81153,2,0,L|314:86,1,70
278,198,81501,5,0,0:0:0:0:
316,296,81676,2,0,P|294:322|261:329,1,70,4|0,0:0|0:0,0:0:0:0:
187,237,82025,1,0,0:0:0:0:
187,237,82112,1,0,0:0:0:0:
187,237,82199,2,0,P|144:251|114:286,1,70,4|0,0:0|0:0,0:0:0:0:
72,162,82548,2,0,P|110:145|130:114,1,70
214,42,82897,6,0,B|284:58|284:58|329:115,1,140,4|0,0:0|0:0,0:0:0:0:
222,171,83420,1,0,0:0:0:0:
240,290,83595,2,0,L|333:323,1,70
398,238,83943,2,0,L|310:205,1,70
222,171,84293,5,0,0:0:0:0:
141,86,84467,2,0,P|105:99|80:129,1,70,4|0,0:0|0:0,0:0:0:0:
77,232,84816,1,0,0:0:0:0:
77,232,84903,1,0,0:0:0:0:
77,232,84990,2,0,P|94:269|135:298,1,70,4|0,0:0|0:0,0:0:0:0:
222,234,85339,2,0,P|261:220|299:224,1,70
368,312,85688,6,0,B|411:257|411:257|405:185,1,140,4|0,0:0|0:0,0:0:0:0:
290,222,86211,1,0,0:0:0:0:
191,290,86386,1,0,0:0:0:0:
184,162,86560,1,0,0:0:0:0:
76,262,86735,1,0,0:0:0:0:
74,95,86909,1,0,0:0:0:0:
