osu file format v14

[General]
AudioFilename: FLOW - Niji no Sora.mp3
AudioLeadIn: 0
PreviewTime: 58222
Countdown: 0
SampleSet: None
StackLeniency: 0.7
Mode: 1
LetterboxInBreaks: 0
WidescreenStoryboard: 0

[Editor]
DistanceSpacing: 1
BeatDivisor: 4
GridSize: 32
TimelineZoom: 4.099998

[Metadata]
Title:Niji no Sora (TV Size)
TitleUnicode:虹の空 (TV Size)
Artist:FLOW
ArtistUnicode:FLOW
Creator:AIR315
Version:Kantan
Source:Naruto Shippuden
Tags:Naruto Sasuke Sakura Kakashi Minato Madara Obito Hinata Hokage Ninja Ending
BeatmapID:891544
BeatmapSetID:410457

[Difficulty]
HPDrainRate:7
CircleSize:5
OverallDifficulty:3
ApproachRate:5
SliderMultiplier:1.2
SliderTickRate:1

[Events]
//Background and Video events
0,0,"BG.jpg",0,78
//Break Periods
//Storyboard Layer 0 (Background)
//Storyboard Layer 1 (Fail)
//Storyboard Layer 2 (Pass)
//Storyboard Layer 3 (Foreground)
//Storyboard Sound Samples

[TimingPoints]
1050,314.13612565445,4,1,0,85,1,0
58851,-100,4,1,0,85,0,1
81468,-100,4,1,0,85,0,0

[Colours]
Combo1 : 0,0,255
Combo2 : 255,0,0

[HitObjects]
256,192,3563,5,4,0:0:0:0:
256,192,4819,1,8,0:0:0:0:
256,192,6076,1,0,0:0:0:0:
256,192,7332,1,8,0:0:0:0:
256,192,8589,1,0,0:0:0:0:
256,192,9845,1,8,0:0:0:0:
256,192,10474,1,0,0:0:0:0:
256,192,11102,1,0,0:0:0:0:
256,192,11730,1,0,0:0:0:0:
256,192,12044,1,0,0:0:0:0:
256,192,12358,1,4,0:0:0:0:
256,192,12987,1,8,0:0:0:0:
256,192,13615,1,0,0:0:0:0:
256,192,14243,1,8,0:0:0:0:
256,192,14871,1,0,0:0:0:0:
256,192,15500,1,8,0:0:0:0:
256,192,16128,1,0,0:0:0:0:
256,192,16756,1,8,0:0:0:0:
256,192,17070,1,8,0:0:0:0:
256,192,17385,1,4,0:0:0:0:
256,192,18641,1,0,0:0:0:0:
256,192,19898,1,8,0:0:0:0:
256,192,21154,1,8,0:0:0:0:
256,192,22411,1,0,0:0:0:0:
256,192,23667,1,8,0:0:0:0:
256,192,24924,1,0,0:0:0:0:
256,192,26180,1,8,0:0:0:0:
256,192,27437,1,4,0:0:0:0:
256,192,28065,1,0,0:0:0:0:
256,192,28693,1,0,0:0:0:0:
256,192,29008,1,0,0:0:0:0:
256,192,29322,1,0,0:0:0:0:
256,192,29950,1,0,0:0:0:0:
256,192,30578,1,0,0:0:0:0:
256,192,31207,1,0,0:0:0:0:
256,192,31521,1,0,0:0:0:0:
256,192,31835,1,0,0:0:0:0:
256,192,32463,1,12,0:0:0:0:
256,192,33091,1,8,0:0:0:0:
256,192,33720,1,8,0:0:0:0:
256,192,34034,1,8,0:0:0:0:
256,192,34348,1,8,0:0:0:0:
256,192,34976,1,8,0:0:0:0:
256,192,35604,1,8,0:0:0:0:
256,192,36233,1,8,0:0:0:0:
256,192,36547,1,8,0:0:0:0:
256,192,36861,1,0,0:0:0:0:
256,192,37332,1,4,0:0:0:0:
256,192,38118,1,8,0:0:0:0:
256,192,38746,1,0,0:0:0:0:
256,192,39374,1,8,0:0:0:0:
256,192,40002,1,0,0:0:0:0:
256,192,40631,1,8,0:0:0:0:
256,192,41259,1,0,0:0:0:0:
256,192,41887,1,8,0:0:0:0:
256,192,42515,1,0,0:0:0:0:
256,192,42830,1,0,0:0:0:0:
256,192,43144,1,0,0:0:0:0:
256,192,43772,1,8,0:0:0:0:
256,192,45029,1,8,0:0:0:0:
256,192,45343,1,8,0:0:0:0:
256,192,45657,1,8,0:0:0:0:
256,192,46285,1,0,0:0:0:0:
256,192,47385,1,4,0:0:0:0:
256,192,48170,1,8,0:0:0:0:
256,192,48798,1,0,0:0:0:0:
256,192,49426,1,8,0:0:0:0:
256,192,50055,1,0,0:0:0:0:
256,192,50683,1,8,0:0:0:0:
256,192,51311,1,8,0:0:0:0:
256,192,51625,1,8,0:0:0:0:
256,192,51940,1,8,0:0:0:0:
256,192,52254,1,8,0:0:0:0:
256,192,52568,1,4,0:0:0:0:
256,192,53196,1,8,0:0:0:0:
256,192,53824,1,0,0:0:0:0:
256,192,54139,1,0,0:0:0:0:
256,192,54453,1,8,0:0:0:0:
256,192,55081,1,0,0:0:0:0:
256,192,55395,1,0,0:0:0:0:
256,192,55709,1,8,0:0:0:0:
256,192,56337,12,0,57280,0:0:0:0:
256,192,57594,5,12,0:0:0:0:
256,192,58222,1,0,0:0:0:0:
256,192,58693,1,4,0:0:0:0:
256,192,59479,1,8,0:0:0:0:
256,192,60735,1,8,0:0:0:0:
256,192,61992,1,8,0:0:0:0:
256,192,63248,1,8,0:0:0:0:
256,192,63877,1,4,0:0:0:0:
256,192,64505,1,8,0:0:0:0:
256,192,65133,1,0,0:0:0:0:
256,192,65447,1,0,0:0:0:0:
256,192,65762,1,8,0:0:0:0:
256,192,66076,1,8,0:0:0:0:
256,192,66390,1,0,0:0:0:0:
256,192,67018,1,8,0:0:0:0:
256,192,67646,1,0,0:0:0:0:
256,192,68275,1,8,0:0:0:0:
256,192,68746,1,4,0:0:0:0:
256,192,69217,1,8,0:0:0:0:
256,192,69531,1,8,0:0:0:0:
256,192,69845,1,8,0:0:0:0:
256,192,70474,1,8,0:0:0:0:
256,192,70788,1,8,0:0:0:0:
256,192,71102,1,8,0:0:0:0:
256,192,71730,1,8,0:0:0:0:
256,192,72044,1,8,0:0:0:0:
256,192,72358,1,8,0:0:0:0:
256,192,72987,1,8,0:0:0:0:
256,192,73301,1,8,0:0:0:0:
256,192,73615,1,8,0:0:0:0:
256,192,73929,1,4,0:0:0:0:
256,192,74557,1,8,0:0:0:0:
256,192,75186,1,0,0:0:0:0:
256,192,75814,1,8,0:0:0:0:
256,192,76442,1,0,0:0:0:0:
256,192,76756,1,0,0:0:0:0:
256,192,77070,1,0,0:0:0:0:
256,192,77699,1,8,0:0:0:0:
256,192,78013,1,8,0:0:0:0:
256,192,78327,1,8,0:0:0:0:
256,192,78955,1,4,0:0:0:0:
256,192,79584,1,8,0:0:0:0:
256,192,79898,1,0,0:0:0:0:
256,192,80212,1,12,0:0:0:0:
256,192,80526,1,12,0:0:0:0:
256,192,81154,1,4,0:0:0:0:
256,192,81468,1,12,0:0:0:0:
256,192,82097,1,0,0:0:0:0:
256,192,82725,1,4,0:0:0:0:
256,192,83353,1,8,0:0:0:0:
256,192,83981,1,0,0:0:0:0:
256,192,84296,1,0,0:0:0:0:
256,192,84610,1,8,0:0:0:0:
256,192,85238,1,0,0:0:0:0:
256,192,85866,1,8,0:0:0:0:
256,192,86337,1,4,0:0:0:0:
256,192,86495,12,0,87437,0:0:0:0:
