osu file format v14

[General]
AudioFilename: FLOW - Niji no Sora.mp3
AudioLeadIn: 0
PreviewTime: 58222
Countdown: 0
SampleSet: None
StackLeniency: 0.7
Mode: 1
LetterboxInBreaks: 0
WidescreenStoryboard: 0

[Editor]
DistanceSpacing: 1
BeatDivisor: 4
GridSize: 32
TimelineZoom: 4.099998

[Metadata]
Title:Niji no Sora (TV Size)
TitleUnicode:虹の空 (TV Size)
Artist:FLOW
ArtistUnicode:FLOW
Creator:AIR315
Version:Futsuu
Source:Naruto Shippuden
Tags:Naruto Sasuke Sakura Kakashi Minato Madara Obito Hinata Hokage Ninja Ending
BeatmapID:891543
BeatmapSetID:410457

[Difficulty]
HPDrainRate:6
CircleSize:5
OverallDifficulty:4
ApproachRate:5
SliderMultiplier:1.2
SliderTickRate:1

[Events]
//Background and Video events
0,0,"BG.jpg",0,78
//Break Periods
//Storyboard Layer 0 (Background)
//Storyboard Layer 1 (Fail)
//Storyboard Layer 2 (Pass)
//Storyboard Layer 3 (Foreground)
//Storyboard Sound Samples

[TimingPoints]
1050,314.13612565445,4,1,0,85,1,0
58851,-100,4,1,0,85,0,1
81468,-100,4,1,0,85,0,0

[Colours]
Combo1 : 0,0,255
Combo2 : 255,0,0

[HitObjects]
256,192,3563,5,4,0:0:0:0:
256,192,4191,1,0,0:0:0:0:
256,192,4819,1,8,0:0:0:0:
256,192,6076,1,0,0:0:0:0:
256,192,6704,1,0,0:0:0:0:
256,192,7332,1,8,0:0:0:0:
256,192,8589,1,0,0:0:0:0:
256,192,8903,1,0,0:0:0:0:
256,192,9217,1,0,0:0:0:0:
256,192,9845,1,8,0:0:0:0:
256,192,10474,1,8,0:0:0:0:
256,192,11102,1,8,0:0:0:0:
256,192,11259,1,8,0:0:0:0:
256,192,11416,1,8,0:0:0:0:
256,192,11730,1,8,0:0:0:0:
256,192,11887,1,8,0:0:0:0:
256,192,12044,1,8,0:0:0:0:
256,192,12358,1,4,0:0:0:0:
256,192,12673,1,0,0:0:0:0:
256,192,12987,1,8,0:0:0:0:
256,192,13615,1,0,0:0:0:0:
256,192,13929,1,0,0:0:0:0:
256,192,14243,1,8,0:0:0:0:
256,192,14400,1,8,0:0:0:0:
256,192,14871,1,0,0:0:0:0:
256,192,15186,1,0,0:0:0:0:
256,192,15500,1,8,0:0:0:0:
256,192,16128,1,0,0:0:0:0:
256,192,16442,1,0,0:0:0:0:
256,192,16756,1,8,0:0:0:0:
256,192,16913,1,8,0:0:0:0:
256,192,17070,1,8,0:0:0:0:
256,192,17385,1,4,0:0:0:0:
256,192,18013,1,8,0:0:0:0:
256,192,18641,1,0,0:0:0:0:
256,192,19269,1,8,0:0:0:0:
256,192,19898,1,0,0:0:0:0:
256,192,20526,1,8,0:0:0:0:
256,192,21154,1,0,0:0:0:0:
256,192,21782,1,8,0:0:0:0:
256,192,22411,1,0,0:0:0:0:
256,192,22725,1,0,0:0:0:0:
256,192,23039,1,0,0:0:0:0:
256,192,23667,1,8,0:0:0:0:
256,192,23981,1,8,0:0:0:0:
256,192,24296,1,8,0:0:0:0:
256,192,24924,1,0,0:0:0:0:
256,192,25238,1,0,0:0:0:0:
256,192,25552,1,0,0:0:0:0:
256,192,25866,1,0,0:0:0:0:
256,192,26180,1,0,0:0:0:0:
256,192,26966,1,0,0:0:0:0:
256,192,27123,1,8,0:0:0:0:
256,192,27437,1,4,0:0:0:0:
256,192,27751,1,0,0:0:0:0:
256,192,28065,1,0,0:0:0:0:
256,192,28379,1,0,0:0:0:0:
256,192,28693,1,0,0:0:0:0:
256,192,29007,1,0,0:0:0:0:
256,192,29321,1,0,0:0:0:0:
256,192,29635,1,0,0:0:0:0:
256,192,29950,1,0,0:0:0:0:
256,192,30264,1,0,0:0:0:0:
256,192,30578,1,0,0:0:0:0:
256,192,30892,1,0,0:0:0:0:
256,192,31207,1,0,0:0:0:0:
256,192,31521,1,0,0:0:0:0:
256,192,31835,1,0,0:0:0:0:
256,192,32149,1,0,0:0:0:0:
256,192,32463,1,4,0:0:0:0:
256,192,32777,1,0,0:0:0:0:
256,192,32934,1,0,0:0:0:0:
256,192,33091,1,0,0:0:0:0:
256,192,33406,1,0,0:0:0:0:
256,192,33720,1,8,0:0:0:0:
256,192,34034,1,8,0:0:0:0:
256,192,34191,1,8,0:0:0:0:
256,192,34348,1,8,0:0:0:0:
256,192,34662,1,8,0:0:0:0:
256,192,34976,1,4,0:0:0:0:
256,192,35447,1,12,0:0:0:0:
256,192,35919,1,4,0:0:0:0:
256,192,36233,1,0,0:0:0:0:
256,192,36547,1,0,0:0:0:0:
256,192,36861,1,8,0:0:0:0:
256,192,37018,1,8,0:0:0:0:
256,192,37332,1,4,0:0:0:0:
256,192,37803,1,8,0:0:0:0:
256,192,38118,1,0,0:0:0:0:
256,192,38432,1,8,0:0:0:0:
256,192,38746,1,0,0:0:0:0:
256,192,39060,1,0,0:0:0:0:
256,192,39374,1,8,0:0:0:0:
256,192,39531,1,8,0:0:0:0:
256,192,39845,1,12,0:0:0:0:
256,192,40317,1,0,0:0:0:0:
256,192,40631,1,8,0:0:0:0:
256,192,40945,1,0,0:0:0:0:
256,192,41259,1,8,0:0:0:0:
256,192,41573,1,0,0:0:0:0:
256,192,41887,1,0,0:0:0:0:
256,192,42044,1,0,0:0:0:0:
256,192,42358,1,12,0:0:0:0:
256,192,42830,1,0,0:0:0:0:
256,192,43144,1,8,0:0:0:0:
256,192,43772,1,0,0:0:0:0:
256,192,44086,1,0,0:0:0:0:
256,192,44400,1,8,0:0:0:0:
256,192,44871,1,4,0:0:0:0:
256,192,45343,1,0,0:0:0:0:
256,192,45657,1,8,0:0:0:0:
256,192,46285,1,8,0:0:0:0:
256,192,46599,1,8,0:0:0:0:
256,192,46913,1,8,0:0:0:0:
256,192,47070,1,8,0:0:0:0:
256,192,47385,1,4,0:0:0:0:
256,192,47856,1,0,0:0:0:0:
256,192,48170,1,0,0:0:0:0:
256,192,48798,1,8,0:0:0:0:
256,192,49112,1,8,0:0:0:0:
256,192,49426,1,8,0:0:0:0:
256,192,49898,1,12,0:0:0:0:
256,192,50369,1,8,0:0:0:0:
256,192,50683,1,8,0:0:0:0:
256,192,51311,1,0,0:0:0:0:
256,192,51468,1,0,0:0:0:0:
256,192,51625,1,0,0:0:0:0:
256,192,51940,1,8,0:0:0:0:
256,192,52097,1,8,0:0:0:0:
256,192,52411,1,4,0:0:0:0:
256,192,52882,1,8,0:0:0:0:
256,192,53196,1,0,0:0:0:0:
256,192,53510,1,8,0:0:0:0:
256,192,53824,1,0,0:0:0:0:
256,192,54139,1,8,0:0:0:0:
256,192,54453,1,0,0:0:0:0:
256,192,54767,1,8,0:0:0:0:
256,192,55081,1,0,0:0:0:0:
256,192,55396,1,8,0:0:0:0:
256,192,55709,1,0,0:0:0:0:
256,192,56023,1,8,0:0:0:0:
256,192,56337,1,0,0:0:0:0:
256,192,56495,1,0,0:0:0:0:
256,192,56652,1,0,0:0:0:0:
256,192,56966,1,8,0:0:0:0:
256,192,57123,1,8,0:0:0:0:
256,192,57280,1,8,0:0:0:0:
256,192,57594,1,12,0:0:0:0:
256,192,58222,1,0,0:0:0:0:
256,192,58379,1,8,0:0:0:0:
256,192,58693,1,4,0:0:0:0:
256,192,59165,1,8,0:0:0:0:
256,192,59479,1,0,0:0:0:0:
256,192,59636,1,0,0:0:0:0:
256,192,60107,1,0,0:0:0:0:
256,192,60421,1,8,0:0:0:0:
256,192,60735,1,0,0:0:0:0:
256,192,60892,1,0,0:0:0:0:
256,192,61364,1,0,0:0:0:0:
256,192,61678,1,0,0:0:0:0:
256,192,61992,1,8,0:0:0:0:
256,192,62149,1,8,0:0:0:0:
256,192,62620,1,0,0:0:0:0:
256,192,62934,1,0,0:0:0:0:
256,192,63248,1,8,0:0:0:0:
256,192,63405,1,8,0:0:0:0:
256,192,63877,1,4,0:0:0:0:
256,192,64191,1,0,0:0:0:0:
256,192,64505,1,8,0:0:0:0:
256,192,65133,1,8,0:0:0:0:
256,192,65290,1,8,0:0:0:0:
256,192,65447,1,8,0:0:0:0:
256,192,65762,1,8,0:0:0:0:
256,192,65919,1,8,0:0:0:0:
256,192,66076,1,8,0:0:0:0:
256,192,66390,1,0,0:0:0:0:
256,192,67018,1,8,0:0:0:0:
256,192,67646,1,0,0:0:0:0:
256,192,68275,1,0,0:0:0:0:
256,192,68432,1,0,0:0:0:0:
256,192,68746,1,12,0:0:0:0:
256,192,69217,1,8,0:0:0:0:
256,192,69531,1,8,0:0:0:0:
256,192,69845,1,8,0:0:0:0:
256,192,70159,1,8,0:0:0:0:
256,192,70474,1,8,0:0:0:0:
256,192,70788,1,8,0:0:0:0:
256,192,71102,1,8,0:0:0:0:
256,192,71416,1,8,0:0:0:0:
256,192,71730,1,8,0:0:0:0:
256,192,72044,1,8,0:0:0:0:
256,192,72358,1,8,0:0:0:0:
256,192,72672,1,8,0:0:0:0:
256,192,72987,1,8,0:0:0:0:
256,192,73301,1,8,0:0:0:0:
256,192,73615,1,8,0:0:0:0:
256,192,73929,1,4,0:0:0:0:
256,192,74243,1,0,0:0:0:0:
256,192,74557,1,0,0:0:0:0:
256,192,74714,1,0,0:0:0:0:
256,192,74871,1,0,0:0:0:0:
256,192,75186,1,8,0:0:0:0:
256,192,75500,1,8,0:0:0:0:
256,192,75814,1,8,0:0:0:0:
256,192,75971,1,8,0:0:0:0:
256,192,76128,1,8,0:0:0:0:
256,192,76442,1,0,0:0:0:0:
256,192,76756,1,0,0:0:0:0:
256,192,77070,1,8,0:0:0:0:
256,192,77228,1,8,0:0:0:0:
256,192,77385,1,8,0:0:0:0:
256,192,77699,1,8,0:0:0:0:
256,192,78013,1,8,0:0:0:0:
256,192,78327,1,0,0:0:0:0:
256,192,78484,1,0,0:0:0:0:
256,192,78641,1,0,0:0:0:0:
256,192,78955,1,4,0:0:0:0:
256,192,79584,1,8,0:0:0:0:
256,192,79898,1,0,0:0:0:0:
256,192,80212,1,12,0:0:0:0:
256,192,80526,1,12,0:0:0:0:
256,192,81154,1,4,0:0:0:0:
256,192,81468,1,12,0:0:0:0:
256,192,81940,1,8,0:0:0:0:
256,192,82411,1,8,0:0:0:0:
256,192,82725,1,4,0:0:0:0:
256,192,83039,1,8,0:0:0:0:
256,192,83353,1,0,0:0:0:0:
256,192,83667,1,8,0:0:0:0:
256,192,83981,1,0,0:0:0:0:
256,192,84295,1,8,0:0:0:0:
256,192,84610,1,0,0:0:0:0:
256,192,84767,1,0,0:0:0:0:
256,192,85081,1,4,0:0:0:0:
256,192,85552,1,8,0:0:0:0:
256,192,85866,1,0,0:0:0:0:
256,192,86023,1,0,0:0:0:0:
256,192,86180,1,8,0:0:0:0:
256,192,86337,1,8,0:0:0:0:
256,192,86495,12,0,87437,0:0:0:0:
