osu file format v14

[General]
AudioFilename: audio.mp3
AudioLeadIn: 0
PreviewTime: 54522
Countdown: 0
SampleSet: Soft
StackLeniency: 0.7
Mode: 0
LetterboxInBreaks: 0
WidescreenStoryboard: 1

[Editor]
Bookmarks: 18098
DistanceSpacing: 1.2
BeatDivisor: 4
GridSize: 4
TimelineZoom: 0.8

[Metadata]
Title:Kaze no Uta -TV Size-
TitleUnicode:風ノ唄 -TV Size-
Artist:FLOW
ArtistUnicode:FLOW
Creator:B r o k e n
Version:Insane
Source:テイルズ オブ ゼスティリア ザ クロス
Tags:Tales of Zestiria the X Cross: Saiyaku no Jidai Ending ED OP Opening Gear XxSeonxX Lefia
BeatmapID:1023687
BeatmapSetID:477437

[Difficulty]
HPDrainRate:6
CircleSize:4
OverallDifficulty:8
ApproachRate:9
SliderMultiplier:1.8
SliderTickRate:1

[Events]
//Background and Video events
0,0,"ToZ.jpg",0,0
Video,0,"ZestiriaX.avi"
//Break Periods
//Storyboard Layer 0 (Background)
//Storyboard Layer 1 (Fail)
//Storyboard Layer 2 (Pass)
//Storyboard Layer 3 (Foreground)
//Storyboard Sound Samples

[TimingPoints]
3818,422.535211267606,4,2,0,70,1,0
17127,-125,4,2,0,50,0,0
23888,-100,4,2,0,50,0,0
27479,-125,4,2,0,50,0,0
39733,-100,4,2,0,50,0,0
47761,-83.3333333333333,4,2,0,50,0,0
54522,-76.9230769230769,4,2,0,70,0,1
78184,-100,4,2,0,50,0,0

[Colours]
Combo1 : 0,151,0
Combo2 : 0,0,255
Combo3 : 236,0,0
Combo4 : 236,236,0

[HitObjects]
68,256,3818,6,0,P|148:232|244:272,1,180
328,316,4451,1,0,0:0:0:0:
420,140,4663,2,0,P|432:88|416:40,1,90
320,96,5085,2,0,P|276:108|224:92,1,90
140,44,5508,5,0,0:0:0:0:
180,180,5719,1,0,0:0:0:0:
100,140,5930,1,0,0:0:0:0:
233,97,6141,1,0,0:0:0:0:
148,256,6353,2,0,P|104:240|68:200,1,90
124,36,6775,2,0,P|164:56|196:92,1,90
176,352,7198,6,0,P|244:288|224:196,1,180
300,132,7832,1,0,0:0:0:0:
300,132,7937,1,0,0:0:0:0:
300,132,8043,2,0,P|348:124|408:140,1,90
464,208,8465,2,0,P|476:256|452:316,1,90
232,284,8888,6,0,L|328:256,1,90
356,360,9310,1,0,0:0:0:0:
292,172,9522,2,0,L|205:197,1,90
124,124,9944,2,0,L|316:68,1,180
44,96,10578,6,0,P|58:180|140:208,1,180
248,204,11212,1,0,0:0:0:0:
176,288,11423,2,0,P|144:324|116:380,1,90
284,332,11846,2,0,P|320:296|340:240,1,90
336,116,12268,5,0,0:0:0:0:
335,260,12479,1,0,0:0:0:0:
392,188,12691,1,0,0:0:0:0:
248,208,12902,1,0,0:0:0:0:
296,36,13113,2,0,P|340:28|388:44,1,90
208,88,13536,2,0,P|160:100|116:84,1,90
256,192,13958,12,0,15437,0:0:0:0:
256,192,15648,12,0,16916,0:0:0:0:
344,124,17127,5,0,0:0:0:0:
344,124,17233,1,0,0:0:0:0:
344,124,17339,2,0,P|352:164|328:216,1,72,2|0,0:0|0:0,0:0:0:0:
292,260,17761,1,2,0:0:0:0:
276,60,17972,2,0,P|344:36|420:72,1,144
480,112,18606,1,2,0:0:0:0:
480,24,18818,1,0,0:0:0:0:
408,132,19029,5,2,0:0:0:0:
324,156,19240,1,0,0:0:0:0:
316,240,19451,1,2,0:0:0:0:
176,92,19663,2,0,P|108:68|28:104,1,144
108,144,20296,1,2,0:0:0:0:
244,60,20508,1,0,0:0:0:0:
244,60,20613,1,0,0:0:0:0:
244,60,20719,6,0,P|284:52|332:72,1,72,2|0,0:0|0:0,0:0:0:0:
392,96,21141,1,2,0:0:0:0:
380,12,21353,1,0,0:0:0:0:
312,140,21564,2,0,P|276:148|228:124,1,72,2|0,0:0|0:0,0:0:0:0:
176,92,21987,1,2,0:0:0:0:
212,244,22198,1,0,0:0:0:0:
212,244,22303,1,0,0:0:0:0:
212,244,22409,6,0,P|248:252|300:232,1,72,2|0,0:0|0:0,0:0:0:0:
392,176,22832,1,2,0:0:0:0:
312,140,23043,1,0,0:0:0:0:
436,104,23254,2,0,P|444:68|428:20,1,72,2|0,0:0|0:0,0:0:0:0:
356,72,23677,1,2,0:0:0:0:
204,124,23888,5,0,0:0:0:0:
204,124,23994,1,0,0:0:0:0:
204,124,24099,1,2,0:0:0:0:
344,204,24310,1,0,0:0:0:0:
344,204,24416,1,0,0:0:0:0:
344,204,24522,1,2,0:0:0:0:
236,212,24733,1,0,0:0:0:0:
304,104,24944,1,2,0:0:0:0:
280,284,25156,2,0,P|236:296|188:280,1,90,0|2,0:0|0:0,0:0:0:0:
40,192,25578,1,0,0:0:0:0:
40,192,25684,1,0,0:0:0:0:
40,192,25789,5,2,0:0:0:0:
104,280,26001,1,0,0:0:0:0:
188,120,26212,1,2,0:0:0:0:
208,224,26423,1,0,0:0:0:0:
84,92,26634,1,2,0:0:0:0:
124,192,26846,1,0,0:0:0:0:
28,344,27057,1,2,0:0:0:0:
132,200,27268,1,0,0:0:0:0:
132,200,27374,1,0,0:0:0:0:
132,200,27479,6,0,P|172:192|228:216,1,72,2|0,0:0|0:0,0:0:0:0:
284,224,27902,1,2,0:0:0:0:
364,192,28113,1,0,0:0:0:0:
320,320,28325,2,0,P|284:328|248:320,1,72,2|0,0:0|0:0,0:0:0:0:
80,216,28747,1,2,0:0:0:0:
140,156,28958,1,0,0:0:0:0:
160,268,29170,6,0,L|176:360,1,72,2|0,0:0|0:0,0:0:0:0:
256,364,29592,1,2,0:0:0:0:
80,220,29803,2,0,P|144:176|224:200,1,144
284,228,30437,1,2,0:0:0:0:
372,152,30648,1,0,0:0:0:0:
372,152,30754,1,0,0:0:0:0:
372,152,30860,6,0,P|384:112|368:68,1,72,2|0,0:0|0:0,0:0:0:0:
324,16,31282,1,2,0:0:0:0:
284,124,31494,1,0,0:0:0:0:
284,124,31599,1,0,0:0:0:0:
284,124,31705,2,0,P|276:160|288:200,1,72,2|0,0:0|0:0,0:0:0:0:
416,348,32127,1,2,0:0:0:0:
416,260,32339,1,0,0:0:0:0:
272,324,32550,6,0,P|236:332|200:324,1,72,2|0,0:0|0:0,0:0:0:0:
284,193,32972,2,0,P|320:188|360:196,1,72,2|0,0:0|0:0,0:0:0:0:
200,232,33395,2,0,P|188:196|216:144,1,72,2|0,0:0|0:0,0:0:0:0:
248,96,33818,1,2,0:0:0:0:
360,200,34029,1,0,0:0:0:0:
360,200,34134,1,0,0:0:0:0:
360,200,34240,6,0,P|368:240|356:280,1,72,2|0,0:0|0:0,0:0:0:0:
304,332,34663,1,2,0:0:0:0:
236,280,34874,2,0,P|196:272|156:284,1,72,0|2,0:0|0:0,0:0:0:0:
88,316,35296,1,0,0:0:0:0:
204,152,35508,1,2,0:0:0:0:
80,184,35719,1,0,0:0:0:0:
80,184,35825,1,0,0:0:0:0:
80,184,35930,5,2,0:0:0:0:
176,40,36141,1,0,0:0:0:0:
80,184,36353,1,2,0:0:0:0:
212,160,36564,1,0,0:0:0:0:
212,160,36670,1,0,0:0:0:0:
212,160,36775,2,0,P|244:188|260:236,1,72,2|0,0:0|0:0,0:0:0:0:
184,328,37198,2,0,P|156:304|143:268,1,72,2|0,0:0|0:0,0:0:0:0:
344,188,37620,6,0,P|358:120|315:66,1,144,2|2,0:0|0:0,0:0:0:0:
236,24,38254,1,0,0:0:0:0:
160,64,38465,1,2,0:0:0:0:
80,28,38677,1,0,0:0:0:0:
64,68,38782,1,0,0:0:0:0:
56,112,38888,1,2,0:0:0:0:
60,156,38994,1,0,0:0:0:0:
76,196,39099,1,0,0:0:0:0:
92,236,39205,1,0,0:0:0:0:
124,264,39310,2,0,P|160:272|200:260,1,72,2|0,0:0|0:0,0:0:0:0:
324,168,39733,6,0,P|372:160|432:180,1,90,2|0,0:0|0:0,0:0:0:0:
256,216,40156,2,0,P|240:172|260:116,1,90,2|0,0:0|0:0,0:0:0:0:
348,260,40578,2,0,L|368:368,1,90,2|0,0:0|0:0,0:0:0:0:
204,328,41001,6,0,P|188:288|187:239,1,90,2|0,0:0|0:0,0:0:0:0:
100,304,41423,1,2,0:0:0:0:
256,180,41634,2,0,P|276:232|272:276,1,90,0|2,0:0|0:0,0:0:0:0:
360,200,42057,1,0,0:0:0:0:
172,368,42268,1,2,0:0:0:0:
196,264,42479,6,0,P|176:224|149:187,1,90,0|2,0:0|0:0,0:0:0:0:
8,152,42902,2,0,P|22:188|54:228,1,90,0|2,0:0|0:0,0:0:0:0:
144,112,43325,2,0,P|184:84|248:88,1,90,0|2,0:0|0:0,0:0:0:0:
148,4,43747,1,0,0:0:0:0:
208,156,43958,1,2,0:0:0:0:
220,200,44064,1,0,0:0:0:0:
236,244,44170,1,0,0:0:0:0:
248,288,44275,1,0,0:0:0:0:
264,332,44381,6,0,P|312:344|364:328,1,90,2|0,0:0|0:0,0:0:0:0:
448,288,44803,1,2,0:0:0:0:
308,201,45015,2,0,P|264:188|216:201,1,90,0|2,0:0|0:0,0:0:0:0:
124,252,45437,1,0,0:0:0:0:
272,48,45648,1,2,0:0:0:0:
352,120,45860,6,0,L|428:192,1,90,0|2,0:0|0:0,0:0:0:0:
380,24,46282,1,0,0:0:0:0:
272,48,46494,1,2,0:0:0:0:
248,152,46705,2,0,L|324:224,1,90,0|2,0:0|0:0,0:0:0:0:
220,360,47127,1,0,0:0:0:0:
220,360,47233,1,0,0:0:0:0:
220,360,47339,2,0,P|172:368|128:360,1,90,2|0,0:0|0:0,0:0:0:0:
56,232,47761,5,2,0:0:0:0:
180,144,47972,1,0,0:0:0:0:
64,328,48184,1,2,0:0:0:0:
120,188,48395,1,0,0:0:0:0:
180,328,48606,1,2,0:0:0:0:
52,156,48818,1,0,0:0:0:0:
196,112,49029,1,2,0:0:0:0:
152,256,49240,1,0,0:0:0:0:
88,48,49451,5,2,0:0:0:0:
164,180,49663,1,0,0:0:0:0:
260,64,49874,1,2,0:0:0:0:
360,256,50085,1,0,0:0:0:0:
304,156,50296,1,2,0:0:0:0:
444,212,50508,1,0,0:0:0:0:
228,236,50719,1,2,0:0:0:0:
184,92,50930,1,0,0:0:0:0:
152,328,51141,5,2,0:0:0:0:
360,40,51458,1,0,0:0:0:0:
152,328,51775,1,0,0:0:0:0:
504,8,52198,1,0,0:0:0:0:
468,240,52409,1,2,0:0:0:0:
276,100,52620,1,0,0:0:0:0:
468,240,52832,5,2,0:0:0:0:
240,176,53043,1,0,0:0:0:0:
336,260,53254,1,2,0:0:0:0:
336,260,53677,1,2,0:0:0:0:
336,260,54099,1,2,0:0:0:0:
64,76,54522,5,0,1:0:0:0:
200,168,54733,1,0,0:0:0:0:
200,168,54839,1,0,0:0:0:0:
200,168,54944,1,0,1:0:0:0:
64,200,55156,1,0,0:0:0:0:
148,16,55367,1,0,1:0:0:0:
132,248,55578,1,8,0:0:0:0:
148,16,55789,1,8,1:0:0:0:
280,112,56001,1,0,0:0:0:0:
216,260,56212,5,0,1:0:0:0:
228,48,56423,1,0,0:0:0:0:
228,48,56529,1,0,0:0:0:0:
228,48,56634,1,0,1:0:0:0:
148,164,56846,1,0,0:0:0:0:
316,40,57057,1,0,1:0:0:0:
304,272,57268,1,8,0:0:0:0:
168,84,57479,1,8,1:0:0:0:
272,140,57691,1,0,0:0:0:0:
64,112,57902,6,0,L|24:224,1,116.999994644165,0|0,1:0|0:0,0:0:0:0:
4,264,58219,1,0,0:0:0:0:
4,312,58325,1,0,1:0:0:0:
164,284,58536,1,0,0:0:0:0:
232,188,58747,1,0,1:0:0:0:
432,312,58958,1,8,0:0:0:0:
468,80,59170,1,8,1:0:0:0:
376,216,59381,1,0,0:0:0:0:
344,104,59592,5,0,1:0:0:0:
480,196,59803,2,0,P|508:256|516:324,1,116.999994644165,0|0,0:0|1:0,0:0:0:0:
360,252,60226,1,0,0:0:0:0:
296,100,60437,1,0,1:0:0:0:
116,252,60648,1,8,0:0:0:0:
228,44,60860,1,8,1:0:0:0:
132,112,61071,1,0,0:0:0:0:
332,44,61282,6,0,P|392:28|460:60,1,116.999994644165,0|0,1:0|0:0,0:0:0:0:
340,228,61705,1,0,1:0:0:0:
256,60,61916,1,0,0:0:0:0:
476,192,62127,1,8,1:0:0:0:
240,192,62339,1,8,0:0:0:0:
52,332,62550,1,8,1:0:0:0:
168,344,62761,1,0,0:0:0:0:
144,184,62972,5,0,1:0:0:0:
60,340,63184,1,0,0:0:0:0:
60,340,63289,1,0,0:0:0:0:
60,340,63395,1,0,1:0:0:0:
144,184,63606,1,0,0:0:0:0:
300,336,63818,1,0,1:0:0:0:
420,136,64029,1,8,0:0:0:0:
236,280,64240,2,0,L|216:152,1,116.999994644165,8|0,1:0|0:0,0:0:0:0:
140,336,64663,6,0,P|260:380|348:288,1,233.999989288331,0|0,1:0|1:0,0:0:0:0:
440,196,65296,1,0,0:0:0:0:
336,321,65508,2,0,P|304:264|296:192,1,116.999994644165,0|0,1:0|0:0,0:0:0:0:
352,36,65930,2,0,P|380:90|392:143,1,116.999994644165,0|0,1:0|0:0,0:0:0:0:
240,80,66353,5,0,1:0:0:0:
196,68,66459,1,0,0:0:0:0:
148,60,66565,1,0,0:0:0:0:
104,68,66670,1,0,0:0:0:0:
60,84,66775,2,0,P|40:148|56:200,1,116.999994644165,0|0,1:0|0:0,0:0:0:0:
228,312,67198,2,0,L|296:356,2,58.4999973220826,0|0|0,1:0|0:0|0:0,0:0:0:0:
52,194,67620,2,0,P|107:177|161:197,1,116.999994644165,0|0,1:0|0:0,0:0:0:0:
372,300,68043,5,0,1:0:0:0:
256,156,68254,1,0,0:0:0:0:
256,156,68360,1,0,0:0:0:0:
256,156,68465,1,0,1:0:0:0:
396,152,68677,1,0,0:0:0:0:
228,68,68888,1,0,1:0:0:0:
400,228,69099,1,8,0:0:0:0:
192,332,69310,1,8,1:0:0:0:
256,156,69522,1,0,0:0:0:0:
324,332,69733,5,0,1:0:0:0:
328,192,69944,2,0,L|360:244,2,58.4999973220826,0|0|0,0:0|0:0|1:0,0:0:0:0:
220,240,70367,1,0,0:0:0:0:
360,116,70578,1,0,1:0:0:0:
296,340,70789,1,8,0:0:0:0:
360,116,71001,1,8,1:0:0:0:
452,220,71212,1,0,0:0:0:0:
264,128,71423,5,0,1:0:0:0:
216,120,71529,1,0,0:0:0:0:
172,112,71634,1,0,0:0:0:0:
124,120,71740,1,0,0:0:0:0:
80,132,71846,1,0,1:0:0:0:
136,260,72057,1,0,0:0:0:0:
264,128,72268,1,0,1:0:0:0:
168,368,72479,1,8,0:0:0:0:
264,128,72691,1,8,1:0:0:0:
364,192,72902,1,0,0:0:0:0:
264,128,73113,5,0,1:0:0:0:
280,268,73325,1,0,0:0:0:0:
264,128,73536,1,0,1:0:0:0:
140,272,73747,1,0,0:0:0:0:
264,128,73958,1,0,1:0:0:0:
52,228,74170,1,8,0:0:0:0:
140,12,74381,1,8,1:0:0:0:
196,116,74592,1,0,0:0:0:0:
8,116,74803,5,0,1:0:0:0:
192,232,75015,2,0,L|276:292,2,58.4999973220826,0|0|0,0:0|0:0|1:0,0:0:0:0:
196,116,75437,1,0,0:0:0:0:
64,280,75648,1,0,1:0:0:0:
284,364,75860,1,8,0:0:0:0:
280,132,76071,1,8,1:0:0:0:
204,220,76282,1,0,0:0:0:0:
364,252,76494,5,0,1:0:0:0:
336,68,76705,1,0,0:0:0:0:
336,68,76810,1,0,0:0:0:0:
336,68,76916,1,0,1:0:0:0:
268,268,77127,1,0,0:0:0:0:
336,68,77339,1,0,1:0:0:0:
108,116,77550,1,8,0:0:0:0:
332,184,77761,1,8,1:0:0:0:
332,184,78184,5,2,0:0:0:0:
176,200,78395,1,0,0:0:0:0:
276,96,78606,2,0,P|324:108|380:88,1,90,2|0,0:0|0:0,0:0:0:0:
492,32,79029,1,2,0:0:0:0:
488,140,79240,1,0,0:0:0:0:
324,28,79451,2,0,P|280:16|232:28,1,90,2|0,0:0|0:0,0:0:0:0:
80,144,79874,5,2,0:0:0:0:
316,308,80085,1,0,0:0:0:0:
176,212,81564,5,2,0:0:0:0:
252,288,81775,2,0,L|224:336,2,45,0|0|2,0:0|0:0|0:0,0:0:0:0:
360,276,82198,1,0,0:0:0:0:
444,208,82409,2,0,L|444:144,2,45,2|0|0,0:0|0:0|0:0,0:0:0:0:
348,156,82832,2,0,L|348:52,1,90,2|0,0:0|0:0,0:0:0:0:
252,116,83254,6,0,P|204:124|156:112,1,90,2|0,0:0|0:0,0:0:0:0:
164,115,83571,1,0,0:0:0:0:
164,115,83677,1,2,0:0:0:0:
64,72,83888,1,0,0:0:0:0:
132,240,84099,2,0,P|180:252|236:236,1,90,2|0,0:0|0:0,0:0:0:0:
44,200,84522,2,0,P|32:240|48:296,1,90,2|0,0:0|0:0,0:0:0:0:
180,168,84944,6,0,P|264:136|356:188,1,180,2|2,0:0|0:0,0:0:0:0:
436,228,85578,1,0,0:0:0:0:
436,84,85789,2,0,L|436:39,2,45,2|0|0,0:0|0:0|0:0,0:0:0:0:
288,20,86212,1,2,0:0:0:0:
344,172,86423,1,0,0:0:0:0:
148,144,86634,5,2,0:0:0:0:
340,88,86846,1,0,0:0:0:0:
188,216,87057,1,2,0:0:0:0:
132,216,87163,1,0,0:0:0:0:
84,192,87268,1,0,0:0:0:0:
72,140,87374,1,4,0:0:0:0:
