osu file format v14

[General]
AudioFilename: audio.mp3
AudioLeadIn: 0
PreviewTime: 52890
Countdown: 0
SampleSet: Soft
StackLeniency: 0.7
Mode: 3
LetterboxInBreaks: 0
SpecialStyle: 0
WidescreenStoryboard: 1

[Editor]
Bookmarks: 16366
DistanceSpacing: 0.6
BeatDivisor: 4
GridSize: 4
TimelineZoom: 1.9

[Metadata]
Title:Kaze no Uta -TV Size-
TitleUnicode:風ノ唄 -TV Size-
Artist:FLOW
ArtistUnicode:FLOW
Creator:AlisceaSparku
Version:Arzenvald's 6K HD
Source:テイルズ オブ ゼスティリア ザ クロス
Tags:Tales of Zestiria the X opening tv size - ly0572 - -soragami- eternalie arzenvald arcwinolivirus
BeatmapID:1052015
BeatmapSetID:487622

[Difficulty]
HPDrainRate:7.7
CircleSize:6
OverallDifficulty:7.7
ApproachRate:5
SliderMultiplier:1.4
SliderTickRate:1

[Events]
//Background and Video events
0,0,"bg.jpg",0,0
//Break Periods
//Storyboard Layer 0 (Background)
//Storyboard Layer 1 (Fail)
//Storyboard Layer 2 (Pass)
//Storyboard Layer 3 (Foreground)
//Storyboard Sound Samples
Sample,38735,0,"kick.wav",70
Sample,55637,0,"soft-hitclap.wav",70
Sample,57327,0,"kick.wav",70
Sample,59017,0,"soft-hitclap.wav",70
Sample,60707,0,"soft-hitfinish.wav",50
Sample,60707,0,"soft-hitclap.wav",70
Sample,62397,0,"soft-hitclap.wav",70
Sample,64087,0,"soft-hitclap.wav",70
Sample,69158,0,"kick.wav",70
Sample,70848,0,"kick.wav",70
Sample,72538,0,"soft-hitclap.wav",70
Sample,74228,0,"soft-hitclap.wav",70
Sample,74228,0,"soft-hitfinish.wav",50
Sample,75918,0,"kick.wav",70
Sample,77608,0,"soft-hitclap.wav",70

[TimingPoints]
285,422.535211267606,4,2,1,20,1,0
54369,-100,4,2,1,40,0,1
66200,-100,4,2,1,40,0,0
67890,-100,4,2,1,40,0,1
79721,-100,4,2,1,40,0,0

[HitObjects]
298,192,285,5,0,0:0:0:0:
128,192,496,1,0,0:0:0:0:
384,192,707,1,0,0:0:0:0:
213,192,918,1,0,0:0:0:0:
469,192,1024,1,0,0:0:0:0:
128,192,1235,1,0,0:0:0:0:
384,192,1341,1,0,0:0:0:0:
42,192,1552,1,0,0:0:0:0:
298,192,1658,1,0,0:0:0:0:
469,192,1869,1,0,0:0:0:0:
213,192,1975,1,0,0:0:0:0:
128,192,2186,1,0,0:0:0:0:
469,192,2397,1,0,0:0:0:0:
213,192,2608,1,0,0:0:0:0:
384,192,2714,1,0,0:0:0:0:
128,192,2925,1,0,0:0:0:0:
298,192,3031,1,0,0:0:0:0:
42,192,3242,128,0,3665:0:0:0:0:
298,192,3242,1,0,0:0:0:0:
469,192,3348,1,0,0:0:0:0:
213,192,3559,1,0,0:0:0:0:
128,192,3665,128,0,4299:0:0:0:50:soft-hitfinish.wav
384,192,3665,1,0,0:0:0:0:
469,192,3982,1,0,0:0:0:0:
384,192,4087,1,0,0:0:0:0:
213,192,4299,128,0,4510:0:0:0:0:
42,192,4299,1,0,0:0:0:0:
298,192,4510,128,0,5355:0:0:0:0:
469,192,4510,1,0,0:0:0:0:
128,192,4721,1,0,0:0:0:0:
469,192,4932,1,0,0:0:0:0:
128,192,5144,1,0,0:0:0:0:
469,192,5355,128,0,6200:0:0:0:0:
42,192,5355,1,0,0:0:0:0:
384,192,5672,1,0,0:0:0:0:
213,192,5777,1,0,0:0:0:0:
384,192,5989,1,0,0:0:0:0:
42,192,6200,128,0,6623:0:0:0:0:
128,192,6200,1,0,0:0:0:0:
213,192,6411,1,0,0:0:0:0:
469,192,6623,128,0,7045:0:0:0:0:
384,192,6623,1,0,0:0:0:0:
298,192,6834,1,0,0:0:0:0:
42,192,7045,128,0,7679:0:0:0:0:
213,192,7045,1,0,0:0:0:0:
469,192,7362,1,0,0:0:0:0:
298,192,7468,1,0,0:0:0:0:
128,192,7679,1,0,0:0:0:0:
213,192,7679,128,0,7890:0:0:0:0:
298,192,7890,128,0,8735:0:0:0:0:
384,192,7890,1,0,0:0:0:0:
128,192,8101,1,0,0:0:0:0:
384,192,8313,1,0,0:0:0:0:
128,192,8524,1,0,0:0:0:0:
42,192,8735,1,0,0:0:0:0:
469,192,8735,128,0,9158:0:0:0:0:
384,192,9052,1,0,0:0:0:0:
298,192,9158,128,0,9369:0:0:0:0:
128,192,9158,1,0,0:0:0:0:
213,192,9369,128,0,9580:0:0:0:0:
42,192,9580,128,0,9792:0:0:0:0:
384,192,9580,1,0,0:0:0:0:
213,192,9792,128,0,10003:0:0:0:0:
469,192,10003,128,0,10214:0:0:0:0:
128,192,10003,1,0,0:0:0:0:
298,192,10214,128,0,10425:0:0:0:0:
42,192,10425,128,0,11059:0:0:0:0:
213,192,10425,1,0,0:0:0:0:
384,192,10742,1,0,0:0:0:0:
213,192,10848,1,0,0:0:0:0:
128,192,11059,128,0,11270:0:0:0:0:
298,192,11059,1,0,0:0:0:0:
384,192,11270,128,0,12115:0:0:0:0:
469,192,11270,1,0,0:0:0:0:
42,192,11482,1,0,0:0:0:0:
213,192,11693,1,0,0:0:0:0:
42,192,11904,1,0,0:0:0:0:
469,192,12115,128,0,12961:0:0:0:0:
213,192,12115,1,0,0:0:0:0:
298,192,12432,1,0,0:0:0:0:
128,192,12538,1,0,0:0:0:0:
384,192,12749,1,0,0:0:0:0:
128,192,12961,128,0,13383:0:0:0:0:
42,192,12961,1,0,0:0:0:0:
213,192,13172,1,0,0:0:0:0:
384,192,13383,128,0,13806:0:0:0:0:
469,192,13383,1,0,0:0:0:0:
298,192,13594,1,0,0:0:0:0:
42,192,13806,128,0,15496:0:0:0:0:
469,192,13806,128,0,15496:0:0:0:0:
213,192,13806,1,0,0:0:0:0:
298,192,14123,1,0,0:0:0:0:
213,192,14228,1,0,0:0:0:0:
298,192,14439,1,0,0:0:0:0:
128,192,14651,1,0,0:0:0:0:
384,192,14862,1,0,0:0:0:0:
128,192,15073,1,0,0:0:0:0:
384,192,15285,1,0,0:0:0:0:
213,192,15496,1,0,0:0:0:0:
298,192,15496,1,0,0:0:0:0:
384,192,16975,1,0,0:0:0:0:
213,192,17080,1,0,0:0:0:0:
42,192,17186,1,0,0:0:0:70:kick.wav
128,192,17186,1,0,0:0:0:0:
42,192,17608,1,0,0:0:0:70:kick.wav
128,192,17608,1,0,0:0:0:0:
384,192,17820,128,0,18242:0:0:0:0:
42,192,18031,1,0,0:0:0:70:kick.wav
128,192,18031,1,0,0:0:0:0:
298,192,18242,1,0,0:0:0:0:
128,192,18454,1,0,0:0:0:70:kick.wav
42,192,18454,1,0,0:0:0:0:
469,192,18665,1,0,0:0:0:0:
384,192,18770,1,0,0:0:0:0:
213,192,18876,1,0,0:0:0:70:kick.wav
298,192,18876,1,0,0:0:0:0:
213,192,19299,1,0,0:0:0:70:kick.wav
298,192,19299,1,0,0:0:0:0:
42,192,19510,128,0,19932:0:0:0:0:
213,192,19721,1,0,0:0:0:70:kick.wav
298,192,19721,1,0,0:0:0:0:
469,192,19932,1,0,0:0:0:0:
213,192,20144,1,0,0:0:0:70:kick.wav
298,192,20144,1,0,0:0:0:0:
42,192,20355,1,0,0:0:0:0:
128,192,20461,1,0,0:0:0:0:
384,192,20566,1,0,0:0:0:70:kick.wav
469,192,20566,1,0,0:0:0:0:
384,192,20989,1,0,0:0:0:70:kick.wav
469,192,20989,1,0,0:0:0:0:
213,192,21200,128,0,21623:0:0:0:0:
384,192,21411,1,0,0:0:0:70:kick.wav
469,192,21411,1,0,0:0:0:0:
42,192,21623,1,0,0:0:0:0:
384,192,21834,1,0,0:0:0:70:kick.wav
469,192,21834,1,0,0:0:0:0:
298,192,22045,1,0,0:0:0:0:
128,192,22151,1,0,0:0:0:0:
213,192,22256,1,0,0:0:0:70:kick.wav
42,192,22256,1,0,0:0:0:0:
42,192,22679,1,0,0:0:0:70:kick.wav
213,192,22679,1,0,0:0:0:0:
384,192,22890,128,0,23313:0:0:0:0:
42,192,23101,1,0,0:0:0:70:kick.wav
213,192,23101,1,0,0:0:0:0:
128,192,23313,1,0,0:0:0:0:
42,192,23524,1,0,0:0:0:70:kick.wav
213,192,23524,1,0,0:0:0:0:
469,192,23735,1,0,0:0:0:0:
298,192,23841,1,0,0:0:0:0:
128,192,23946,1,0,0:0:0:70:kick.wav
384,192,23946,1,0,0:0:0:0:
128,192,24369,1,0,0:0:0:70:kick.wav
384,192,24369,1,0,0:0:0:0:
42,192,24580,128,0,25003:0:0:0:0:
384,192,24792,1,0,0:0:0:70:kick.wav
128,192,24792,1,0,0:0:0:0:
213,192,25003,1,0,0:0:0:0:
42,192,25214,1,0,0:0:0:70:kick.wav
469,192,25214,1,0,0:0:0:0:
384,192,25425,1,0,0:0:0:0:
298,192,25531,1,0,0:0:0:0:
213,192,25637,1,0,0:0:0:70:kick.wav
469,192,25637,128,0,25848:0:0:0:0:
384,192,25848,128,0,26059:0:0:0:0:
42,192,26059,1,0,0:0:0:70:kick.wav
298,192,26059,128,0,26270:0:0:0:0:
213,192,26270,128,0,26482:0:0:0:0:
469,192,26482,1,0,0:0:0:70:kick.wav
298,192,26482,128,0,26693:0:0:0:0:
213,192,26693,128,0,26904:0:0:0:0:
469,192,26904,1,0,0:0:0:70:kick.wav
128,192,26904,128,0,27115:0:0:0:0:
42,192,27115,128,0,27327:0:0:0:0:
469,192,27327,1,0,0:0:0:70:kick.wav
384,192,27327,1,0,0:0:0:0:
384,192,27749,1,0,0:0:0:70:kick.wav
469,192,27749,1,0,0:0:0:0:
128,192,27961,128,0,28383:0:0:0:0:
384,192,28172,1,0,0:0:0:70:kick.wav
469,192,28172,1,0,0:0:0:0:
213,192,28383,1,0,0:0:0:0:
128,192,28594,1,0,0:0:0:70:kick.wav
469,192,28594,1,0,0:0:0:70:soft-hitclap.wav
298,192,28594,1,0,0:0:0:0:
42,192,28806,1,0,0:0:0:0:
128,192,28911,1,0,0:0:0:0:
298,192,29017,1,0,0:0:0:70:kick.wav
213,192,29017,1,0,0:0:0:0:
298,192,29439,1,0,0:0:0:70:kick.wav
213,192,29439,1,0,0:0:0:0:
469,192,29651,128,0,30073:0:0:0:0:
298,192,29862,1,0,0:0:0:70:kick.wav
213,192,29862,1,0,0:0:0:0:
42,192,30073,1,0,0:0:0:0:
213,192,30285,1,0,0:0:0:70:kick.wav
298,192,30285,1,0,0:0:0:0:
128,192,30496,1,0,0:0:0:0:
384,192,30601,1,0,0:0:0:0:
42,192,30707,1,0,0:0:0:70:kick.wav
469,192,30707,128,0,31130:0:0:0:0:
42,192,31130,1,0,0:0:0:70:kick.wav
298,192,31130,1,0,0:0:0:0:
213,192,31341,1,0,0:0:0:0:
298,192,31446,1,0,0:0:0:0:
384,192,31552,128,0,31975:0:0:0:70:kick.wav
42,192,31552,1,0,0:0:0:0:
42,192,31975,1,0,0:0:0:70:kick.wav
213,192,31975,1,0,0:0:0:70:soft-hitclap.wav
469,192,31975,1,0,0:0:0:0:
128,192,32186,1,0,0:0:0:0:
213,192,32292,1,0,0:0:0:0:
469,192,32397,1,0,0:0:0:70:kick.wav
298,192,32397,1,0,0:0:0:0:
42,192,32397,128,0,32820:0:0:0:0:
213,192,32608,1,0,0:0:0:0:
469,192,32820,1,0,0:0:0:70:kick.wav
298,192,32820,1,0,0:0:0:0:
42,192,33031,128,0,33454:0:0:0:0:
384,192,33031,1,0,0:0:0:0:
469,192,33242,1,0,0:0:0:70:kick.wav
298,192,33242,1,0,0:0:0:0:
213,192,33454,1,0,0:0:0:0:
469,192,33665,1,0,0:0:0:70:kick.wav
128,192,33665,1,0,0:0:0:0:
42,192,33876,1,0,0:0:0:0:
213,192,33982,1,0,0:0:0:0:
128,192,34087,1,0,0:0:0:70:kick.wav
384,192,34087,1,0,0:0:0:0:
128,192,34510,1,0,0:0:0:70:kick.wav
384,192,34510,1,0,0:0:0:0:
469,192,34721,128,0,35144:0:0:0:0:
128,192,34932,1,0,0:0:0:70:kick.wav
384,192,34932,1,0,0:0:0:0:
298,192,35144,1,0,0:0:0:0:
42,192,35355,1,0,0:0:0:70:soft-hitclap.wav
469,192,35355,1,0,0:0:0:70:kick.wav
213,192,35355,1,0,0:0:0:0:
128,192,35566,1,0,0:0:0:0:
213,192,35672,1,0,0:0:0:0:
42,192,35777,1,0,0:0:0:70:kick.wav
384,192,35777,1,0,0:0:0:0:
298,192,35777,1,0,0:0:0:0:
128,192,35989,1,0,0:0:0:0:
469,192,36200,1,0,0:0:0:70:kick.wav
213,192,36200,1,0,0:0:0:0:
298,192,36411,1,0,0:0:0:0:
469,192,36517,1,0,0:0:0:0:
42,192,36623,1,0,0:0:0:70:kick.wav
213,192,36623,1,0,0:0:0:0:
298,192,36834,1,0,0:0:0:0:
128,192,36939,1,0,0:0:0:0:
42,192,37045,1,0,0:0:0:70:kick.wav
298,192,37045,1,0,0:0:0:0:
128,192,37256,1,0,0:0:0:0:
384,192,37256,1,0,0:0:0:0:
42,192,37468,1,0,0:0:0:70:kick.wav
469,192,37468,128,0,38313:0:0:0:0:
128,192,37890,1,0,0:0:0:70:kick.wav
298,192,37890,1,0,0:0:0:0:
213,192,38101,1,0,0:0:0:0:
42,192,38313,1,0,0:0:0:70:kick.wav
384,192,38313,1,0,0:0:0:0:
469,192,38524,1,0,0:0:0:0:
384,192,38630,1,0,0:0:0:0:
298,192,38735,1,0,0:0:0:70:soft-hitclap.wav
213,192,38841,1,0,0:0:0:0:
128,192,38946,1,0,0:0:0:0:
42,192,39052,1,0,0:0:0:0:
213,192,39158,128,0,39580:0:0:0:70:kick.wav
298,192,39158,128,0,40003:0:0:0:0:
128,192,39580,128,0,40425:0:0:0:70:kick.wav
384,192,40003,128,0,40848:0:0:0:70:kick.wav
42,192,40425,128,0,40848:0:0:0:70:kick.wav
469,192,40848,128,0,42538:0:0:0:70:kick.wav
298,192,40848,1,0,0:0:0:40:soft-hitfinish.wav
128,192,40848,1,0,0:0:0:0:
213,192,41059,1,0,0:0:0:0:
128,192,41270,1,0,0:0:0:70:kick.wav
298,192,41270,1,0,0:0:0:0:
42,192,41482,1,0,0:0:0:0:
128,192,41693,1,0,0:0:0:70:kick.wav
298,192,41693,1,0,0:0:0:0:
213,192,41904,1,0,0:0:0:0:
128,192,42010,1,0,0:0:0:0:
384,192,42115,1,0,0:0:0:70:kick.wav
42,192,42115,1,0,0:0:0:55:soft-hitclap.wav
298,192,42115,1,0,0:0:0:0:
213,192,42327,1,0,0:0:0:0:
384,192,42538,1,0,0:0:0:70:kick.wav
42,192,42538,128,0,43806:0:0:0:0:
298,192,42749,1,0,0:0:0:0:
128,192,42961,1,0,0:0:0:70:kick.wav
384,192,42961,1,0,0:0:0:0:
298,192,43172,1,0,0:0:0:0:
128,192,43383,1,0,0:0:0:70:kick.wav
384,192,43383,1,0,0:0:0:0:
213,192,43594,1,0,0:0:0:0:
298,192,43700,1,0,0:0:0:0:
128,192,43806,1,0,0:0:0:70:kick.wav
384,192,43806,1,0,0:0:0:0:
42,192,44017,1,0,0:0:0:0:
128,192,44123,1,0,0:0:0:0:
469,192,44228,1,0,0:0:0:70:kick.wav
298,192,44228,128,0,45496:0:0:0:0:
384,192,44439,1,0,0:0:0:0:
42,192,44651,1,0,0:0:0:70:kick.wav
213,192,44651,1,0,0:0:0:0:
128,192,44862,1,0,0:0:0:0:
469,192,45073,1,0,0:0:0:70:kick.wav
42,192,45073,1,0,0:0:0:0:
384,192,45285,1,0,0:0:0:0:
213,192,45496,1,0,0:0:0:80:soft-hitclap.wav
42,192,45496,1,0,0:0:0:70:kick.wav
469,192,45496,1,0,0:0:0:0:
298,192,45707,1,0,0:0:0:0:
128,192,45918,1,0,0:0:0:70:kick.wav
384,192,45918,128,0,46763:0:0:0:0:
298,192,46130,1,0,0:0:0:0:
469,192,46341,1,0,0:0:0:70:kick.wav
42,192,46341,128,0,46763:0:0:0:0:
213,192,46552,1,0,0:0:0:0:
469,192,46763,1,0,0:0:0:70:kick.wav
128,192,46763,128,0,47608:0:0:0:0:
213,192,46975,1,0,0:0:0:0:
42,192,47186,1,0,0:0:0:70:kick.wav
384,192,47186,128,0,47608:0:0:0:0:
298,192,47397,1,0,0:0:0:0:
42,192,47608,1,0,0:0:0:40:soft-hitfinish.wav
469,192,47608,1,0,0:0:0:70:kick.wav
213,192,47608,1,0,0:0:0:0:
128,192,47820,1,0,0:0:0:0:
298,192,47820,1,0,0:0:0:0:
213,192,48031,1,0,0:0:0:70:kick.wav
469,192,48031,1,0,0:0:0:70:soft-hitclap.wav
384,192,48031,1,0,0:0:0:0:
42,192,48242,1,0,0:0:0:0:
298,192,48242,1,0,0:0:0:0:
128,192,48454,1,0,0:0:0:70:kick.wav
384,192,48454,1,0,0:0:0:0:
213,192,48665,1,0,0:0:0:0:
469,192,48665,1,0,0:0:0:0:
42,192,48876,1,0,0:0:0:70:soft-hitclap.wav
298,192,48876,1,0,0:0:0:70:kick.wav
128,192,48876,1,0,0:0:0:0:
213,192,49087,1,0,0:0:0:0:
384,192,49087,1,0,0:0:0:0:
42,192,49299,1,0,0:0:0:35:soft-hitfinish.wav
469,192,49299,1,0,0:0:0:70:kick.wav
298,192,49299,1,0,0:0:0:0:
128,192,49510,1,0,0:0:0:0:
384,192,49510,1,0,0:0:0:0:
213,192,49721,1,0,0:0:0:70:soft-hitclap.wav
469,192,49721,1,0,0:0:0:70:kick.wav
42,192,49721,1,0,0:0:0:0:
469,192,49932,1,0,0:0:0:0:
298,192,49932,1,0,0:0:0:0:
42,192,50144,1,0,0:0:0:70:kick.wav
213,192,50144,1,0,0:0:0:0:
298,192,50355,1,0,0:0:0:0:
128,192,50355,1,0,0:0:0:0:
298,192,50566,1,0,0:0:0:70:soft-hitclap.wav
469,192,50566,1,0,0:0:0:70:kick.wav
42,192,50566,1,0,0:0:0:0:
213,192,50777,1,0,0:0:0:0:
384,192,50777,1,0,0:0:0:0:
42,192,50989,1,0,0:0:0:100:kick.wav
128,192,50989,1,0,0:0:0:70:soft-hitclap.wav
298,192,50989,1,0,0:0:0:0:
128,192,51306,1,0,0:0:0:100:kick.wav
213,192,51306,1,0,0:0:0:70:soft-hitclap.wav
384,192,51306,1,0,0:0:0:0:
213,192,51623,1,0,0:0:0:100:kick.wav
298,192,51623,1,0,0:0:0:70:soft-hitclap.wav
469,192,51623,1,0,0:0:0:0:
42,192,52045,1,0,0:0:0:100:kick.wav
213,192,52045,1,0,0:0:0:70:soft-hitclap.wav
298,192,52045,1,0,0:0:0:0:
298,192,52256,1,0,0:0:0:100:kick.wav
384,192,52256,1,0,0:0:0:70:soft-hitclap.wav
128,192,52256,1,0,0:0:0:0:
469,192,52468,1,0,0:0:0:100:kick.wav
384,192,52468,1,0,0:0:0:70:soft-hitclap.wav
213,192,52468,1,0,0:0:0:0:
128,192,52679,1,0,0:0:0:100:kick.wav
213,192,52679,1,0,0:0:0:70:soft-hitclap.wav
42,192,52679,1,0,0:0:0:0:
298,192,52890,1,0,0:0:0:100:kick.wav
384,192,52890,1,0,0:0:0:70:soft-hitclap.wav
469,192,52890,1,0,0:0:0:0:
298,192,53946,128,0,54369:0:0:0:0:
213,192,53946,128,0,54369:0:0:0:0:
42,192,54369,1,0,0:0:0:70:kick.wav
128,192,54369,1,0,0:0:0:50:soft-hitfinish.wav
384,192,54369,1,0,0:0:0:0:
469,192,54369,1,0,0:0:0:0:
213,192,54580,1,0,0:0:0:0:
42,192,54792,1,0,0:0:0:70:soft-hitclap.wav
298,192,54792,1,0,0:0:0:70:kick.wav
469,192,54792,1,0,0:0:0:0:
128,192,55003,1,0,0:0:0:0:
213,192,55214,1,0,0:0:0:70:kick.wav
469,192,55214,128,0,55637:0:0:0:0:
42,192,55425,1,0,0:0:0:50:soft-hitwhistle.wav
298,192,55425,1,0,0:0:0:0:
42,192,55637,1,0,0:0:0:70:kick.wav
298,192,55637,1,0,0:0:0:50:soft-hitwhistle.wav
384,192,55848,1,0,0:0:0:0:
298,192,56059,1,0,0:0:0:70:kick.wav
469,192,56059,1,0,0:0:0:0:
213,192,56270,1,0,0:0:0:0:
128,192,56482,1,0,0:0:0:70:soft-hitclap.wav
298,192,56482,1,0,0:0:0:70:kick.wav
384,192,56482,1,0,0:0:0:0:
213,192,56693,1,0,0:0:0:0:
42,192,56904,1,0,0:0:0:70:kick.wav
128,192,56904,128,0,57327:0:0:0:0:
469,192,57115,1,0,0:0:0:50:soft-hitwhistle.wav
384,192,57115,1,0,0:0:0:0:
469,192,57327,1,0,0:0:0:50:soft-hitwhistle.wav
384,192,57327,1,0,0:0:0:70:soft-hitclap.wav
298,192,57538,1,0,0:0:0:0:
42,192,57749,1,0,0:0:0:70:kick.wav
213,192,57749,1,0,0:0:0:0:
384,192,57749,1,0,0:0:0:0:
298,192,57961,1,0,0:0:0:0:
42,192,58172,1,0,0:0:0:70:kick.wav
384,192,58172,1,0,0:0:0:70:soft-hitclap.wav
128,192,58383,1,0,0:0:0:0:
213,192,58594,1,0,0:0:0:70:kick.wav
469,192,58594,128,0,59017:0:0:0:0:
128,192,58806,1,0,0:0:0:50:soft-hitwhistle.wav
298,192,58806,1,0,0:0:0:0:
128,192,59017,1,0,0:0:0:50:soft-hitwhistle.wav
298,192,59017,1,0,0:0:0:70:kick.wav
384,192,59228,1,0,0:0:0:0:
42,192,59439,1,0,0:0:0:70:kick.wav
298,192,59439,1,0,0:0:0:0:
469,192,59439,1,0,0:0:0:0:
128,192,59651,1,0,0:0:0:0:
42,192,59862,1,0,0:0:0:70:soft-hitclap.wav
213,192,59862,1,0,0:0:0:70:kick.wav
384,192,59862,1,0,0:0:0:0:
298,192,60073,1,0,0:0:0:0:
213,192,60285,1,0,0:0:0:70:kick.wav
469,192,60285,1,0,0:0:0:0:
42,192,60285,1,0,0:0:0:0:
298,192,60496,128,0,60918:0:0:0:50:soft-hitwhistle.wav
384,192,60496,1,0,0:0:0:0:
128,192,60707,1,0,0:0:0:70:kick.wav
213,192,60707,128,0,60918:0:0:0:50:soft-hitwhistle.wav
469,192,60918,128,0,61446:0:0:0:0:
384,192,60918,1,0,0:0:0:0:
128,192,61130,1,0,0:0:0:70:kick.wav
42,192,61130,128,0,61446:0:0:0:0:
298,192,61341,1,0,0:0:0:0:
469,192,61552,1,0,0:0:0:70:kick.wav
213,192,61552,1,0,0:0:0:70:soft-hitclap.wav
42,192,61552,1,0,0:0:0:0:
298,192,61763,1,0,0:0:0:0:
469,192,61975,128,0,62397:0:0:0:70:kick.wav
384,192,61975,1,0,0:0:0:0:
213,192,62186,1,0,0:0:0:50:soft-hitwhistle.wav
42,192,62186,1,0,0:0:0:0:
213,192,62397,1,0,0:0:0:50:soft-hitwhistle.wav
42,192,62397,1,0,0:0:0:70:kick.wav
298,192,62608,1,0,0:0:0:0:
469,192,62820,1,0,0:0:0:70:kick.wav
128,192,62820,1,0,0:0:0:0:
384,192,62820,1,0,0:0:0:0:
298,192,63031,1,0,0:0:0:0:
213,192,63242,1,0,0:0:0:70:kick.wav
42,192,63242,1,0,0:0:0:70:soft-hitclap.wav
384,192,63454,1,0,0:0:0:0:
298,192,63665,1,0,0:0:0:70:kick.wav
128,192,63665,128,0,63876:0:0:0:0:
42,192,63876,1,0,0:0:0:50:soft-hitwhistle.wav
213,192,63876,1,0,0:0:0:0:
298,192,64087,1,0,0:0:0:50:soft-hitwhistle.wav
469,192,64087,128,0,64510:0:0:0:70:kick.wav
213,192,64299,1,0,0:0:0:0:
128,192,64510,1,0,0:0:0:70:kick.wav
42,192,64510,1,0,0:0:0:0:
298,192,64721,1,0,0:0:0:0:
469,192,64932,1,0,0:0:0:70:soft-hitclap.wav
213,192,64932,1,0,0:0:0:70:kick.wav
42,192,64932,1,0,0:0:0:0:
384,192,65144,1,0,0:0:0:0:
128,192,65355,1,0,0:0:0:70:kick.wav
298,192,65355,1,0,0:0:0:0:
469,192,65355,1,0,0:0:0:0:
213,192,65566,1,0,0:0:0:0:
298,192,65777,1,0,0:0:0:70:soft-hitclap.wav
42,192,65777,1,0,0:0:0:70:kick.wav
469,192,65777,1,0,0:0:0:0:
128,192,65989,1,0,0:0:0:0:
384,192,66200,1,0,0:0:0:40:soft-hitfinish.wav
213,192,66200,1,0,0:0:0:70:kick.wav
469,192,66200,128,0,66623:0:0:0:0:
128,192,66623,1,0,0:0:0:70:soft-hitclap.wav
42,192,66623,128,0,67045:0:0:0:70:kick.wav
298,192,66623,1,0,0:0:0:0:
213,192,67045,1,0,0:0:0:70:kick.wav
469,192,67045,128,0,67468:0:0:0:0:
298,192,67045,128,0,67468:0:0:0:70:soft-hitclap.wav
42,192,67468,128,0,67890:0:0:0:70:soft-hitclap.wav
213,192,67468,128,0,67890:0:0:0:70:kick.wav
384,192,67468,1,0,0:0:0:0:
298,192,67890,1,0,0:0:0:70:kick.wav
469,192,67890,1,0,0:0:0:50:soft-hitfinish.wav
128,192,67890,1,0,0:0:0:0:
42,192,68101,1,0,0:0:0:0:
213,192,68313,1,0,0:0:0:70:kick.wav
469,192,68313,1,0,0:0:0:70:soft-hitclap.wav
384,192,68313,1,0,0:0:0:0:
128,192,68524,1,0,0:0:0:0:
42,192,68735,1,0,0:0:0:70:kick.wav
469,192,68735,128,0,69158:0:0:0:0:
128,192,68946,1,0,0:0:0:50:soft-hitwhistle.wav
384,192,68946,1,0,0:0:0:0:
128,192,69158,1,0,0:0:0:70:soft-hitclap.wav
384,192,69158,1,0,0:0:0:50:soft-hitwhistle.wav
213,192,69369,1,0,0:0:0:0:
42,192,69580,1,0,0:0:0:70:kick.wav
298,192,69580,1,0,0:0:0:0:
384,192,69792,1,0,0:0:0:0:
298,192,70003,1,0,0:0:0:70:kick.wav
469,192,70003,1,0,0:0:0:70:soft-hitclap.wav
128,192,70003,1,0,0:0:0:0:
384,192,70214,1,0,0:0:0:0:
469,192,70425,1,0,0:0:0:70:kick.wav
213,192,70425,128,0,70848:0:0:0:0:
384,192,70637,1,0,0:0:0:50:soft-hitwhistle.wav
298,192,70637,1,0,0:0:0:0:
298,192,70848,1,0,0:0:0:50:soft-hitwhistle.wav
384,192,70848,1,0,0:0:0:70:soft-hitclap.wav
469,192,71059,1,0,0:0:0:0:
298,192,71270,1,0,0:0:0:70:kick.wav
128,192,71270,1,0,0:0:0:0:
213,192,71482,1,0,0:0:0:0:
128,192,71693,1,0,0:0:0:70:soft-hitclap.wav
469,192,71693,1,0,0:0:0:70:kick.wav
384,192,71693,1,0,0:0:0:0:
298,192,71904,1,0,0:0:0:0:
384,192,72115,128,0,72538:0:0:0:70:kick.wav
213,192,72115,1,0,0:0:0:0:
469,192,72327,1,0,0:0:0:50:soft-hitwhistle.wav
42,192,72327,1,0,0:0:0:0:
469,192,72538,1,0,0:0:0:50:soft-hitwhistle.wav
42,192,72538,1,0,0:0:0:70:kick.wav
128,192,72749,1,0,0:0:0:0:
298,192,72961,1,0,0:0:0:70:kick.wav
213,192,72961,1,0,0:0:0:0:
384,192,73172,1,0,0:0:0:0:
469,192,73383,1,0,0:0:0:70:soft-hitclap.wav
42,192,73383,1,0,0:0:0:70:kick.wav
298,192,73383,1,0,0:0:0:0:
128,192,73594,1,0,0:0:0:0:
469,192,73806,128,0,74017:0:0:0:70:kick.wav
384,192,73806,1,0,0:0:0:0:
213,192,73806,1,0,0:0:0:0:
42,192,74017,128,0,74228:0:0:0:50:soft-hitwhistle.wav
384,192,74228,128,0,74651:0:0:0:70:kick.wav
128,192,74228,128,0,74439:0:0:0:50:soft-hitwhistle.wav
213,192,74439,128,0,74651:0:0:0:0:
298,192,74651,1,0,0:0:0:70:kick.wav
469,192,74651,1,0,0:0:0:0:
128,192,74651,1,0,0:0:0:0:
213,192,74862,1,0,0:0:0:0:
128,192,74968,1,0,0:0:0:0:
42,192,75073,1,0,0:0:0:70:soft-hitclap.wav
298,192,75073,1,0,0:0:0:70:kick.wav
384,192,75073,1,0,0:0:0:0:
469,192,75285,1,0,0:0:0:0:
469,192,75496,1,0,0:0:0:70:kick.wav
42,192,75496,128,0,75918:0:0:0:0:
213,192,75707,1,0,0:0:0:50:soft-hitwhistle.wav
298,192,75707,1,0,0:0:0:0:
213,192,75918,1,0,0:0:0:50:soft-hitwhistle.wav
298,192,75918,1,0,0:0:0:70:soft-hitclap.wav
128,192,76130,1,0,0:0:0:0:
384,192,76341,1,0,0:0:0:70:kick.wav
213,192,76341,1,0,0:0:0:0:
298,192,76552,1,0,0:0:0:0:
384,192,76658,1,0,0:0:0:0:
213,192,76763,1,0,0:0:0:70:kick.wav
469,192,76763,1,0,0:0:0:70:soft-hitclap.wav
42,192,76763,1,0,0:0:0:0:
128,192,76975,1,0,0:0:0:0:
298,192,76975,1,0,0:0:0:0:
384,192,77186,1,0,0:0:0:70:kick.wav
42,192,77186,128,0,77397:0:0:0:0:
213,192,77186,1,0,0:0:0:0:
469,192,77397,1,0,0:0:0:50:soft-hitwhistle.wav
298,192,77397,1,0,0:0:0:0:
213,192,77608,128,0,78031:0:0:0:70:kick.wav
384,192,77608,128,0,78031:0:0:0:50:soft-hitwhistle.wav
42,192,78031,1,0,0:0:0:70:kick.wav
469,192,78031,1,0,0:0:0:0:
298,192,78242,1,0,0:0:0:0:
213,192,78454,1,0,0:0:0:70:kick.wav
42,192,78454,1,0,0:0:0:70:soft-hitclap.wav
469,192,78454,1,0,0:0:0:0:
384,192,78665,1,0,0:0:0:0:
42,192,78876,1,0,0:0:0:70:kick.wav
213,192,78876,1,0,0:0:0:0:
469,192,78876,1,0,0:0:0:0:
128,192,79087,1,0,0:0:0:0:
469,192,79299,1,0,0:0:0:70:kick.wav
384,192,79299,1,0,0:0:0:70:soft-hitclap.wav
213,192,79299,1,0,0:0:0:0:
42,192,79510,1,0,0:0:0:0:
298,192,79721,1,0,0:0:0:50:kick.wav
128,192,79721,1,0,0:0:0:70:soft-hitclap.wav
469,192,79721,1,0,0:0:0:0:
128,192,79932,1,0,0:0:0:50:kick.wav
298,192,79932,1,0,0:0:0:70:soft-hitclap.wav
469,192,79932,1,0,0:0:0:0:
42,192,81411,1,0,0:0:0:40:soft-hitfinish.wav
213,192,81411,1,0,0:0:0:70:kick.wav
469,192,81411,1,0,0:0:0:0:
298,192,81411,1,0,0:0:0:0:
384,192,81623,1,0,0:0:0:0:
128,192,81728,1,0,0:0:0:50:kick.wav
298,192,81728,1,0,0:0:0:70:soft-hitclap.wav
213,192,81834,1,0,0:0:0:50:kick.wav
469,192,82045,1,0,0:0:0:70:soft-hitclap.wav
42,192,82045,1,0,0:0:0:50:kick.wav
384,192,82256,1,0,0:0:0:50:kick.wav
128,192,82362,1,0,0:0:0:70:soft-hitclap.wav
298,192,82362,1,0,0:0:0:50:kick.wav
213,192,82468,1,0,0:0:0:0:
469,192,82679,1,0,0:0:0:70:soft-hitclap.wav
42,192,82679,1,0,0:0:0:70:kick.wav
298,192,82890,1,0,0:0:0:0:
213,192,82996,1,0,0:0:0:0:
384,192,83101,1,0,0:0:0:40:soft-hitfinish.wav
469,192,83101,1,0,0:0:0:70:kick.wav
42,192,83101,1,0,0:0:0:70:soft-hitclap.wav
128,192,83101,1,0,0:0:0:0:
213,192,83313,1,0,0:0:0:0:
469,192,83418,1,0,0:0:0:50:kick.wav
298,192,83418,1,0,0:0:0:70:soft-hitclap.wav
42,192,83524,1,0,0:0:0:50:kick.wav
128,192,83735,1,0,0:0:0:70:soft-hitclap.wav
384,192,83735,1,0,0:0:0:50:kick.wav
298,192,83946,1,0,0:0:0:50:kick.wav
213,192,84052,1,0,0:0:0:50:kick.wav
42,192,84052,1,0,0:0:0:70:soft-hitclap.wav
469,192,84158,1,0,0:0:0:0:
384,192,84369,1,0,0:0:0:70:soft-hitclap.wav
213,192,84369,1,0,0:0:0:70:kick.wav
128,192,84580,1,0,0:0:0:0:
213,192,84686,1,0,0:0:0:0:
42,192,84792,1,0,0:0:0:40:soft-hitfinish.wav
298,192,84792,1,0,0:0:0:70:kick.wav
469,192,84792,1,0,0:0:0:70:soft-hitclap.wav
128,192,84792,1,0,0:0:0:0:
213,192,85003,1,0,0:0:0:0:
384,192,85108,1,0,0:0:0:50:kick.wav
469,192,85108,1,0,0:0:0:70:soft-hitclap.wav
42,192,85214,1,0,0:0:0:50:kick.wav
213,192,85425,1,0,0:0:0:70:soft-hitclap.wav
469,192,85425,1,0,0:0:0:50:kick.wav
128,192,85637,1,0,0:0:0:70:kick.wav
213,192,85742,1,0,0:0:0:50:kick.wav
298,192,85742,1,0,0:0:0:70:soft-hitclap.wav
42,192,85848,1,0,0:0:0:0:
213,192,86059,1,0,0:0:0:70:soft-hitclap.wav
469,192,86059,1,0,0:0:0:70:kick.wav
128,192,86270,1,0,0:0:0:0:
384,192,86482,1,0,0:0:0:60:kick.wav
469,192,86482,1,0,0:0:0:70:soft-hitclap.wav
298,192,86482,1,0,0:0:0:0:
213,192,86693,1,0,0:0:0:60:kick.wav
42,192,86693,1,0,0:0:0:70:soft-hitclap.wav
128,192,86693,1,0,0:0:0:0:
298,192,86904,1,0,0:0:0:60:kick.wav
384,192,86904,1,0,0:0:0:70:soft-hitclap.wav
213,192,87010,1,0,0:0:0:60:kick.wav
128,192,87010,1,0,0:0:0:70:soft-hitclap.wav
298,192,87115,1,0,0:0:0:60:kick.wav
384,192,87115,1,0,0:0:0:70:soft-hitclap.wav
213,192,87221,1,0,0:0:0:60:kick.wav
128,192,87221,1,0,0:0:0:70:soft-hitclap.wav
