osu file format v14

[General]
AudioFilename: audio.mp3
AudioLeadIn: 0
PreviewTime: 52890
Countdown: 0
SampleSet: Soft
StackLeniency: 0.7
Mode: 3
LetterboxInBreaks: 0
SpecialStyle: 0
WidescreenStoryboard: 0

[Editor]
Bookmarks: 16366
DistanceSpacing: 0.6
BeatDivisor: 4
GridSize: 4
TimelineZoom: 2.5

[Metadata]
Title:Kaze no Uta -TV Size-
TitleUnicode:風ノ唄 -TV Size-
Artist:FLOW
ArtistUnicode:FLOW
Creator:AlisceaSparku
Version:7K NM
Source:テイルズ オブ ゼスティリア ザ クロス
Tags:Tales of Zestiria the X opening tv size - ly0572 - -soragami- eternalie arzenvald arcwinolivirus
BeatmapID:1039591
BeatmapSetID:487622

[Difficulty]
HPDrainRate:7.2
CircleSize:7
OverallDifficulty:7.2
ApproachRate:5
SliderMultiplier:1.4
SliderTickRate:1

[Events]
//Background and Video events
0,0,"bg.jpg",0,0
//Break Periods
//Storyboard Layer 0 (Background)
//Storyboard Layer 1 (Fail)
//Storyboard Layer 2 (Pass)
//Storyboard Layer 3 (Foreground)
//Storyboard Sound Samples
Sample,55637,0,"soft-hitclap.wav",70
Sample,57327,0,"kick.wav",70
Sample,59017,0,"soft-hitclap.wav",70
Sample,60707,0,"soft-hitclap.wav",70
Sample,60707,0,"soft-hitfinish.wav",50
Sample,62397,0,"soft-hitclap.wav",70
Sample,64087,0,"soft-hitclap.wav",70
Sample,69158,0,"kick.wav",70
Sample,70848,0,"kick.wav",70
Sample,72538,0,"soft-hitclap.wav",70
Sample,74228,0,"soft-hitclap.wav",70
Sample,74228,0,"soft-hitfinish.wav",50
Sample,75918,0,"kick.wav",70
Sample,77608,0,"soft-hitclap.wav",70
Sample,81728,0,"soft-hitclap.wav",70
Sample,83101,0,"soft-hitclap.wav",70
Sample,83418,0,"soft-hitclap.wav",70
Sample,84052,0,"soft-hitclap.wav",70
Sample,84792,0,"soft-hitclap.wav",70
Sample,85108,0,"soft-hitclap.wav",70
Sample,85742,0,"soft-hitclap.wav",70
Sample,86904,0,"soft-hitclap.wav",70
Sample,87010,0,"soft-hitclap.wav",70
Sample,87115,0,"soft-hitclap.wav",70
Sample,87221,0,"soft-hitclap.wav",70
Sample,67151,0,"soft-hitclap.wav",50
Sample,82045,0,"kick.wav",50
Sample,82362,0,"kick.wav",50
Sample,83735,0,"kick.wav",50
Sample,85425,0,"kick.wav",50

[TimingPoints]
285,422.535211267606,4,2,1,20,1,0
54369,-100,4,2,1,40,0,1
66200,-100,4,2,1,40,0,0
67890,-100,4,2,1,40,0,1
79721,-100,4,2,1,40,0,0

[HitObjects]
36,192,707,128,0,918:0:0:0:0:
109,192,1024,128,0,1235:0:0:0:0:
182,192,1341,128,0,1552:0:0:0:0:
256,192,1658,128,0,1869:0:0:0:0:
475,192,2397,128,0,2608:0:0:0:0:
402,192,2714,128,0,2925:0:0:0:0:
329,192,3031,128,0,3242:0:0:0:0:
256,192,3348,128,0,3559:0:0:0:0:
36,192,3665,5,0,0:0:0:50:soft-hitfinish.wav
402,192,3665,128,0,4299:0:0:0:0:
182,192,4299,128,0,4510:0:0:0:0:
109,192,4510,128,0,5355:0:0:0:0:
475,192,5355,128,0,6200:0:0:0:0:
256,192,6200,128,0,6623:0:0:0:0:
402,192,6623,128,0,7045:0:0:0:0:
36,192,7045,128,0,7679:0:0:0:0:
329,192,7679,128,0,7890:0:0:0:0:
182,192,7890,128,0,8735:0:0:0:0:
475,192,8735,128,0,9158:0:0:0:0:
256,192,9158,128,0,9369:0:0:0:0:
109,192,9369,128,0,9580:0:0:0:0:
402,192,9792,128,0,10003:0:0:0:0:
182,192,10003,128,0,10214:0:0:0:0:
256,192,10214,128,0,10425:0:0:0:0:
329,192,10425,128,0,11059:0:0:0:0:
182,192,11059,128,0,11270:0:0:0:0:
36,192,11270,128,0,12115:0:0:0:0:
329,192,12115,128,0,12961:0:0:0:0:
109,192,12961,128,0,13383:0:0:0:0:
256,192,13383,128,0,13806:0:0:0:0:
475,192,13806,128,0,15496:0:0:0:0:
36,192,15496,128,0,17186:0:0:0:0:
402,192,16975,1,0,0:0:0:0:
182,192,17080,1,0,0:0:0:0:
329,192,17186,128,0,17608:0:0:0:70:kick.wav
109,192,17608,1,0,0:0:0:70:kick.wav
475,192,17820,1,0,0:0:0:0:
182,192,18031,1,0,0:0:0:70:kick.wav
475,192,18242,1,0,0:0:0:0:
36,192,18454,1,0,0:0:0:70:kick.wav
256,192,18665,1,0,0:0:0:0:
329,192,18770,1,0,0:0:0:0:
475,192,18876,128,0,19299:0:0:0:70:kick.wav
182,192,19299,1,0,0:0:0:70:kick.wav
402,192,19510,1,0,0:0:0:0:
36,192,19721,1,0,0:0:0:70:kick.wav
402,192,19932,1,0,0:0:0:0:
109,192,20144,1,0,0:0:0:70:kick.wav
256,192,20355,1,0,0:0:0:0:
182,192,20461,1,0,0:0:0:0:
36,192,20566,128,0,20989:0:0:0:70:kick.wav
475,192,20989,1,0,0:0:0:70:kick.wav
109,192,21200,1,0,0:0:0:0:
329,192,21411,1,0,0:0:0:70:kick.wav
109,192,21623,1,0,0:0:0:0:
402,192,21834,1,0,0:0:0:70:kick.wav
256,192,22045,1,0,0:0:0:0:
182,192,22151,1,0,0:0:0:0:
109,192,22256,128,0,22679:0:0:0:70:kick.wav
329,192,22679,1,0,0:0:0:70:kick.wav
36,192,22890,1,0,0:0:0:0:
475,192,23101,1,0,0:0:0:70:kick.wav
36,192,23313,1,0,0:0:0:0:
402,192,23524,1,0,0:0:0:70:kick.wav
256,192,23735,1,0,0:0:0:0:
329,192,23841,1,0,0:0:0:0:
182,192,23946,128,0,24369:0:0:0:70:kick.wav
475,192,24369,1,0,0:0:0:70:kick.wav
109,192,24580,1,0,0:0:0:0:
329,192,24792,1,0,0:0:0:70:kick.wav
109,192,25003,1,0,0:0:0:0:
256,192,25214,1,0,0:0:0:70:kick.wav
402,192,25425,1,0,0:0:0:0:
329,192,25531,1,0,0:0:0:0:
182,192,25637,128,0,25848:0:0:0:70:kick.wav
36,192,25848,128,0,26059:0:0:0:0:
256,192,26059,128,0,26270:0:0:0:70:kick.wav
109,192,26270,128,0,26482:0:0:0:0:
329,192,26482,128,0,26693:0:0:0:70:kick.wav
475,192,26693,128,0,26904:0:0:0:0:
256,192,26904,128,0,27115:0:0:0:70:kick.wav
402,192,27115,128,0,27327:0:0:0:0:
36,192,27327,128,0,27749:0:0:0:70:kick.wav
256,192,27749,1,0,0:0:0:70:kick.wav
475,192,27961,1,0,0:0:0:0:
109,192,28172,1,0,0:0:0:70:kick.wav
475,192,28383,1,0,0:0:0:0:
256,192,28594,1,0,0:0:0:70:kick.wav
182,192,28594,1,0,0:0:0:70:soft-hitclap.wav
36,192,28806,1,0,0:0:0:0:
109,192,28911,1,0,0:0:0:0:
402,192,29017,128,0,29439:0:0:0:70:kick.wav
182,192,29439,1,0,0:0:0:70:kick.wav
329,192,29651,1,0,0:0:0:0:
36,192,29862,1,0,0:0:0:70:kick.wav
329,192,30073,1,0,0:0:0:0:
109,192,30285,1,0,0:0:0:70:kick.wav
402,192,30496,1,0,0:0:0:0:
475,192,30601,1,0,0:0:0:0:
36,192,30707,128,0,31552:0:0:0:70:kick.wav
256,192,31130,1,0,0:0:0:70:kick.wav
402,192,31341,1,0,0:0:0:0:
329,192,31446,1,0,0:0:0:0:
182,192,31552,128,0,32397:0:0:0:70:kick.wav
475,192,31975,1,0,0:0:0:70:kick.wav
329,192,31975,1,0,0:0:0:70:soft-hitclap.wav
36,192,32186,1,0,0:0:0:0:
109,192,32292,1,0,0:0:0:0:
402,192,32397,128,0,33876:0:0:0:70:kick.wav
256,192,32608,1,0,0:0:0:0:
329,192,32820,1,0,0:0:0:70:kick.wav
109,192,33031,1,0,0:0:0:0:
475,192,33242,1,0,0:0:0:70:kick.wav
109,192,33454,1,0,0:0:0:0:
256,192,33665,1,0,0:0:0:70:kick.wav
36,192,33876,1,0,0:0:0:0:
182,192,33982,1,0,0:0:0:0:
329,192,34087,1,0,0:0:0:70:kick.wav
402,192,34510,1,0,0:0:0:70:kick.wav
36,192,34721,1,0,0:0:0:0:
475,192,34932,128,0,35777:0:0:0:70:kick.wav
36,192,35144,1,0,0:0:0:0:
182,192,35355,1,0,0:0:0:70:soft-hitclap.wav
329,192,35355,1,0,0:0:0:70:kick.wav
109,192,35566,1,0,0:0:0:0:
256,192,35672,1,0,0:0:0:0:
402,192,35777,1,0,0:0:0:70:kick.wav
329,192,36200,1,0,0:0:0:70:kick.wav
36,192,36411,1,0,0:0:0:0:
475,192,36623,128,0,37045:0:0:0:70:kick.wav
36,192,36834,1,0,0:0:0:0:
402,192,37045,128,0,37468:0:0:0:70:kick.wav
182,192,37151,1,0,0:0:0:0:
256,192,37256,1,0,0:0:0:0:
36,192,37362,1,0,0:0:0:0:
109,192,37468,128,0,38524:0:0:0:70:kick.wav
256,192,37890,1,0,0:0:0:70:kick.wav
475,192,38101,1,0,0:0:0:0:
182,192,38313,1,0,0:0:0:70:kick.wav
475,192,38524,128,0,39158:0:0:0:0:
182,192,38735,1,0,0:0:0:70:soft-hitclap.wav
36,192,38735,1,0,0:0:0:70:kick.wav
256,192,38946,1,0,0:0:0:0:
329,192,39158,128,0,40848:0:0:0:70:kick.wav
109,192,39580,128,0,40003:0:0:0:70:kick.wav
182,192,40003,128,0,40425:0:0:0:70:kick.wav
36,192,40425,128,0,40848:0:0:0:70:kick.wav
475,192,40848,1,0,0:0:0:70:kick.wav
256,192,40848,1,0,0:0:0:40:soft-hitfinish.wav
109,192,41270,1,0,0:0:0:70:kick.wav
402,192,41482,1,0,0:0:0:0:
182,192,41693,1,0,0:0:0:70:kick.wav
402,192,41904,1,0,0:0:0:0:
256,192,42010,1,0,0:0:0:0:
36,192,42115,1,0,0:0:0:70:kick.wav
109,192,42115,1,0,0:0:0:55:soft-hitclap.wav
329,192,42538,1,0,0:0:0:70:kick.wav
402,192,42961,1,0,0:0:0:70:kick.wav
36,192,43172,1,0,0:0:0:0:
256,192,43383,1,0,0:0:0:70:kick.wav
475,192,43594,1,0,0:0:0:0:
329,192,43700,1,0,0:0:0:0:
36,192,43806,128,0,44228:0:0:0:70:kick.wav
182,192,43806,128,0,44228:0:0:0:0:
475,192,44228,1,0,0:0:0:70:kick.wav
256,192,44651,1,0,0:0:0:70:kick.wav
402,192,44862,1,0,0:0:0:0:
109,192,45073,1,0,0:0:0:70:kick.wav
475,192,45285,1,0,0:0:0:0:
182,192,45390,1,0,0:0:0:0:
329,192,45496,1,0,0:0:0:80:soft-hitclap.wav
36,192,45496,1,0,0:0:0:70:kick.wav
256,192,45918,1,0,0:0:0:70:kick.wav
109,192,46341,1,0,0:0:0:70:kick.wav
475,192,46552,1,0,0:0:0:0:
256,192,46763,1,0,0:0:0:70:kick.wav
36,192,46975,1,0,0:0:0:0:
182,192,47080,1,0,0:0:0:0:
475,192,47186,128,0,47608:0:0:0:70:kick.wav
329,192,47186,128,0,47608:0:0:0:0:
36,192,47608,1,0,0:0:0:40:soft-hitfinish.wav
109,192,47608,1,0,0:0:0:70:kick.wav
256,192,47820,1,0,0:0:0:0:
475,192,48031,1,0,0:0:0:70:kick.wav
109,192,48031,1,0,0:0:0:70:soft-hitclap.wav
329,192,48242,1,0,0:0:0:0:
182,192,48454,1,0,0:0:0:70:kick.wav
36,192,48665,1,0,0:0:0:0:
256,192,48876,1,0,0:0:0:70:soft-hitclap.wav
475,192,48876,1,0,0:0:0:70:kick.wav
109,192,49087,1,0,0:0:0:0:
402,192,49299,1,0,0:0:0:35:soft-hitfinish.wav
329,192,49299,1,0,0:0:0:70:kick.wav
182,192,49510,1,0,0:0:0:0:
36,192,49721,1,0,0:0:0:70:soft-hitclap.wav
329,192,49721,1,0,0:0:0:70:kick.wav
475,192,49932,1,0,0:0:0:0:
109,192,50144,1,0,0:0:0:70:kick.wav
256,192,50355,1,0,0:0:0:0:
475,192,50566,1,0,0:0:0:70:soft-hitclap.wav
36,192,50566,1,0,0:0:0:70:kick.wav
329,192,50777,1,0,0:0:0:0:
182,192,50989,1,0,0:0:0:100:kick.wav
109,192,50989,1,0,0:0:0:70:soft-hitclap.wav
256,192,51306,1,0,0:0:0:100:kick.wav
36,192,51306,1,0,0:0:0:70:soft-hitclap.wav
329,192,51623,128,0,52045:0:0:0:100:kick.wav
475,192,51623,128,0,52045:0:0:0:70:soft-hitclap.wav
109,192,52045,1,0,0:0:0:100:kick.wav
36,192,52045,1,0,0:0:0:70:soft-hitclap.wav
402,192,52256,1,0,0:0:0:100:kick.wav
256,192,52256,1,0,0:0:0:70:soft-hitclap.wav
182,192,52468,1,0,0:0:0:100:kick.wav
329,192,52468,1,0,0:0:0:70:soft-hitclap.wav
36,192,52679,1,0,0:0:0:100:kick.wav
475,192,52679,1,0,0:0:0:70:soft-hitclap.wav
36,192,52890,1,0,0:0:0:100:kick.wav
475,192,52890,1,0,0:0:0:70:soft-hitclap.wav
109,192,54369,1,0,0:0:0:70:kick.wav
402,192,54369,1,0,0:0:0:50:soft-hitfinish.wav
36,192,54369,1,0,0:0:0:0:
256,192,54580,1,0,0:0:0:0:
36,192,54792,1,0,0:0:0:70:soft-hitclap.wav
475,192,54792,1,0,0:0:0:70:kick.wav
329,192,55003,1,0,0:0:0:0:
182,192,55214,1,0,0:0:0:70:kick.wav
402,192,55425,1,0,0:0:0:50:soft-hitwhistle.wav
402,192,55637,1,0,0:0:0:70:kick.wav
36,192,55637,1,0,0:0:0:50:soft-hitwhistle.wav
256,192,55848,1,0,0:0:0:0:
475,192,56059,1,0,0:0:0:70:kick.wav
109,192,56059,1,0,0:0:0:0:
329,192,56270,1,0,0:0:0:0:
36,192,56482,1,0,0:0:0:70:soft-hitclap.wav
182,192,56482,1,0,0:0:0:70:kick.wav
475,192,56693,1,0,0:0:0:0:
256,192,56904,1,0,0:0:0:70:kick.wav
109,192,57115,1,0,0:0:0:50:soft-hitwhistle.wav
109,192,57327,1,0,0:0:0:50:soft-hitwhistle.wav
475,192,57327,1,0,0:0:0:70:soft-hitclap.wav
329,192,57538,1,0,0:0:0:0:
36,192,57749,1,0,0:0:0:70:kick.wav
182,192,57749,1,0,0:0:0:0:
402,192,57961,1,0,0:0:0:0:
256,192,58172,1,0,0:0:0:70:kick.wav
109,192,58172,1,0,0:0:0:70:soft-hitclap.wav
475,192,58383,1,0,0:0:0:0:
329,192,58594,1,0,0:0:0:70:kick.wav
36,192,58806,1,0,0:0:0:50:soft-hitwhistle.wav
36,192,59017,1,0,0:0:0:50:soft-hitwhistle.wav
402,192,59017,1,0,0:0:0:70:kick.wav
256,192,59228,1,0,0:0:0:0:
109,192,59439,1,0,0:0:0:70:kick.wav
475,192,59439,1,0,0:0:0:0:
329,192,59651,1,0,0:0:0:0:
36,192,59862,1,0,0:0:0:70:soft-hitclap.wav
182,192,59862,1,0,0:0:0:70:kick.wav
402,192,60073,1,0,0:0:0:0:
109,192,60285,1,0,0:0:0:70:kick.wav
475,192,60496,1,0,0:0:0:50:soft-hitwhistle.wav
475,192,60707,1,0,0:0:0:70:kick.wav
36,192,60707,128,0,61130:0:0:0:50:soft-hitwhistle.wav
329,192,61130,1,0,0:0:0:70:kick.wav
402,192,61130,1,0,0:0:0:0:
182,192,61341,1,0,0:0:0:0:
475,192,61552,1,0,0:0:0:70:kick.wav
36,192,61552,1,0,0:0:0:70:soft-hitclap.wav
256,192,61763,1,0,0:0:0:0:
402,192,61975,1,0,0:0:0:70:kick.wav
109,192,62186,1,0,0:0:0:50:soft-hitwhistle.wav
109,192,62397,1,0,0:0:0:50:soft-hitwhistle.wav
475,192,62397,1,0,0:0:0:70:kick.wav
329,192,62608,1,0,0:0:0:0:
182,192,62820,1,0,0:0:0:70:kick.wav
36,192,62820,1,0,0:0:0:0:
329,192,63031,1,0,0:0:0:0:
475,192,63242,1,0,0:0:0:70:kick.wav
109,192,63242,1,0,0:0:0:70:soft-hitclap.wav
256,192,63454,1,0,0:0:0:0:
402,192,63665,1,0,0:0:0:70:kick.wav
36,192,63876,1,0,0:0:0:50:soft-hitwhistle.wav
475,192,64087,1,0,0:0:0:50:soft-hitwhistle.wav
36,192,64087,1,0,0:0:0:70:kick.wav
329,192,64510,1,0,0:0:0:70:kick.wav
256,192,64510,128,0,66200:0:0:0:0:
475,192,64932,128,0,65355:0:0:0:70:soft-hitclap.wav
36,192,64932,1,0,0:0:0:70:kick.wav
182,192,65355,1,0,0:0:0:70:kick.wav
36,192,65777,128,0,66200:0:0:0:70:soft-hitclap.wav
475,192,65777,1,0,0:0:0:70:kick.wav
109,192,66200,1,0,0:0:0:40:soft-hitfinish.wav
329,192,66200,1,0,0:0:0:70:kick.wav
475,192,66623,128,0,67045:0:0:0:70:soft-hitclap.wav
182,192,66623,1,0,0:0:0:70:kick.wav
36,192,67045,128,0,67468:0:0:0:70:kick.wav
109,192,67045,1,0,0:0:0:70:soft-hitclap.wav
402,192,67151,1,0,0:0:0:50:kick.wav
182,192,67468,128,0,67890:0:0:0:70:soft-hitclap.wav
256,192,67468,1,0,0:0:0:70:kick.wav
475,192,67890,128,0,69580:0:0:0:70:kick.wav
109,192,67890,1,0,0:0:0:50:soft-hitfinish.wav
329,192,68101,1,0,0:0:0:0:
36,192,68313,1,0,0:0:0:70:kick.wav
256,192,68313,1,0,0:0:0:70:soft-hitclap.wav
402,192,68524,1,0,0:0:0:0:
109,192,68735,1,0,0:0:0:70:kick.wav
256,192,68946,1,0,0:0:0:50:soft-hitwhistle.wav
36,192,69158,1,0,0:0:0:70:soft-hitclap.wav
256,192,69158,1,0,0:0:0:50:soft-hitwhistle.wav
329,192,69369,1,0,0:0:0:0:
36,192,69580,128,0,70425:0:0:0:70:kick.wav
109,192,69580,1,0,0:0:0:0:
182,192,69792,1,0,0:0:0:0:
475,192,70003,1,0,0:0:0:70:kick.wav
402,192,70003,1,0,0:0:0:70:soft-hitclap.wav
256,192,70214,1,0,0:0:0:0:
109,192,70425,128,0,71270:0:0:0:70:kick.wav
329,192,70637,1,0,0:0:0:50:soft-hitwhistle.wav
329,192,70848,1,0,0:0:0:50:soft-hitwhistle.wav
182,192,70848,1,0,0:0:0:70:soft-hitclap.wav
256,192,71059,1,0,0:0:0:0:
402,192,71270,128,0,72961:0:0:0:70:kick.wav
475,192,71270,1,0,0:0:0:0:
256,192,71482,1,0,0:0:0:0:
182,192,71693,1,0,0:0:0:70:soft-hitclap.wav
36,192,71693,1,0,0:0:0:70:kick.wav
475,192,71904,1,0,0:0:0:0:
256,192,72115,1,0,0:0:0:70:kick.wav
109,192,72327,1,0,0:0:0:50:soft-hitwhistle.wav
109,192,72538,1,0,0:0:0:50:soft-hitwhistle.wav
475,192,72538,1,0,0:0:0:70:kick.wav
256,192,72749,1,0,0:0:0:0:
182,192,72961,128,0,73806:0:0:0:70:kick.wav
109,192,72961,1,0,0:0:0:0:
475,192,73172,1,0,0:0:0:0:
329,192,73383,1,0,0:0:0:70:soft-hitclap.wav
36,192,73383,1,0,0:0:0:70:kick.wav
402,192,73594,1,0,0:0:0:0:
109,192,73806,128,0,74228:0:0:0:70:kick.wav
256,192,74017,1,0,0:0:0:50:soft-hitwhistle.wav
402,192,74228,128,0,74651:0:0:0:70:kick.wav
475,192,74228,1,0,0:0:0:50:soft-hitwhistle.wav
36,192,74651,128,0,75285:0:0:0:70:kick.wav
256,192,74651,1,0,0:0:0:0:
475,192,74862,1,0,0:0:0:0:
182,192,75073,1,0,0:0:0:70:soft-hitclap.wav
402,192,75073,1,0,0:0:0:70:kick.wav
256,192,75285,128,0,75918:0:0:0:0:
475,192,75496,1,0,0:0:0:70:kick.wav
109,192,75707,1,0,0:0:0:50:soft-hitwhistle.wav
109,192,75918,1,0,0:0:0:50:soft-hitwhistle.wav
402,192,75918,1,0,0:0:0:70:soft-hitclap.wav
329,192,76130,128,0,76341:0:0:0:0:
475,192,76341,128,0,76763:0:0:0:70:kick.wav
182,192,76341,1,0,0:0:0:0:
36,192,76552,1,0,0:0:0:0:
109,192,76763,128,0,76975:0:0:0:70:kick.wav
402,192,76763,1,0,0:0:0:70:soft-hitclap.wav
329,192,76975,128,0,77186:0:0:0:0:
36,192,77186,128,0,77397:0:0:0:70:kick.wav
256,192,77397,128,0,77608:0:0:0:50:soft-hitwhistle.wav
475,192,77608,128,0,78031:0:0:0:70:kick.wav
109,192,77608,1,0,0:0:0:50:soft-hitwhistle.wav
256,192,78031,128,0,79721:0:0:0:70:kick.wav
329,192,78031,1,0,0:0:0:0:
36,192,78454,128,0,78876:0:0:0:70:kick.wav
182,192,78454,1,0,0:0:0:70:soft-hitclap.wav
402,192,78876,1,0,0:0:0:70:kick.wav
475,192,79299,128,0,79721:0:0:0:70:kick.wav
109,192,79299,1,0,0:0:0:70:soft-hitclap.wav
402,192,79721,1,0,0:0:0:50:kick.wav
182,192,79721,1,0,0:0:0:70:soft-hitclap.wav
36,192,79721,1,0,0:0:0:0:
402,192,79932,1,0,0:0:0:50:kick.wav
182,192,79932,1,0,0:0:0:70:soft-hitclap.wav
36,192,79932,1,0,0:0:0:0:
182,192,81411,128,0,81834:0:0:0:40:soft-hitfinish.wav
475,192,81411,1,0,0:0:0:70:kick.wav
36,192,81411,1,0,0:0:0:0:
329,192,81728,1,0,0:0:0:50:kick.wav
402,192,81834,1,0,0:0:0:50:kick.wav
475,192,82045,128,0,82468:0:0:0:70:soft-hitclap.wav
36,192,82362,1,0,0:0:0:70:soft-hitclap.wav
109,192,82468,128,0,82890:0:0:0:0:
329,192,82679,1,0,0:0:0:70:soft-hitclap.wav
256,192,82679,1,0,0:0:0:70:kick.wav
475,192,82890,1,0,0:0:0:0:
402,192,82996,1,0,0:0:0:0:
256,192,83101,128,0,83524:0:0:0:40:soft-hitfinish.wav
36,192,83101,1,0,0:0:0:70:kick.wav
109,192,83418,1,0,0:0:0:50:kick.wav
475,192,83524,1,0,0:0:0:50:kick.wav
329,192,83735,1,0,0:0:0:70:soft-hitclap.wav
475,192,83946,128,0,84369:0:0:0:50:kick.wav
182,192,84052,1,0,0:0:0:50:kick.wav
109,192,84369,128,0,84792:0:0:0:70:soft-hitclap.wav
36,192,84369,1,0,0:0:0:70:kick.wav
402,192,84580,1,0,0:0:0:0:
256,192,84686,1,0,0:0:0:0:
329,192,84792,128,0,85214:0:0:0:40:soft-hitfinish.wav
475,192,84792,1,0,0:0:0:70:kick.wav
36,192,85108,1,0,0:0:0:50:kick.wav
182,192,85214,1,0,0:0:0:50:kick.wav
475,192,85425,128,0,85848:0:0:0:70:soft-hitclap.wav
329,192,85637,1,0,0:0:0:70:kick.wav
109,192,85742,1,0,0:0:0:50:kick.wav
182,192,85848,128,0,86270:0:0:0:0:
402,192,86059,1,0,0:0:0:70:soft-hitclap.wav
475,192,86059,1,0,0:0:0:70:kick.wav
36,192,86482,1,0,0:0:0:60:kick.wav
109,192,86482,1,0,0:0:0:70:soft-hitclap.wav
475,192,86693,1,0,0:0:0:60:kick.wav
402,192,86693,1,0,0:0:0:70:soft-hitclap.wav
182,192,86904,1,0,0:0:0:60:kick.wav
329,192,87010,1,0,0:0:0:60:kick.wav
182,192,87115,1,0,0:0:0:60:kick.wav
329,192,87221,1,0,0:0:0:60:kick.wav
