osu file format v14

[General]
AudioFilename: audio.mp3
AudioLeadIn: 0
PreviewTime: 52890
Countdown: 0
SampleSet: Soft
StackLeniency: 0.7
Mode: 3
LetterboxInBreaks: 0
SpecialStyle: 0
WidescreenStoryboard: 0

[Editor]
Bookmarks: 16366
DistanceSpacing: 0.6
BeatDivisor: 4
GridSize: 4
TimelineZoom: 2.600001

[Metadata]
Title:Kaze no Uta -TV Size-
TitleUnicode:風ノ唄 -TV Size-
Artist:FLOW
ArtistUnicode:FLOW
Creator:AlisceaSparku
Version:4K EZ
Source:テイルズ オブ ゼスティリア ザ クロス
Tags:Tales of Zestiria the X opening tv size - ly0572 - -soragami- eternalie arzenvald arcwinolivirus
BeatmapID:1039587
BeatmapSetID:487622

[Difficulty]
HPDrainRate:6.8
CircleSize:4
OverallDifficulty:6.8
ApproachRate:5
SliderMultiplier:1.4
SliderTickRate:1

[Events]
//Background and Video events
0,0,"bg.jpg",0,0
//Break Periods
//Storyboard Layer 0 (Background)
//Storyboard Layer 1 (Fail)
//Storyboard Layer 2 (Pass)
//Storyboard Layer 3 (Foreground)
//Storyboard Sound Samples
Sample,50989,0,"soft-hitclap.wav",70
Sample,51306,0,"soft-hitclap.wav",70
Sample,51623,0,"soft-hitclap.wav",70
Sample,52045,0,"soft-hitclap.wav",70
Sample,52256,0,"soft-hitclap.wav",70
Sample,52468,0,"soft-hitclap.wav",70
Sample,55637,0,"soft-hitclap.wav",70
Sample,57327,0,"kick.wav",70
Sample,59017,0,"soft-hitclap.wav",70
Sample,60707,0,"soft-hitfinish.wav",50
Sample,60707,0,"soft-hitclap.wav",70
Sample,62397,0,"soft-hitclap.wav",70
Sample,64087,0,"soft-hitclap.wav",70
Sample,66200,0,"kick.wav",70
Sample,67045,0,"soft-hitclap.wav",70
Sample,69158,0,"kick.wav",70
Sample,70848,0,"kick.wav",70
Sample,72538,0,"soft-hitclap.wav",70
Sample,74228,0,"soft-hitfinish.wav",50
Sample,74228,0,"soft-hitclap.wav",70
Sample,75918,0,"kick.wav",70
Sample,77608,0,"soft-hitclap.wav",70
Sample,82045,0,"kick.wav",50
Sample,82679,0,"kick.wav",70
Sample,83101,0,"soft-hitclap.wav",70
Sample,83735,0,"kick.wav",50
Sample,84369,0,"kick.wav",70
Sample,84792,0,"soft-hitclap.wav",70
Sample,85425,0,"kick.wav",50
Sample,86059,0,"kick.wav",70
Sample,86904,0,"soft-hitclap.wav",70
Sample,87221,0,"soft-hitclap.wav",70

[TimingPoints]
285,422.535211267606,4,2,1,20,1,0
54369,-100,4,2,1,40,0,1
66200,-100,4,2,1,40,0,0
67890,-100,4,2,1,40,0,1
79721,-100,4,2,1,40,0,0

[HitObjects]
64,192,707,5,0,0:0:0:0:
192,192,1024,1,0,0:0:0:0:
320,192,1341,1,0,0:0:0:0:
448,192,1658,1,0,0:0:0:0:
448,192,2397,1,0,0:0:0:0:
320,192,2714,1,0,0:0:0:0:
192,192,3031,1,0,0:0:0:0:
64,192,3348,1,0,0:0:0:0:
448,192,3665,128,0,4299:0:0:0:50:soft-hitfinish.wav
192,192,3665,1,0,0:0:0:0:
320,192,4299,1,0,0:0:0:0:
64,192,4510,128,0,5355:0:0:0:0:
448,192,5355,128,0,6200:0:0:0:0:
192,192,6200,128,0,6623:0:0:0:0:
320,192,6623,128,0,7045:0:0:0:0:
64,192,7045,128,0,7679:0:0:0:0:
192,192,7679,1,0,0:0:0:0:
448,192,7890,128,0,8735:0:0:0:0:
64,192,8735,128,0,9158:0:0:0:0:
320,192,9158,1,0,0:0:0:0:
192,192,9369,1,0,0:0:0:0:
448,192,9792,1,0,0:0:0:0:
64,192,10003,128,0,10425:0:0:0:0:
320,192,10425,128,0,11059:0:0:0:0:
192,192,11059,1,0,0:0:0:0:
448,192,11270,128,0,12115:0:0:0:0:
64,192,12115,128,0,12961:0:0:0:0:
320,192,12961,128,0,13383:0:0:0:0:
448,192,13383,128,0,13806:0:0:0:0:
64,192,13806,128,0,15496:0:0:0:0:
448,192,15496,128,0,17186:0:0:0:0:
64,192,17186,1,0,0:0:0:70:kick.wav
192,192,17608,1,0,0:0:0:70:kick.wav
320,192,18031,1,0,0:0:0:70:kick.wav
192,192,18454,1,0,0:0:0:70:kick.wav
448,192,18876,1,0,0:0:0:70:kick.wav
64,192,19299,1,0,0:0:0:70:kick.wav
320,192,19721,1,0,0:0:0:70:kick.wav
192,192,20144,1,0,0:0:0:70:kick.wav
448,192,20566,1,0,0:0:0:70:kick.wav
64,192,20989,1,0,0:0:0:70:kick.wav
192,192,21411,1,0,0:0:0:70:kick.wav
448,192,21834,1,0,0:0:0:70:kick.wav
64,192,22256,1,0,0:0:0:70:kick.wav
320,192,22679,1,0,0:0:0:70:kick.wav
192,192,23101,1,0,0:0:0:70:kick.wav
448,192,23524,1,0,0:0:0:70:kick.wav
64,192,23946,1,0,0:0:0:70:kick.wav
320,192,24369,1,0,0:0:0:70:kick.wav
448,192,24792,1,0,0:0:0:70:kick.wav
192,192,25214,1,0,0:0:0:70:kick.wav
448,192,25637,128,0,26482:0:0:0:70:kick.wav
64,192,26482,128,0,27327:0:0:0:70:kick.wav
320,192,27327,1,0,0:0:0:70:kick.wav
448,192,27749,1,0,0:0:0:70:kick.wav
192,192,28172,1,0,0:0:0:70:kick.wav
320,192,28594,1,0,0:0:0:70:kick.wav
448,192,28594,1,0,0:0:0:70:soft-hitclap.wav
64,192,29017,1,0,0:0:0:70:kick.wav
448,192,29439,1,0,0:0:0:70:kick.wav
192,192,29862,1,0,0:0:0:70:kick.wav
320,192,30285,1,0,0:0:0:70:kick.wav
64,192,30707,1,0,0:0:0:70:kick.wav
448,192,31130,1,0,0:0:0:70:kick.wav
320,192,31552,1,0,0:0:0:70:kick.wav
192,192,31975,1,0,0:0:0:70:kick.wav
64,192,31975,1,0,0:0:0:70:soft-hitclap.wav
448,192,32397,1,0,0:0:0:70:kick.wav
192,192,32820,1,0,0:0:0:70:kick.wav
320,192,33242,1,0,0:0:0:70:kick.wav
64,192,33665,1,0,0:0:0:70:kick.wav
448,192,34087,1,0,0:0:0:70:kick.wav
192,192,34510,1,0,0:0:0:70:kick.wav
64,192,34932,1,0,0:0:0:70:kick.wav
320,192,35355,1,0,0:0:0:70:soft-hitclap.wav
448,192,35355,1,0,0:0:0:70:kick.wav
192,192,35777,1,0,0:0:0:70:kick.wav
448,192,36200,1,0,0:0:0:70:kick.wav
64,192,36623,1,0,0:0:0:70:kick.wav
320,192,37045,1,0,0:0:0:70:kick.wav
192,192,37468,1,0,0:0:0:70:kick.wav
448,192,37890,1,0,0:0:0:70:kick.wav
320,192,38313,1,0,0:0:0:70:kick.wav
192,192,38735,1,0,0:0:0:70:soft-hitclap.wav
64,192,38735,1,0,0:0:0:70:kick.wav
448,192,39158,1,0,0:0:0:70:kick.wav
64,192,39580,128,0,40003:0:0:0:70:kick.wav
448,192,40003,128,0,40425:0:0:0:70:kick.wav
192,192,40425,128,0,40848:0:0:0:70:kick.wav
448,192,40848,1,0,0:0:0:70:kick.wav
320,192,40848,1,0,0:0:0:40:soft-hitfinish.wav
64,192,41270,1,0,0:0:0:70:kick.wav
320,192,41693,1,0,0:0:0:70:kick.wav
192,192,42115,1,0,0:0:0:70:kick.wav
448,192,42115,1,0,0:0:0:55:soft-hitclap.wav
64,192,42538,1,0,0:0:0:70:kick.wav
320,192,42961,1,0,0:0:0:70:kick.wav
448,192,43383,1,0,0:0:0:70:kick.wav
64,192,43806,128,0,44228:0:0:0:70:kick.wav
320,192,44228,1,0,0:0:0:70:kick.wav
448,192,44651,1,0,0:0:0:70:kick.wav
192,192,45073,1,0,0:0:0:70:kick.wav
320,192,45496,1,0,0:0:0:80:soft-hitclap.wav
64,192,45496,1,0,0:0:0:70:kick.wav
448,192,45918,1,0,0:0:0:70:kick.wav
64,192,46341,1,0,0:0:0:70:kick.wav
448,192,46763,1,0,0:0:0:70:kick.wav
192,192,47186,128,0,47608:0:0:0:70:kick.wav
320,192,47608,1,0,0:0:0:40:soft-hitfinish.wav
448,192,47608,1,0,0:0:0:70:kick.wav
192,192,48031,1,0,0:0:0:70:kick.wav
64,192,48031,1,0,0:0:0:70:soft-hitclap.wav
448,192,48454,1,0,0:0:0:70:kick.wav
320,192,48876,1,0,0:0:0:70:soft-hitclap.wav
64,192,48876,1,0,0:0:0:70:kick.wav
192,192,49299,1,0,0:0:0:35:soft-hitfinish.wav
64,192,49299,1,0,0:0:0:70:kick.wav
320,192,49721,1,0,0:0:0:70:soft-hitclap.wav
448,192,49721,1,0,0:0:0:70:kick.wav
192,192,50144,1,0,0:0:0:70:kick.wav
64,192,50566,1,0,0:0:0:70:soft-hitclap.wav
448,192,50566,1,0,0:0:0:70:kick.wav
320,192,50989,1,0,0:0:0:100:kick.wav
192,192,51306,1,0,0:0:0:100:kick.wav
448,192,51623,128,0,52045:0:0:0:100:kick.wav
64,192,52045,1,0,0:0:0:100:kick.wav
320,192,52256,1,0,0:0:0:100:kick.wav
192,192,52468,1,0,0:0:0:100:kick.wav
448,192,52679,1,0,0:0:0:100:kick.wav
64,192,52679,1,0,0:0:0:70:soft-hitclap.wav
448,192,52890,1,0,0:0:0:100:kick.wav
64,192,52890,1,0,0:0:0:70:soft-hitclap.wav
192,192,54369,1,0,0:0:0:70:kick.wav
320,192,54369,1,0,0:0:0:50:soft-hitfinish.wav
448,192,54792,1,0,0:0:0:70:soft-hitclap.wav
192,192,54792,1,0,0:0:0:70:kick.wav
64,192,55214,1,0,0:0:0:70:kick.wav
320,192,55425,1,0,0:0:0:50:soft-hitwhistle.wav
448,192,55637,1,0,0:0:0:70:kick.wav
192,192,55637,1,0,0:0:0:50:soft-hitwhistle.wav
320,192,56059,1,0,0:0:0:70:kick.wav
64,192,56482,1,0,0:0:0:70:soft-hitclap.wav
320,192,56482,1,0,0:0:0:70:kick.wav
448,192,56904,1,0,0:0:0:70:kick.wav
192,192,57115,1,0,0:0:0:50:soft-hitwhistle.wav
64,192,57327,1,0,0:0:0:70:soft-hitclap.wav
320,192,57327,1,0,0:0:0:50:soft-hitwhistle.wav
192,192,57749,1,0,0:0:0:70:kick.wav
64,192,58172,1,0,0:0:0:70:kick.wav
448,192,58172,1,0,0:0:0:70:soft-hitclap.wav
320,192,58594,1,0,0:0:0:70:kick.wav
64,192,58806,1,0,0:0:0:50:soft-hitwhistle.wav
448,192,59017,1,0,0:0:0:50:soft-hitwhistle.wav
192,192,59017,1,0,0:0:0:70:kick.wav
320,192,59439,1,0,0:0:0:70:kick.wav
448,192,59862,1,0,0:0:0:70:soft-hitclap.wav
64,192,59862,1,0,0:0:0:70:kick.wav
192,192,60285,1,0,0:0:0:70:kick.wav
448,192,60496,1,0,0:0:0:50:soft-hitwhistle.wav
320,192,60707,1,0,0:0:0:70:kick.wav
64,192,60707,128,0,61130:0:0:0:50:soft-hitwhistle.wav
448,192,61130,1,0,0:0:0:70:kick.wav
64,192,61552,1,0,0:0:0:70:kick.wav
192,192,61552,1,0,0:0:0:70:soft-hitclap.wav
320,192,61975,1,0,0:0:0:70:kick.wav
192,192,62186,1,0,0:0:0:50:soft-hitwhistle.wav
448,192,62397,1,0,0:0:0:50:soft-hitwhistle.wav
320,192,62397,1,0,0:0:0:70:kick.wav
64,192,62820,1,0,0:0:0:70:kick.wav
320,192,63242,1,0,0:0:0:70:kick.wav
448,192,63242,1,0,0:0:0:70:soft-hitclap.wav
192,192,63665,1,0,0:0:0:70:kick.wav
320,192,63876,1,0,0:0:0:50:soft-hitwhistle.wav
64,192,64087,1,0,0:0:0:50:soft-hitwhistle.wav
192,192,64087,1,0,0:0:0:70:kick.wav
448,192,64510,1,0,0:0:0:70:kick.wav
64,192,64932,128,0,65355:0:0:0:70:soft-hitclap.wav
448,192,64932,1,0,0:0:0:70:kick.wav
320,192,65355,1,0,0:0:0:70:kick.wav
448,192,65777,1,0,0:0:0:70:soft-hitclap.wav
64,192,65777,1,0,0:0:0:70:kick.wav
192,192,66200,1,0,0:0:0:40:soft-hitfinish.wav
320,192,66623,128,0,67045:0:0:0:70:soft-hitclap.wav
64,192,66623,1,0,0:0:0:70:kick.wav
192,192,67045,128,0,67468:0:0:0:70:kick.wav
448,192,67468,128,0,67890:0:0:0:70:soft-hitclap.wav
64,192,67468,1,0,0:0:0:70:kick.wav
192,192,67890,1,0,0:0:0:70:kick.wav
64,192,67890,1,0,0:0:0:50:soft-hitfinish.wav
320,192,68313,1,0,0:0:0:70:kick.wav
448,192,68313,1,0,0:0:0:70:soft-hitclap.wav
64,192,68735,1,0,0:0:0:70:kick.wav
448,192,68946,1,0,0:0:0:50:soft-hitwhistle.wav
320,192,69158,1,0,0:0:0:70:soft-hitclap.wav
192,192,69158,1,0,0:0:0:50:soft-hitwhistle.wav
448,192,69580,1,0,0:0:0:70:kick.wav
64,192,70003,1,0,0:0:0:70:kick.wav
192,192,70003,1,0,0:0:0:70:soft-hitclap.wav
448,192,70425,1,0,0:0:0:70:kick.wav
64,192,70637,1,0,0:0:0:50:soft-hitwhistle.wav
192,192,70848,1,0,0:0:0:50:soft-hitwhistle.wav
320,192,70848,1,0,0:0:0:70:soft-hitclap.wav
448,192,71270,1,0,0:0:0:70:kick.wav
64,192,71693,1,0,0:0:0:70:soft-hitclap.wav
320,192,71693,1,0,0:0:0:70:kick.wav
448,192,72115,1,0,0:0:0:70:kick.wav
192,192,72327,1,0,0:0:0:50:soft-hitwhistle.wav
64,192,72538,1,0,0:0:0:50:soft-hitwhistle.wav
320,192,72538,1,0,0:0:0:70:kick.wav
448,192,72961,1,0,0:0:0:70:kick.wav
448,192,73383,1,0,0:0:0:70:soft-hitclap.wav
192,192,73383,1,0,0:0:0:70:kick.wav
64,192,73806,1,0,0:0:0:70:kick.wav
320,192,74017,1,0,0:0:0:50:soft-hitwhistle.wav
448,192,74228,128,0,74651:0:0:0:70:kick.wav
192,192,74228,1,0,0:0:0:50:soft-hitwhistle.wav
64,192,74651,1,0,0:0:0:70:kick.wav
320,192,75073,1,0,0:0:0:70:soft-hitclap.wav
448,192,75073,1,0,0:0:0:70:kick.wav
64,192,75496,1,0,0:0:0:70:kick.wav
192,192,75707,1,0,0:0:0:50:soft-hitwhistle.wav
320,192,75918,1,0,0:0:0:50:soft-hitwhistle.wav
448,192,75918,1,0,0:0:0:70:soft-hitclap.wav
64,192,76341,1,0,0:0:0:70:kick.wav
320,192,76763,1,0,0:0:0:70:kick.wav
192,192,76763,1,0,0:0:0:70:soft-hitclap.wav
448,192,77186,1,0,0:0:0:70:kick.wav
320,192,77397,1,0,0:0:0:50:soft-hitwhistle.wav
192,192,77608,1,0,0:0:0:70:kick.wav
64,192,77608,1,0,0:0:0:50:soft-hitwhistle.wav
448,192,78031,1,0,0:0:0:70:kick.wav
320,192,78454,128,0,78876:0:0:0:70:kick.wav
64,192,78454,1,0,0:0:0:70:soft-hitclap.wav
192,192,78876,1,0,0:0:0:70:kick.wav
448,192,79299,128,0,79721:0:0:0:70:kick.wav
64,192,79299,1,0,0:0:0:70:soft-hitclap.wav
192,192,79721,1,0,0:0:0:50:kick.wav
64,192,79721,1,0,0:0:0:70:soft-hitclap.wav
320,192,79932,1,0,0:0:0:50:kick.wav
448,192,79932,1,0,0:0:0:70:soft-hitclap.wav
64,192,81411,128,0,81834:0:0:0:40:soft-hitfinish.wav
448,192,81411,1,0,0:0:0:70:kick.wav
320,192,81834,1,0,0:0:0:50:kick.wav
448,192,82045,128,0,82468:0:0:0:70:soft-hitclap.wav
192,192,82468,128,0,82890:0:0:0:0:
448,192,82679,1,0,0:0:0:70:soft-hitclap.wav
320,192,82890,1,0,0:0:0:0:
64,192,83101,128,0,83524:0:0:0:40:soft-hitfinish.wav
448,192,83101,1,0,0:0:0:70:kick.wav
320,192,83524,1,0,0:0:0:50:kick.wav
192,192,83735,1,0,0:0:0:70:soft-hitclap.wav
64,192,83946,128,0,84369:0:0:0:50:kick.wav
448,192,84369,128,0,84792:0:0:0:70:soft-hitclap.wav
192,192,84792,128,0,85214:0:0:0:40:soft-hitfinish.wav
64,192,84792,1,0,0:0:0:70:kick.wav
320,192,85214,1,0,0:0:0:50:kick.wav
64,192,85425,128,0,85848:0:0:0:70:soft-hitclap.wav
448,192,85848,128,0,86270:0:0:0:0:
192,192,86059,1,0,0:0:0:70:soft-hitclap.wav
320,192,86270,1,0,0:0:0:0:
64,192,86482,1,0,0:0:0:60:kick.wav
192,192,86482,1,0,0:0:0:70:soft-hitclap.wav
448,192,86693,1,0,0:0:0:60:kick.wav
320,192,86693,1,0,0:0:0:70:soft-hitclap.wav
192,192,86904,128,0,87221:0:0:0:60:kick.wav
320,192,87221,1,0,0:0:0:60:kick.wav
