osu file format v14

[General]
AudioFilename: audio.mp3
AudioLeadIn: 0
PreviewTime: 52890
Countdown: 0
SampleSet: Soft
StackLeniency: 0.7
Mode: 3
LetterboxInBreaks: 0
SpecialStyle: 0
WidescreenStoryboard: 0

[Editor]
Bookmarks: 16366
DistanceSpacing: 0.6
BeatDivisor: 4
GridSize: 4
TimelineZoom: 3.399999

[Metadata]
Title:Kaze no Uta -TV Size-
TitleUnicode:風ノ唄 -TV Size-
Artist:FLOW
ArtistUnicode:FLOW
Creator:AlisceaSparku
Version:7K MX
Source:テイルズ オブ ゼスティリア ザ クロス
Tags:Tales of Zestiria the X opening tv size - ly0572 - -soragami- eternalie arzenvald arcwinolivirus
BeatmapID:1040825
BeatmapSetID:487622

[Difficulty]
HPDrainRate:8.3
CircleSize:7
OverallDifficulty:8.3
ApproachRate:5
SliderMultiplier:1.4
SliderTickRate:1

[Events]
//Background and Video events
0,0,"bg.jpg",0,0
//Break Periods
//Storyboard Layer 0 (Background)
//Storyboard Layer 1 (Fail)
//Storyboard Layer 2 (Pass)
//Storyboard Layer 3 (Foreground)
//Storyboard Sound Samples

[TimingPoints]
285,422.535211267606,4,2,1,20,1,0
54369,-100,4,2,1,40,0,1
66200,-100,4,2,1,40,0,0
67890,-100,4,2,1,40,0,1
79721,-100,4,2,1,40,0,0

[HitObjects]
182,192,285,5,0,0:0:0:0:
402,192,496,1,0,0:0:0:0:
36,192,601,1,0,0:0:0:0:
402,192,707,1,0,0:0:0:0:
256,192,813,1,0,0:0:0:0:
109,192,918,5,0,0:0:0:0:
475,192,1024,1,0,0:0:0:0:
329,192,1130,1,0,0:0:0:0:
182,192,1235,1,0,0:0:0:0:
475,192,1341,1,0,0:0:0:0:
256,192,1446,1,0,0:0:0:0:
36,192,1552,1,0,0:0:0:0:
475,192,1658,1,0,0:0:0:0:
329,192,1763,1,0,0:0:0:0:
182,192,1869,1,0,0:0:0:0:
402,192,1975,1,0,0:0:0:0:
109,192,2080,1,0,0:0:0:0:
256,192,2186,1,0,0:0:0:0:
475,192,2292,1,0,0:0:0:0:
36,192,2397,1,0,0:0:0:0:
182,192,2503,1,0,0:0:0:0:
402,192,2608,1,0,0:0:0:0:
36,192,2714,1,0,0:0:0:0:
475,192,2820,1,0,0:0:0:0:
256,192,2925,1,0,0:0:0:0:
109,192,3031,1,0,0:0:0:0:
329,192,3137,1,0,0:0:0:0:
36,192,3242,1,0,0:0:0:0:
475,192,3242,1,0,0:0:0:0:
109,192,3348,1,0,0:0:0:0:
402,192,3348,1,0,0:0:0:0:
182,192,3454,1,0,0:0:0:0:
329,192,3454,1,0,0:0:0:0:
256,192,3559,1,0,0:0:0:0:
36,192,3665,5,0,0:0:0:0:
475,192,3665,1,0,0:0:0:0:
402,192,3665,128,0,4299:0:0:0:0:
109,192,3665,1,0,0:0:0:50:soft-hitfinish.wav
182,192,3876,1,0,0:0:0:0:
109,192,3982,1,0,0:0:0:0:
329,192,4087,1,0,0:0:0:0:
256,192,4299,128,0,4510:0:0:0:0:
36,192,4510,128,0,5355:0:0:0:0:
475,192,4615,1,0,0:0:0:0:
182,192,4721,1,0,0:0:0:0:
475,192,4827,1,0,0:0:0:0:
329,192,4932,1,0,0:0:0:0:
256,192,5144,1,0,0:0:0:0:
329,192,5249,1,0,0:0:0:0:
475,192,5355,128,0,6200:0:0:0:0:
402,192,5355,1,0,0:0:0:0:
182,192,5566,1,0,0:0:0:0:
256,192,5672,1,0,0:0:0:0:
36,192,5777,1,0,0:0:0:0:
329,192,5989,1,0,0:0:0:0:
256,192,6200,128,0,6623:0:0:0:0:
36,192,6306,1,0,0:0:0:0:
329,192,6411,1,0,0:0:0:0:
36,192,6517,1,0,0:0:0:0:
402,192,6623,128,0,7045:0:0:0:0:
182,192,6834,1,0,0:0:0:0:
109,192,7045,128,0,7679:0:0:0:0:
329,192,7045,1,0,0:0:0:0:
256,192,7362,1,0,0:0:0:0:
475,192,7468,1,0,0:0:0:0:
329,192,7679,128,0,7890:0:0:0:0:
475,192,7890,128,0,8735:0:0:0:0:
182,192,7996,1,0,0:0:0:0:
36,192,8101,1,0,0:0:0:0:
182,192,8207,1,0,0:0:0:0:
329,192,8313,1,0,0:0:0:0:
256,192,8524,1,0,0:0:0:0:
36,192,8735,128,0,9158:0:0:0:0:
109,192,8735,1,0,0:0:0:0:
182,192,8841,1,0,0:0:0:0:
256,192,8946,1,0,0:0:0:0:
329,192,9052,1,0,0:0:0:0:
402,192,9158,128,0,9369:0:0:0:0:
256,192,9369,128,0,9580:0:0:0:0:
36,192,9580,1,0,0:0:0:0:
475,192,9686,1,0,0:0:0:0:
182,192,9792,128,0,10003:0:0:0:0:
402,192,9897,1,0,0:0:0:0:
109,192,10003,128,0,10214:0:0:0:0:
329,192,10108,1,0,0:0:0:0:
36,192,10214,128,0,10425:0:0:0:0:
256,192,10320,1,0,0:0:0:0:
475,192,10425,128,0,11059:0:0:0:0:
402,192,10425,1,0,0:0:0:0:
36,192,10742,1,0,0:0:0:0:
329,192,10848,1,0,0:0:0:0:
182,192,11059,128,0,11270:0:0:0:0:
36,192,11270,128,0,12115:0:0:0:0:
475,192,11376,1,0,0:0:0:0:
256,192,11482,1,0,0:0:0:0:
475,192,11587,1,0,0:0:0:0:
329,192,11693,1,0,0:0:0:0:
256,192,11799,1,0,0:0:0:0:
182,192,11904,1,0,0:0:0:0:
109,192,12010,1,0,0:0:0:0:
329,192,12115,128,0,12961:0:0:0:0:
475,192,12115,1,0,0:0:0:0:
182,192,12432,1,0,0:0:0:0:
36,192,12538,1,0,0:0:0:0:
402,192,12749,1,0,0:0:0:0:
36,192,12961,128,0,13383:0:0:0:0:
475,192,13066,1,0,0:0:0:0:
182,192,13172,1,0,0:0:0:0:
402,192,13277,1,0,0:0:0:0:
256,192,13383,128,0,13806:0:0:0:0:
182,192,13489,1,0,0:0:0:0:
109,192,13594,1,0,0:0:0:0:
36,192,13700,1,0,0:0:0:0:
475,192,13806,128,0,17186:0:0:0:0:
402,192,13806,1,0,0:0:0:0:
36,192,14123,1,0,0:0:0:0:
329,192,14228,1,0,0:0:0:0:
109,192,14439,1,0,0:0:0:0:
256,192,14651,1,0,0:0:0:0:
36,192,14756,1,0,0:0:0:0:
329,192,14862,1,0,0:0:0:0:
109,192,14968,1,0,0:0:0:0:
402,192,15073,1,0,0:0:0:0:
182,192,15285,1,0,0:0:0:0:
109,192,15390,1,0,0:0:0:0:
36,192,15496,128,0,17186:0:0:0:0:
329,192,15496,1,0,0:0:0:0:
256,192,16975,1,0,0:0:0:0:
329,192,17080,1,0,0:0:0:0:
182,192,17186,128,0,17608:0:0:0:70:kick.wav
109,192,17186,128,0,17608:0:0:0:0:
402,192,17608,1,0,0:0:0:70:kick.wav
475,192,17608,1,0,0:0:0:0:
36,192,17820,128,0,18031:0:0:0:0:
475,192,18031,1,0,0:0:0:70:kick.wav
402,192,18031,1,0,0:0:0:0:
36,192,18242,128,0,18454:0:0:0:0:
402,192,18454,1,0,0:0:0:70:kick.wav
475,192,18454,1,0,0:0:0:0:
109,192,18665,1,0,0:0:0:0:
182,192,18770,1,0,0:0:0:0:
329,192,18876,128,0,19299:0:0:0:70:kick.wav
402,192,18876,128,0,19299:0:0:0:0:
36,192,19299,1,0,0:0:0:70:kick.wav
109,192,19299,128,0,19510:0:0:0:0:
475,192,19510,128,0,19721:0:0:0:0:
36,192,19721,1,0,0:0:0:70:kick.wav
182,192,19721,1,0,0:0:0:0:
475,192,19932,128,0,20144:0:0:0:0:
256,192,20144,1,0,0:0:0:70:kick.wav
36,192,20144,128,0,20249:0:0:0:0:
329,192,20249,1,0,0:0:0:0:
402,192,20355,1,0,0:0:0:0:
182,192,20461,1,0,0:0:0:0:
109,192,20566,128,0,20989:0:0:0:70:kick.wav
36,192,20566,128,0,20989:0:0:0:0:
475,192,20989,1,0,0:0:0:70:kick.wav
329,192,20989,1,0,0:0:0:0:
182,192,21200,128,0,21411:0:0:0:0:
402,192,21411,1,0,0:0:0:70:kick.wav
475,192,21411,1,0,0:0:0:0:
182,192,21623,128,0,21834:0:0:0:0:
475,192,21834,1,0,0:0:0:70:kick.wav
329,192,21834,128,0,21939:0:0:0:0:
109,192,22045,1,0,0:0:0:0:
182,192,22151,1,0,0:0:0:0:
402,192,22256,128,0,22679:0:0:0:70:kick.wav
475,192,22256,128,0,22679:0:0:0:0:
109,192,22679,1,0,0:0:0:70:kick.wav
36,192,22679,1,0,0:0:0:0:
329,192,22890,128,0,23101:0:0:0:0:
109,192,23101,1,0,0:0:0:70:kick.wav
36,192,23101,1,0,0:0:0:0:
329,192,23313,128,0,23524:0:0:0:0:
36,192,23524,1,0,0:0:0:70:kick.wav
256,192,23524,1,0,0:0:0:0:
182,192,23630,1,0,0:0:0:0:
109,192,23735,1,0,0:0:0:0:
329,192,23841,1,0,0:0:0:0:
402,192,23946,128,0,24369:0:0:0:70:kick.wav
475,192,23946,128,0,24369:0:0:0:0:
36,192,24369,1,0,0:0:0:70:kick.wav
109,192,24369,1,0,0:0:0:0:
256,192,24580,128,0,24792:0:0:0:0:
402,192,24792,1,0,0:0:0:70:kick.wav
475,192,24792,1,0,0:0:0:0:
256,192,25003,128,0,25214:0:0:0:0:
109,192,25214,1,0,0:0:0:70:kick.wav
36,192,25214,128,0,25320:0:0:0:0:
329,192,25425,1,0,0:0:0:0:
256,192,25531,1,0,0:0:0:0:
475,192,25637,128,0,26482:0:0:0:70:kick.wav
109,192,25637,128,0,25848:0:0:0:0:
329,192,25848,128,0,26059:0:0:0:0:
109,192,26059,128,0,26270:0:0:0:70:kick.wav
182,192,26059,1,0,0:0:0:0:
256,192,26270,128,0,26482:0:0:0:0:
329,192,26376,1,0,0:0:0:0:
36,192,26482,128,0,27327:0:0:0:70:kick.wav
402,192,26482,128,0,26693:0:0:0:0:
182,192,26693,128,0,26904:0:0:0:0:
475,192,26904,128,0,27115:0:0:0:70:kick.wav
402,192,26904,1,0,0:0:0:0:
256,192,27010,1,0,0:0:0:0:
329,192,27115,128,0,27327:0:0:0:0:
109,192,27221,1,0,0:0:0:0:
402,192,27327,128,0,27749:0:0:0:70:kick.wav
475,192,27327,128,0,27749:0:0:0:0:
182,192,27327,1,0,0:0:0:0:
256,192,27538,1,0,0:0:0:0:
36,192,27749,1,0,0:0:0:70:kick.wav
109,192,27749,1,0,0:0:0:0:
329,192,27961,128,0,28594:0:0:0:0:
109,192,28172,1,0,0:0:0:70:kick.wav
36,192,28172,1,0,0:0:0:0:
475,192,28383,128,0,28594:0:0:0:0:
36,192,28594,1,0,0:0:0:70:kick.wav
109,192,28594,1,0,0:0:0:70:soft-hitclap.wav
256,192,28594,1,0,0:0:0:0:
402,192,28806,1,0,0:0:0:0:
182,192,28911,1,0,0:0:0:0:
36,192,29017,128,0,29439:0:0:0:70:kick.wav
109,192,29017,128,0,29439:0:0:0:0:
256,192,29228,1,0,0:0:0:0:
329,192,29439,1,0,0:0:0:70:kick.wav
475,192,29439,1,0,0:0:0:0:
182,192,29651,128,0,29862:0:0:0:0:
475,192,29862,1,0,0:0:0:70:kick.wav
329,192,29862,1,0,0:0:0:0:
182,192,30073,128,0,30285:0:0:0:0:
475,192,30285,1,0,0:0:0:70:kick.wav
36,192,30285,1,0,0:0:0:0:
402,192,30390,1,0,0:0:0:0:
329,192,30496,1,0,0:0:0:0:
256,192,30601,1,0,0:0:0:0:
109,192,30707,1,0,0:0:0:70:kick.wav
36,192,30707,128,0,31552:0:0:0:0:
182,192,30918,1,0,0:0:0:0:
402,192,31130,1,0,0:0:0:70:kick.wav
475,192,31130,1,0,0:0:0:0:
329,192,31341,1,0,0:0:0:0:
109,192,31446,1,0,0:0:0:0:
256,192,31552,128,0,32397:0:0:0:70:kick.wav
475,192,31552,1,0,0:0:0:0:
329,192,31763,1,0,0:0:0:0:
36,192,31975,1,0,0:0:0:70:kick.wav
109,192,31975,1,0,0:0:0:70:soft-hitclap.wav
402,192,31975,1,0,0:0:0:0:
182,192,32186,1,0,0:0:0:0:
329,192,32292,1,0,0:0:0:0:
475,192,32397,128,0,34087:0:0:0:70:kick.wav
36,192,32397,128,0,32608:0:0:0:0:
329,192,32608,128,0,32820:0:0:0:0:
109,192,32820,128,0,33031:0:0:0:70:kick.wav
402,192,32820,1,0,0:0:0:0:
36,192,33031,128,0,33242:0:0:0:0:
256,192,33031,128,0,34087:0:0:0:0:
329,192,33242,1,0,0:0:0:70:kick.wav
402,192,33242,1,0,0:0:0:0:
36,192,33454,128,0,34087:0:0:0:0:
329,192,33665,1,0,0:0:0:70:kick.wav
402,192,33665,1,0,0:0:0:0:
182,192,33770,1,0,0:0:0:0:
109,192,33876,1,0,0:0:0:0:
329,192,33982,1,0,0:0:0:0:
402,192,34087,128,0,34510:0:0:0:70:kick.wav
182,192,34087,128,0,34510:0:0:0:0:
256,192,34299,1,0,0:0:0:0:
109,192,34510,128,0,34615:0:0:0:70:kick.wav
329,192,34510,1,0,0:0:0:0:
109,192,34721,128,0,35355:0:0:0:0:
475,192,34932,128,0,35777:0:0:0:70:kick.wav
182,192,34932,1,0,0:0:0:0:
329,192,35144,1,0,0:0:0:0:
256,192,35249,1,0,0:0:0:0:
182,192,35355,1,0,0:0:0:70:soft-hitclap.wav
36,192,35355,1,0,0:0:0:70:kick.wav
402,192,35355,1,0,0:0:0:0:
256,192,35566,1,0,0:0:0:0:
182,192,35672,1,0,0:0:0:0:
109,192,35777,128,0,36200:0:0:0:70:kick.wav
329,192,35777,128,0,36200:0:0:0:0:
402,192,35989,1,0,0:0:0:0:
402,192,36200,1,0,0:0:0:70:kick.wav
36,192,36200,1,0,0:0:0:0:
182,192,36411,128,0,36623:0:0:0:0:
256,192,36517,1,0,0:0:0:0:
402,192,36623,128,0,37045:0:0:0:70:kick.wav
36,192,36623,1,0,0:0:0:0:
109,192,36834,1,0,0:0:0:0:
256,192,37045,128,0,37468:0:0:0:70:kick.wav
475,192,37045,1,0,0:0:0:0:
182,192,37151,1,0,0:0:0:0:
109,192,37256,1,0,0:0:0:0:
402,192,37362,1,0,0:0:0:0:
36,192,37468,128,0,38524:0:0:0:70:kick.wav
329,192,37468,128,0,37890:0:0:0:0:
182,192,37679,1,0,0:0:0:0:
109,192,37890,1,0,0:0:0:70:kick.wav
475,192,37890,1,0,0:0:0:0:
402,192,38101,128,0,38524:0:0:0:0:
256,192,38313,1,0,0:0:0:70:kick.wav
182,192,38313,1,0,0:0:0:0:
475,192,38524,128,0,38630:0:0:0:0:
329,192,38630,128,0,38735:0:0:0:0:
182,192,38735,128,0,38841:0:0:0:70:soft-hitclap.wav
256,192,38735,1,0,0:0:0:70:kick.wav
109,192,38735,1,0,0:0:0:0:
36,192,38841,128,0,38946:0:0:0:0:
402,192,38946,128,0,39052:0:0:0:0:
256,192,39052,128,0,39158:0:0:0:0:
109,192,39158,128,0,40848:0:0:0:70:kick.wav
475,192,39158,1,0,0:0:0:0:
329,192,39369,1,0,0:0:0:0:
402,192,39580,128,0,40003:0:0:0:70:kick.wav
36,192,39580,1,0,0:0:0:0:
256,192,39792,1,0,0:0:0:0:
182,192,40003,128,0,40425:0:0:0:70:kick.wav
36,192,40003,1,0,0:0:0:0:
329,192,40214,1,0,0:0:0:0:
475,192,40425,128,0,40848:0:0:0:70:kick.wav
36,192,40425,1,0,0:0:0:0:
402,192,40531,1,0,0:0:0:0:
329,192,40637,1,0,0:0:0:0:
182,192,40742,1,0,0:0:0:0:
256,192,40848,1,0,0:0:0:70:kick.wav
36,192,40848,1,0,0:0:0:40:soft-hitfinish.wav
402,192,40848,128,0,42538:0:0:0:0:
182,192,41059,1,0,0:0:0:0:
109,192,41270,1,0,0:0:0:70:kick.wav
475,192,41270,1,0,0:0:0:0:
36,192,41482,1,0,0:0:0:0:
256,192,41693,1,0,0:0:0:70:kick.wav
329,192,41693,1,0,0:0:0:0:
36,192,41904,1,0,0:0:0:0:
109,192,42010,1,0,0:0:0:0:
256,192,42115,1,0,0:0:0:70:kick.wav
475,192,42115,1,0,0:0:0:0:
182,192,42115,1,0,0:0:0:55:soft-hitclap.wav
329,192,42327,1,0,0:0:0:0:
109,192,42432,1,0,0:0:0:0:
36,192,42538,128,0,43383:0:0:0:70:kick.wav
256,192,42538,1,0,0:0:0:0:
182,192,42749,1,0,0:0:0:0:
329,192,42961,1,0,0:0:0:70:kick.wav
475,192,42961,1,0,0:0:0:0:
182,192,43172,1,0,0:0:0:0:
475,192,43383,128,0,44228:0:0:0:70:kick.wav
329,192,43383,1,0,0:0:0:0:
256,192,43594,1,0,0:0:0:0:
182,192,43700,1,0,0:0:0:0:
36,192,43806,128,0,44228:0:0:0:70:kick.wav
109,192,43806,128,0,44228:0:0:0:0:
402,192,43806,128,0,44228:0:0:0:0:
256,192,44017,1,0,0:0:0:0:
182,192,44228,128,0,45707:0:0:0:70:kick.wav
329,192,44228,1,0,0:0:0:0:
256,192,44439,1,0,0:0:0:0:
36,192,44651,1,0,0:0:0:70:kick.wav
402,192,44651,1,0,0:0:0:0:
109,192,44862,1,0,0:0:0:0:
475,192,45073,1,0,0:0:0:70:kick.wav
256,192,45073,1,0,0:0:0:0:
329,192,45285,1,0,0:0:0:0:
402,192,45390,1,0,0:0:0:0:
475,192,45496,1,0,0:0:0:80:soft-hitclap.wav
109,192,45496,1,0,0:0:0:70:kick.wav
36,192,45496,1,0,0:0:0:0:
329,192,45707,128,0,45918:0:0:0:0:
475,192,45918,128,0,46763:0:0:0:70:kick.wav
256,192,45918,1,0,0:0:0:0:
36,192,46130,1,0,0:0:0:0:
402,192,46341,1,0,0:0:0:70:kick.wav
329,192,46341,1,0,0:0:0:0:
109,192,46552,1,0,0:0:0:0:
256,192,46658,1,0,0:0:0:0:
36,192,46763,128,0,47608:0:0:0:70:kick.wav
402,192,46763,1,0,0:0:0:0:
256,192,46975,1,0,0:0:0:0:
182,192,47080,1,0,0:0:0:0:
109,192,47186,128,0,47608:0:0:0:70:kick.wav
402,192,47186,128,0,47608:0:0:0:0:
475,192,47186,128,0,47608:0:0:0:0:
256,192,47397,1,0,0:0:0:0:
329,192,47608,1,0,0:0:0:40:soft-hitfinish.wav
256,192,47608,128,0,48876:0:0:0:70:kick.wav
182,192,47608,128,0,47820:0:0:0:0:
36,192,47820,128,0,48031:0:0:0:0:
475,192,48031,128,0,48242:0:0:0:70:kick.wav
109,192,48031,1,0,0:0:0:70:soft-hitclap.wav
402,192,48031,1,0,0:0:0:0:
329,192,48242,128,0,48454:0:0:0:0:
109,192,48454,128,0,48665:0:0:0:70:kick.wav
36,192,48454,1,0,0:0:0:0:
402,192,48665,128,0,48876:0:0:0:0:
182,192,48876,128,0,49087:0:0:0:70:soft-hitclap.wav
36,192,48876,1,0,0:0:0:70:kick.wav
475,192,48876,1,0,0:0:0:0:
329,192,49087,128,0,49299:0:0:0:0:
256,192,49299,128,0,50566:0:0:0:35:soft-hitfinish.wav
475,192,49299,128,0,49510:0:0:0:70:kick.wav
109,192,49299,1,0,0:0:0:0:
36,192,49510,128,0,49721:0:0:0:0:
402,192,49721,128,0,49932:0:0:0:70:soft-hitclap.wav
182,192,49721,1,0,0:0:0:70:kick.wav
329,192,49721,1,0,0:0:0:0:
109,192,49932,128,0,50144:0:0:0:0:
329,192,50144,128,0,50355:0:0:0:70:kick.wav
182,192,50144,1,0,0:0:0:0:
36,192,50355,128,0,50566:0:0:0:0:
475,192,50566,128,0,50777:0:0:0:70:soft-hitclap.wav
402,192,50566,1,0,0:0:0:70:kick.wav
109,192,50566,128,0,50989:0:0:0:0:
329,192,50777,128,0,50989:0:0:0:0:
36,192,50989,1,0,0:0:0:100:kick.wav
182,192,50989,1,0,0:0:0:70:soft-hitclap.wav
402,192,50989,1,0,0:0:0:0:
329,192,51306,1,0,0:0:0:100:kick.wav
475,192,51306,1,0,0:0:0:0:
109,192,51306,1,0,0:0:0:70:soft-hitclap.wav
36,192,51623,128,0,51834:0:0:0:100:kick.wav
256,192,51623,128,0,51834:0:0:0:70:soft-hitclap.wav
475,192,51623,128,0,51834:0:0:0:0:
36,192,52045,1,0,0:0:0:100:kick.wav
475,192,52045,1,0,0:0:0:70:soft-hitclap.wav
256,192,52045,1,0,0:0:0:0:
402,192,52256,1,0,0:0:0:100:kick.wav
329,192,52256,1,0,0:0:0:70:soft-hitclap.wav
109,192,52256,1,0,0:0:0:0:
109,192,52468,1,0,0:0:0:100:kick.wav
182,192,52468,1,0,0:0:0:70:soft-hitclap.wav
402,192,52468,1,0,0:0:0:0:
36,192,52679,1,0,0:0:0:100:kick.wav
256,192,52679,1,0,0:0:0:70:soft-hitclap.wav
329,192,52679,1,0,0:0:0:0:
475,192,52679,1,0,0:0:0:0:
36,192,52890,1,0,0:0:0:100:kick.wav
256,192,52890,1,0,0:0:0:70:soft-hitclap.wav
329,192,52890,1,0,0:0:0:0:
475,192,52890,1,0,0:0:0:0:
182,192,54369,1,0,0:0:0:70:kick.wav
475,192,54369,1,0,0:0:0:50:soft-hitfinish.wav
329,192,54369,1,0,0:0:0:0:
36,192,54369,128,0,56059:0:0:0:0:
402,192,54580,1,0,0:0:0:0:
109,192,54792,1,0,0:0:0:70:soft-hitclap.wav
256,192,54792,1,0,0:0:0:70:kick.wav
475,192,54792,1,0,0:0:0:0:
329,192,55003,1,0,0:0:0:0:
182,192,55214,128,0,55425:0:0:0:70:kick.wav
109,192,55214,1,0,0:0:0:0:
402,192,55425,128,0,55637:0:0:0:50:soft-hitwhistle.wav
256,192,55425,1,0,0:0:0:0:
256,192,55637,128,0,55848:0:0:0:70:kick.wav
109,192,55637,1,0,0:0:0:50:soft-hitwhistle.wav
329,192,55637,1,0,0:0:0:70:soft-hitclap.wav
475,192,55848,128,0,56059:0:0:0:0:
329,192,56059,128,0,56904:0:0:0:70:kick.wav
182,192,56059,1,0,0:0:0:0:
109,192,56270,1,0,0:0:0:0:
256,192,56482,1,0,0:0:0:70:soft-hitclap.wav
36,192,56482,1,0,0:0:0:70:kick.wav
475,192,56482,1,0,0:0:0:0:
402,192,56693,1,0,0:0:0:0:
182,192,56904,128,0,57749:0:0:0:70:kick.wav
109,192,56904,1,0,0:0:0:0:
402,192,57115,1,0,0:0:0:50:soft-hitwhistle.wav
256,192,57115,1,0,0:0:0:0:
402,192,57327,1,0,0:0:0:50:soft-hitwhistle.wav
256,192,57327,1,0,0:0:0:70:soft-hitclap.wav
36,192,57327,1,0,0:0:0:70:kick.wav
329,192,57538,1,0,0:0:0:0:
475,192,57749,128,0,59439:0:0:0:70:kick.wav
109,192,57749,1,0,0:0:0:0:
256,192,57961,1,0,0:0:0:0:
402,192,58172,1,0,0:0:0:70:kick.wav
36,192,58172,1,0,0:0:0:70:soft-hitclap.wav
182,192,58172,1,0,0:0:0:0:
329,192,58383,1,0,0:0:0:0:
109,192,58594,1,0,0:0:0:70:kick.wav
36,192,58594,1,0,0:0:0:0:
256,192,58806,1,0,0:0:0:50:soft-hitwhistle.wav
402,192,58806,1,0,0:0:0:0:
256,192,59017,1,0,0:0:0:50:soft-hitwhistle.wav
402,192,59017,1,0,0:0:0:70:kick.wav
36,192,59017,1,0,0:0:0:70:soft-hitclap.wav
182,192,59228,1,0,0:0:0:0:
256,192,59439,128,0,60707:0:0:0:70:kick.wav
329,192,59439,1,0,0:0:0:0:
109,192,59651,1,0,0:0:0:0:
402,192,59862,1,0,0:0:0:70:soft-hitclap.wav
475,192,59862,1,0,0:0:0:70:kick.wav
36,192,59862,1,0,0:0:0:0:
182,192,60073,1,0,0:0:0:0:
109,192,60285,1,0,0:0:0:70:kick.wav
329,192,60285,1,0,0:0:0:0:
475,192,60496,1,0,0:0:0:50:soft-hitwhistle.wav
36,192,60496,1,0,0:0:0:0:
182,192,60707,128,0,60813:0:0:0:70:kick.wav
329,192,60707,128,0,60813:0:0:0:50:soft-hitwhistle.wav
475,192,60707,1,0,0:0:0:70:soft-hitclap.wav
36,192,60707,1,0,0:0:0:50:soft-hitfinish.wav
402,192,60813,128,0,60918:0:0:0:0:
109,192,60813,128,0,60918:0:0:0:0:
36,192,60918,128,0,61024:0:0:0:0:
475,192,60918,128,0,61024:0:0:0:0:
329,192,61024,128,0,61130:0:0:0:0:
182,192,61024,128,0,61130:0:0:0:0:
256,192,61130,128,0,62397:0:0:0:70:kick.wav
402,192,61130,1,0,0:0:0:0:
109,192,61341,1,0,0:0:0:0:
36,192,61552,1,0,0:0:0:70:kick.wav
475,192,61552,1,0,0:0:0:70:soft-hitclap.wav
329,192,61552,1,0,0:0:0:0:
182,192,61763,1,0,0:0:0:0:
36,192,61975,1,0,0:0:0:70:kick.wav
475,192,61975,1,0,0:0:0:0:
402,192,62186,1,0,0:0:0:50:soft-hitwhistle.wav
109,192,62186,1,0,0:0:0:0:
402,192,62397,1,0,0:0:0:50:soft-hitwhistle.wav
109,192,62397,1,0,0:0:0:70:kick.wav
36,192,62397,128,0,62503:0:0:0:70:soft-hitclap.wav
182,192,62503,128,0,62608:0:0:0:0:
329,192,62608,128,0,62714:0:0:0:0:
475,192,62714,128,0,62820:0:0:0:0:
256,192,62820,128,0,63665:0:0:0:70:kick.wav
36,192,62820,1,0,0:0:0:0:
182,192,63031,1,0,0:0:0:0:
109,192,63242,1,0,0:0:0:70:kick.wav
402,192,63242,1,0,0:0:0:70:soft-hitclap.wav
475,192,63242,1,0,0:0:0:0:
329,192,63454,1,0,0:0:0:0:
36,192,63665,128,0,64510:0:0:0:70:kick.wav
182,192,63665,1,0,0:0:0:0:
402,192,63876,1,0,0:0:0:50:soft-hitwhistle.wav
329,192,63876,1,0,0:0:0:0:
402,192,64087,1,0,0:0:0:50:soft-hitwhistle.wav
109,192,64087,1,0,0:0:0:70:kick.wav
329,192,64087,128,0,64510:0:0:0:70:soft-hitclap.wav
475,192,64510,128,0,66200:0:0:0:70:kick.wav
182,192,64510,1,0,0:0:0:0:
256,192,64721,1,0,0:0:0:0:
109,192,64932,128,0,65355:0:0:0:70:soft-hitclap.wav
402,192,64932,1,0,0:0:0:70:kick.wav
182,192,64932,1,0,0:0:0:0:
329,192,65144,1,0,0:0:0:0:
256,192,65355,1,0,0:0:0:70:kick.wav
36,192,65355,1,0,0:0:0:0:
182,192,65566,1,0,0:0:0:0:
256,192,65777,128,0,66200:0:0:0:70:soft-hitclap.wav
402,192,65777,1,0,0:0:0:70:kick.wav
109,192,65777,1,0,0:0:0:0:
329,192,65989,1,0,0:0:0:0:
36,192,66200,128,0,67890:0:0:0:40:soft-hitfinish.wav
402,192,66200,1,0,0:0:0:70:kick.wav
182,192,66200,128,0,66411:0:0:0:0:
256,192,66306,128,0,66517:0:0:0:0:
329,192,66411,128,0,66623:0:0:0:0:
402,192,66517,128,0,66728:0:0:0:0:
109,192,66623,128,0,67045:0:0:0:70:soft-hitclap.wav
475,192,66623,128,0,67045:0:0:0:70:kick.wav
182,192,66623,128,0,66834:0:0:0:0:
256,192,66728,128,0,66939:0:0:0:0:
329,192,66834,128,0,67045:0:0:0:0:
182,192,66939,128,0,67045:0:0:0:0:
402,192,67045,128,0,67256:0:0:0:70:kick.wav
256,192,67045,1,0,0:0:0:70:soft-hitclap.wav
329,192,67151,128,0,67362:0:0:0:50:kick.wav
182,192,67151,1,0,0:0:0:50:soft-hitclap.wav
256,192,67256,128,0,67468:0:0:0:0:
182,192,67362,128,0,67468:0:0:0:0:
109,192,67468,128,0,67890:0:0:0:70:soft-hitclap.wav
402,192,67468,128,0,67890:0:0:0:70:kick.wav
329,192,67468,1,0,0:0:0:0:
329,192,67890,1,0,0:0:0:70:kick.wav
256,192,67890,1,0,0:0:0:50:soft-hitfinish.wav
475,192,67890,128,0,69580:0:0:0:0:
182,192,67890,1,0,0:0:0:0:
109,192,68101,1,0,0:0:0:0:
36,192,68313,1,0,0:0:0:70:kick.wav
256,192,68313,1,0,0:0:0:70:soft-hitclap.wav
402,192,68313,1,0,0:0:0:0:
182,192,68524,1,0,0:0:0:0:
329,192,68735,128,0,68946:0:0:0:70:kick.wav
36,192,68735,1,0,0:0:0:0:
109,192,68946,128,0,69158:0:0:0:50:soft-hitwhistle.wav
256,192,68946,1,0,0:0:0:0:
256,192,69158,128,0,69369:0:0:0:70:soft-hitclap.wav
182,192,69158,1,0,0:0:0:50:soft-hitwhistle.wav
402,192,69158,1,0,0:0:0:70:kick.wav
36,192,69369,128,0,69580:0:0:0:0:
329,192,69580,1,0,0:0:0:70:kick.wav
182,192,69580,128,0,70425:0:0:0:0:
402,192,69792,1,0,0:0:0:0:
109,192,70003,1,0,0:0:0:70:kick.wav
256,192,70003,1,0,0:0:0:70:soft-hitclap.wav
475,192,70003,1,0,0:0:0:0:
329,192,70214,1,0,0:0:0:0:
36,192,70425,128,0,71270:0:0:0:70:kick.wav
402,192,70425,1,0,0:0:0:0:
256,192,70637,1,0,0:0:0:50:soft-hitwhistle.wav
475,192,70637,1,0,0:0:0:0:
256,192,70848,1,0,0:0:0:50:soft-hitwhistle.wav
475,192,70848,1,0,0:0:0:70:soft-hitclap.wav
329,192,70848,1,0,0:0:0:70:kick.wav
182,192,71059,1,0,0:0:0:0:
402,192,71270,128,0,72961:0:0:0:70:kick.wav
109,192,71270,1,0,0:0:0:0:
256,192,71482,1,0,0:0:0:0:
36,192,71693,1,0,0:0:0:70:soft-hitclap.wav
182,192,71693,1,0,0:0:0:70:kick.wav
475,192,71693,1,0,0:0:0:0:
329,192,71904,1,0,0:0:0:0:
109,192,72115,1,0,0:0:0:70:kick.wav
475,192,72115,1,0,0:0:0:0:
256,192,72327,1,0,0:0:0:50:soft-hitwhistle.wav
36,192,72327,1,0,0:0:0:0:
256,192,72538,1,0,0:0:0:50:soft-hitwhistle.wav
36,192,72538,1,0,0:0:0:70:kick.wav
329,192,72538,1,0,0:0:0:70:soft-hitclap.wav
182,192,72749,1,0,0:0:0:0:
109,192,72961,128,0,73806:0:0:0:70:kick.wav
475,192,72961,1,0,0:0:0:0:
329,192,73172,1,0,0:0:0:0:
256,192,73383,1,0,0:0:0:70:soft-hitclap.wav
36,192,73383,1,0,0:0:0:70:kick.wav
475,192,73383,1,0,0:0:0:0:
402,192,73594,1,0,0:0:0:0:
256,192,73806,128,0,74228:0:0:0:70:kick.wav
182,192,73806,1,0,0:0:0:0:
36,192,74017,1,0,0:0:0:50:soft-hitwhistle.wav
329,192,74017,1,0,0:0:0:0:
475,192,74228,128,0,74651:0:0:0:70:kick.wav
36,192,74228,1,0,0:0:0:50:soft-hitwhistle.wav
329,192,74228,1,0,0:0:0:70:soft-hitclap.wav
182,192,74228,1,0,0:0:0:50:soft-hitfinish.wav
109,192,74439,1,0,0:0:0:0:
36,192,74651,128,0,75285:0:0:0:70:kick.wav
182,192,74651,1,0,0:0:0:0:
402,192,74651,1,0,0:0:0:0:
256,192,74862,1,0,0:0:0:0:
329,192,75073,1,0,0:0:0:70:soft-hitclap.wav
475,192,75073,1,0,0:0:0:70:kick.wav
109,192,75073,1,0,0:0:0:0:
182,192,75285,128,0,75496:0:0:0:0:
475,192,75496,128,0,75918:0:0:0:70:kick.wav
256,192,75496,1,0,0:0:0:0:
109,192,75707,1,0,0:0:0:50:soft-hitwhistle.wav
329,192,75707,1,0,0:0:0:0:
109,192,75918,1,0,0:0:0:50:soft-hitwhistle.wav
329,192,75918,1,0,0:0:0:70:soft-hitclap.wav
402,192,75918,1,0,0:0:0:70:kick.wav
182,192,76130,128,0,76341:0:0:0:0:
36,192,76341,128,0,76552:0:0:0:70:kick.wav
256,192,76341,1,0,0:0:0:0:
329,192,76552,128,0,76763:0:0:0:0:
109,192,76763,128,0,76975:0:0:0:70:kick.wav
475,192,76763,1,0,0:0:0:70:soft-hitclap.wav
182,192,76763,1,0,0:0:0:0:
256,192,76975,128,0,77186:0:0:0:0:
475,192,77186,128,0,77397:0:0:0:70:kick.wav
36,192,77186,1,0,0:0:0:0:
182,192,77397,128,0,77608:0:0:0:50:soft-hitwhistle.wav
329,192,77397,1,0,0:0:0:0:
329,192,77608,128,0,78031:0:0:0:70:kick.wav
109,192,77608,1,0,0:0:0:50:soft-hitwhistle.wav
402,192,77608,1,0,0:0:0:70:soft-hitclap.wav
36,192,78031,128,0,79721:0:0:0:70:kick.wav
256,192,78031,1,0,0:0:0:0:
402,192,78242,1,0,0:0:0:0:
475,192,78454,128,0,78876:0:0:0:70:kick.wav
182,192,78454,1,0,0:0:0:70:soft-hitclap.wav
109,192,78454,1,0,0:0:0:0:
256,192,78665,1,0,0:0:0:0:
109,192,78876,1,0,0:0:0:70:kick.wav
402,192,78876,1,0,0:0:0:0:
329,192,79087,1,0,0:0:0:0:
475,192,79299,128,0,79721:0:0:0:70:kick.wav
182,192,79299,1,0,0:0:0:70:soft-hitclap.wav
256,192,79299,1,0,0:0:0:0:
109,192,79721,1,0,0:0:0:50:kick.wav
329,192,79721,1,0,0:0:0:70:soft-hitclap.wav
256,192,79721,1,0,0:0:0:0:
182,192,79721,1,0,0:0:0:0:
402,192,79721,1,0,0:0:0:0:
329,192,79932,1,0,0:0:0:50:kick.wav
256,192,79932,1,0,0:0:0:70:soft-hitclap.wav
182,192,79932,1,0,0:0:0:0:
109,192,79932,1,0,0:0:0:0:
402,192,79932,1,0,0:0:0:0:
402,192,80989,128,0,81411:0:0:0:0:
182,192,81411,128,0,81834:0:0:0:40:soft-hitfinish.wav
475,192,81411,1,0,0:0:0:70:kick.wav
109,192,81411,1,0,0:0:0:0:
36,192,81411,1,0,0:0:0:0:
256,192,81623,1,0,0:0:0:0:
329,192,81728,1,0,0:0:0:50:kick.wav
402,192,81728,1,0,0:0:0:70:soft-hitclap.wav
109,192,81834,1,0,0:0:0:50:kick.wav
36,192,81834,1,0,0:0:0:0:
256,192,82045,1,0,0:0:0:70:soft-hitclap.wav
475,192,82045,128,0,82468:0:0:0:50:kick.wav
329,192,82256,1,0,0:0:0:50:kick.wav
36,192,82256,1,0,0:0:0:0:
109,192,82362,1,0,0:0:0:70:soft-hitclap.wav
402,192,82362,1,0,0:0:0:50:kick.wav
182,192,82468,128,0,82890:0:0:0:0:
329,192,82679,1,0,0:0:0:70:soft-hitclap.wav
475,192,82679,1,0,0:0:0:70:kick.wav
36,192,82679,1,0,0:0:0:0:
402,192,82890,1,0,0:0:0:0:
329,192,82996,1,0,0:0:0:0:
256,192,83101,128,0,83524:0:0:0:40:soft-hitfinish.wav
36,192,83101,1,0,0:0:0:70:kick.wav
182,192,83101,1,0,0:0:0:0:
475,192,83101,1,0,0:0:0:70:soft-hitclap.wav
109,192,83313,1,0,0:0:0:0:
329,192,83418,1,0,0:0:0:50:kick.wav
402,192,83418,1,0,0:0:0:70:soft-hitclap.wav
182,192,83524,1,0,0:0:0:50:kick.wav
109,192,83524,1,0,0:0:0:0:
475,192,83735,1,0,0:0:0:70:soft-hitclap.wav
36,192,83735,128,0,84158:0:0:0:50:kick.wav
329,192,83946,128,0,84369:0:0:0:50:kick.wav
256,192,83946,1,0,0:0:0:0:
109,192,84052,1,0,0:0:0:50:kick.wav
182,192,84052,1,0,0:0:0:70:soft-hitclap.wav
475,192,84158,128,0,84580:0:0:0:0:
402,192,84369,1,0,0:0:0:70:soft-hitclap.wav
256,192,84369,1,0,0:0:0:0:
182,192,84369,128,0,84792:0:0:0:70:kick.wav
109,192,84580,1,0,0:0:0:0:
256,192,84686,1,0,0:0:0:0:
36,192,84792,128,0,85214:0:0:0:40:soft-hitfinish.wav
402,192,84792,128,0,86482:0:0:0:70:kick.wav
329,192,84792,1,0,0:0:0:70:soft-hitclap.wav
475,192,84792,1,0,0:0:0:0:
109,192,85003,1,0,0:0:0:0:
256,192,85108,1,0,0:0:0:50:kick.wav
329,192,85108,1,0,0:0:0:70:soft-hitclap.wav
182,192,85214,1,0,0:0:0:50:kick.wav
109,192,85214,1,0,0:0:0:0:
475,192,85425,1,0,0:0:0:70:soft-hitclap.wav
256,192,85425,128,0,85848:0:0:0:50:kick.wav
36,192,85637,1,0,0:0:0:70:kick.wav
475,192,85637,1,0,0:0:0:0:
329,192,85742,1,0,0:0:0:50:kick.wav
182,192,85742,1,0,0:0:0:70:soft-hitclap.wav
109,192,85848,128,0,86482:0:0:0:0:
36,192,86059,1,0,0:0:0:70:soft-hitclap.wav
475,192,86059,1,0,0:0:0:0:
182,192,86059,1,0,0:0:0:70:kick.wav
329,192,86270,1,0,0:0:0:0:
256,192,86376,1,0,0:0:0:0:
182,192,86482,1,0,0:0:0:60:kick.wav
36,192,86482,1,0,0:0:0:0:
329,192,86482,1,0,0:0:0:70:soft-hitclap.wav
475,192,86482,1,0,0:0:0:0:
36,192,86693,1,0,0:0:0:60:kick.wav
329,192,86693,1,0,0:0:0:70:soft-hitclap.wav
182,192,86693,1,0,0:0:0:0:
475,192,86693,1,0,0:0:0:0:
402,192,86904,1,0,0:0:0:60:kick.wav
256,192,86904,1,0,0:0:0:70:soft-hitclap.wav
109,192,86904,1,0,0:0:0:0:
109,192,87010,1,0,0:0:0:60:kick.wav
256,192,87010,1,0,0:0:0:70:soft-hitclap.wav
402,192,87010,1,0,0:0:0:0:
475,192,87115,1,0,0:0:0:60:kick.wav
182,192,87115,1,0,0:0:0:70:soft-hitclap.wav
329,192,87115,1,0,0:0:0:0:
36,192,87115,1,0,0:0:0:0:
402,192,87221,1,0,0:0:0:60:kick.wav
256,192,87221,1,0,0:0:0:70:soft-hitclap.wav
109,192,87221,1,0,0:0:0:0:
