osu file format v14

[General]
AudioFilename: audio.mp3
AudioLeadIn: 0
PreviewTime: 53078
Countdown: 0
SampleSet: Soft
StackLeniency: 0.7
Mode: 2
LetterboxInBreaks: 0
WidescreenStoryboard: 1

[Editor]
Bookmarks: 17198,33149,54381,71599
DistanceSpacing: 1.3
BeatDivisor: 4
GridSize: 4
TimelineZoom: 3.399999

[Metadata]
Title:Kaze no Uta (TV Size)
TitleUnicode:風ノ唄 (TV Size)
Artist:FLOW
ArtistUnicode:FLOW
Creator:Secre
Version:Tempest
Source:テイルズ オブ ゼスティリア ザ クロス
Tags:chickenbible blackbn blackbq greaper Tales of Zestiria the X opening anime shanipika male vocal japanese pop jpop j-pop jrock j-rock rock op KOHSHI Asakawa Koshi TAKE Takeshi 浅川岳史 浅川甲史 KEIGO Hayashi 林圭吾 GOT'S Gotou Koutarou 後藤康太郎 IWASAKI Hiroshi 岩崎博詞 BURN
BeatmapID:3736233
BeatmapSetID:1820815

[Difficulty]
HPDrainRate:5
CircleSize:4.2
OverallDifficulty:9.4
ApproachRate:9.4
SliderMultiplier:2.4
SliderTickRate:2

[Events]
//Background and Video events
0,0,"hololive mmorpg waiting room.png",0,0
//Break Periods
//Storyboard Layer 0 (Background)
//Storyboard Layer 1 (Fail)
//Storyboard Layer 2 (Pass)
//Storyboard Layer 3 (Foreground)
//Storyboard Layer 4 (Overlay)
//Storyboard Sound Samples

[TimingPoints]
297,422.535211267606,4,2,1,37,1,0
719,-100,4,2,1,37,0,0
3677,-100,4,2,1,43,0,0
15508,-100,4,2,1,43,0,0
17198,-100,4,2,1,37,0,0
23747,-100,4,2,1,40,0,0
27339,-100,4,2,1,40,0,0
33888,-100,4,2,1,43,0,0
47620,-100,4,2,1,45,0,0
51001,-100,4,2,1,45,0,0
54381,-90.9090909090909,4,2,1,65,0,1
81423,-100,4,2,1,55,0,0

[Colours]
Combo1 : 247,141,138
Combo2 : 242,167,98
Combo3 : 159,234,174
Combo4 : 176,216,249

[HitObjects]
336,156,297,5,0,0:0:0:0:
177,104,508,1,0,0:0:0:0:
367,71,719,6,0,L|291:76,2,60,2|0|0,0:0|0:0|0:0,0:0:0:0:
473,66,1036,2,0,L|480:228,1,120,2|0,0:0|0:0,0:0:0:0:
376,196,1353,2,0,L|445:185,1,60,2|0,0:0|0:0,0:0:0:0:
331,137,1564,2,0,L|324:49,1,60,0|2,0:0|0:0,0:0:0:0:
430,56,1775,2,0,L|434:-22,1,60
326,29,1987,6,0,L|166:31,1,120,2|0,0:0|0:0,0:0:0:0:
390,134,2409,2,0,L|299:138,2,60,2|0|0,0:0|0:0|0:0,0:0:0:0:
288,81,2726,6,0,L|134:90,1,120,2|0,0:0|0:0,0:0:0:0:
371,48,3043,2,0,L|462:45,1,60,2|0,0:0|0:0,0:0:0:0:
202,175,3254,2,0,L|124:176,1,60,2|2,0:0|0:0,0:0:0:0:
326,101,3466,2,0,L|244:104,1,60,2|0,3:0|3:0,0:0:0:0:
68,198,3677,6,0,P|29:133|116:79,1,180,4|0,0:0|3:0,0:0:0:0:
198,65,4099,2,0,L|204:143,1,60,0|0,3:0|0:0,0:0:0:0:
103,95,4311,2,0,L|97:22,1,60,2|0,3:0|0:0,0:0:0:0:
297,53,4522,6,0,L|455:53,2,120,2|0|0,3:0|0:0|3:0,0:0:0:0:
473,120,5156,2,0,L|373:118,1,60,0|0,3:0|0:0,0:0:0:0:
195,193,5367,6,0,L|348:186,1,120,2|0,3:0|3:0,0:0:0:0:
156,89,5789,2,0,L|16:97,1,120,0|0,3:0|3:0,0:0:0:0:
342,45,6212,6,0,P|420:59|458:176,1,180,2|0,0:0|0:0,0:0:0:0:
220,203,6635,2,0,L|363:197,1,120,2|0,0:0|3:0,0:0:0:0:
58,169,7057,6,0,P|13:107|126:26,1,240,2|0,3:0|3:0,0:0:0:0:
304,83,7691,1,2,3:0:0:0:
114,80,7902,6,0,L|201:78,2,60,2|0|0,3:0|3:0|3:0,0:0:0:0:
304,83,8325,2,0,L|440:80,1,120,0|0,3:0|3:0,0:0:0:0:
108,253,8747,6,0,P|55:219|145:137,1,180,2|0,3:0|3:0,0:0:0:0:
286,149,9170,2,0,L|461:145,1,120,2|2,3:0|3:0,0:0:0:0:
214,74,9592,6,0,L|140:80,2,60,2|0|0,3:0|3:0|3:0,0:0:0:0:
414,69,10015,2,0,L|423:209,1,120,0|0,3:0|3:0,0:0:0:0:
86,222,10437,6,0,L|274:202,1,180,2|0,3:0|3:0,0:0:0:0:
160,150,10860,2,0,L|155:77,1,60,0|0,3:0|0:0,0:0:0:0:
263,59,11071,2,0,L|268:-22,1,60,2|0,3:0|0:0,0:0:0:0:
88,36,11282,6,0,P|23:65|49:190,1,180,2|0,3:0|3:0,0:0:0:0:
228,194,11705,2,0,L|392:193,1,120,0|0,3:0|3:0,0:0:0:0:
53,121,12127,5,2,3:0:0:0:
245,96,12339,2,0,L|165:91,1,60,0|0,0:0|3:0,0:0:0:0:
378,67,12550,2,0,L|511:74,1,120,0|0,3:0|3:0,0:0:0:0:
202,127,12973,6,0,P|134:127|91:235,1,180,2|0,3:0|3:0,0:0:0:0:
296,224,13395,2,0,L|141:225,1,120,2|0,3:0|3:0,0:0:0:0:
265,161,13712,1,0,3:0:0:0:
92,166,13818,6,0,L|79:91,1,60,2|0,3:0|0:0,0:0:0:0:
299,41,14029,2,0,L|382:42,1,60,0|0,0:0|3:0,0:0:0:0:
163,136,14240,2,0,L|384:123,1,180,0|0,3:0|0:0,0:0:0:0:
249,207,14663,6,0,L|244:117,1,60,0|0,3:0|3:0,0:0:0:0:
343,107,14874,2,0,L|348:36,1,60,0|0,3:0|3:0,0:0:0:0:
173,108,15085,2,0,L|319:106,1,120,0|0,3:0|3:0,0:0:0:0:
211,42,15402,1,0,0:0:0:0:
449,70,15508,5,2,3:0:0:0:
256,192,15719,12,0,16775,0:0:0:0:
250,128,16987,6,0,L|157:133,1,60,0|0,3:0|3:0,0:0:0:0:
414,94,17198,6,0,P|475:115|411:212,1,180,2|0,3:2|0:0,0:0:0:0:
261,209,17620,2,0,L|254:121,1,60,2|0,3:2|0:0,0:0:0:0:
445,105,17832,6,0,L|241:102,1,180,2|0,3:2|0:0,0:0:0:0:
369,128,18254,2,0,L|373:218,1,60,2|0,3:0|0:0,0:0:0:0:
177,232,18466,1,2,3:0:0:0:
375,226,18677,2,0,L|289:223,1,60,0|0,3:2|3:0,0:0:0:0:
93,149,18888,6,0,L|261:145,2,120,2|0|2,3:2|0:0|3:2,0:0:0:0:
391,253,19522,6,0,P|448:230|360:129,1,240,2|2,3:2|3:0,0:0:0:0:
177,134,20156,1,2,3:0:0:0:
384,117,20367,2,0,L|298:119,1,60,0|0,3:2|3:0,0:0:0:0:
81,218,20578,6,0,P|35:167|125:86,1,180,2|0,3:2|0:0,0:0:0:0:
268,75,21001,2,0,L|276:168,1,60,2|0,3:2|0:0,0:0:0:0:
88,248,21212,6,0,L|284:245,1,180,2|0,3:2|0:0,0:0:0:0:
166,175,21635,2,0,L|161:99,1,60,2|0,3:2|0:0,0:0:0:0:
260,73,21846,1,2,3:0:0:0:
457,85,22057,2,0,L|366:84,1,60,0|0,3:2|3:0,0:0:0:0:
152,230,22268,6,0,L|382:217,1,180,2|0,3:0|0:0,0:0:0:0:
220,159,22691,2,0,L|215:88,1,60,2|0,3:0|0:0,0:0:0:0:
452,69,22902,6,0,L|241:73,1,180,2|0,3:0|0:0,0:0:0:0:
375,113,23325,2,0,L|383:194,1,60,2|0,3:0|0:0,0:0:0:0:
271,231,23536,1,2,3:0:0:0:
77,141,23747,2,0,L|176:138,1,60,0|0,3:2|3:2,0:0:0:0:
347,212,23958,6,0,L|178:215,1,120,2|0,3:2|3:2,0:0:0:0:
321,147,24275,1,0,3:2:0:0:
224,146,24381,1,2,3:2:0:0:
500,116,24592,2,0,L|345:116,1,120,2|0,3:2|3:2,0:0:0:0:
78,231,25015,6,0,L|302:219,1,180,2|0,3:2|0:0,0:0:0:0:
156,152,25437,2,0,L|234:145,1,60,0|0,3:0|3:0,0:0:0:0:
418,107,25649,6,0,L|281:108,1,120,2|2,3:0|3:0,0:0:0:0:
485,31,26071,2,0,L|346:28,1,120,2|2,3:0|3:0,0:0:0:0:
71,181,26494,5,2,3:0:0:0:
257,179,26705,1,2,3:0:0:0:
71,181,26916,1,2,3:0:0:0:
257,179,27127,2,0,L|184:180,1,60,0|0,3:2|3:2,0:0:0:0:
372,113,27339,6,0,P|446:125|470:238,1,180,2|0,3:2|0:0,0:0:0:0:
270,219,27761,2,0,L|269:138,1,60,2|0,3:2|0:0,0:0:0:0:
471,139,27973,6,0,L|303:138,2,120,2|0|2,3:2|3:0|3:0,0:0:0:0:
138,143,28606,1,8,0:0:0:0:
327,90,28818,2,0,L|224:88,1,60,0|0,3:2|3:0,0:0:0:0:
73,228,29029,6,0,P|13:189|100:138,1,180,2|0,3:2|0:0,0:0:0:0:
246,108,29451,2,0,L|251:186,1,60,2|0,3:2|0:0,0:0:0:0:
58,198,29663,6,0,L|230:194,2,120,2|0|2,3:2|3:0|3:0,0:0:0:0:
353,115,30297,1,2,3:0:0:0:
149,52,30508,2,0,L|217:47,1,60,0|0,3:2|3:0,0:0:0:0:
428,59,30719,6,0,L|239:55,1,180,2|0,3:2|0:0,0:0:0:0:
440,148,31142,2,0,L|341:143,1,60,2|0,3:2|0:0,0:0:0:0:
211,126,31353,2,0,L|299:127,1,60,0|0,3:2|3:0,0:0:0:0:
109,75,31564,5,2,3:0:0:0:
284,69,31775,1,0,3:2:0:0:
16,75,31987,1,8,0:0:0:0:
296,70,32198,2,0,L|201:71,1,60,0|0,3:2|3:0,0:0:0:0:
419,124,32409,6,0,L|282:129,2,120,2|0|2,3:0|3:0|3:0,0:0:0:0:
142,231,33043,2,0,L|412:227,1,240,2|2,3:0|3:0,0:0:0:0:
202,149,33677,5,2,3:0:0:0:
399,108,33888,2,0,L|329:110,1,60,0|0,3:2|3:2,0:0:0:0:
86,223,34099,6,0,L|299:212,1,180,2|0,3:2|0:0,0:0:0:0:
164,154,34522,2,0,L|162:84,1,60,2|0,3:2|0:0,0:0:0:0:
370,71,34733,1,2,3:2:0:0:
66,105,34944,6,0,L|216:108,2,120,0|2|8,3:0|3:0|0:0,0:0:0:0:
250,163,35578,2,0,L|158:162,1,60,0|0,3:2|3:2,0:0:0:0:
390,138,35789,6,0,L|394:67,1,60,2|0,3:2|0:0,0:0:0:0:
230,101,36001,2,0,L|228:37,1,60,0|0,3:2|0:0,0:0:0:0:
66,94,36212,2,0,L|58:19,1,60,0|0,3:2|0:0,0:0:0:0:
233,184,36423,2,0,L|131:187,1,60,0|0,3:2|3:2,0:0:0:0:
346,109,36635,6,0,L|427:107,2,60,2|0|0,3:2|0:0|3:0,0:0:0:0:
177,56,36951,2,0,L|102:57,2,60,0|2|0,0:0|3:0|0:0,0:0:0:0:
349,52,37268,2,0,L|354:125,1,60,0|0,3:2|3:0,0:0:0:0:
160,205,37480,6,0,L|328:198,2,120,2|0|2,3:0|3:0|3:0,0:0:0:0:
436,132,38113,2,0,L|163:135,1,240,2|2,3:0|3:0,0:0:0:0:
285,75,38642,1,0,3:0:0:0:
196,134,38747,5,8,0:0:0:0:
285,75,38853,1,0,3:0:0:0:
196,134,38958,1,0,3:0:0:0:
285,75,39064,1,0,3:0:0:0:
69,211,39170,6,0,P|15:180|95:112,1,180,2|0,3:0|0:0,0:0:0:0:
292,116,39592,2,0,L|80:127,1,180,0|0,3:2|0:0,0:0:0:0:
340,141,40015,6,0,P|410:144|457:235,1,180,0|0,3:2|0:0,0:0:0:0:
213,255,40437,2,0,L|389:244,1,120,2|0,3:2|3:0,0:0:0:0:
332,247,40754,1,0,3:0:0:0:
75,212,40860,6,0,P|11:184|84:133,1,180,4|0,0:2|0:0,0:0:0:0:
271,111,41282,2,0,L|168:111,1,60,0|0,3:2|0:0,0:0:0:0:
22,58,41494,6,0,L|185:55,2,120,0|0|0,3:2|3:0|3:2,0:0:0:0:
336,150,42127,1,8,0:0:0:0:
148,76,42339,2,0,L|236:71,1,60,0|0,3:2|3:0,0:0:0:0:
455,78,42550,6,0,L|293:74,2,120,2|0|0,3:0|3:2|3:0,0:0:0:0:
253,158,43184,2,0,L|361:157,1,60,0|0,3:2|0:0,0:0:0:0:
148,94,43395,6,0,L|-5:96,1,120,0|0,3:0|3:2,0:0:0:0:
94,32,43712,1,0,3:0:0:0:
289,87,43818,2,0,L|378:90,1,60,0|0,3:0|0:0,0:0:0:0:
167,217,44029,2,0,L|249:214,1,60,0|0,3:0|3:0,0:0:0:0:
31,173,44240,6,0,L|18:8,1,120,2|0,3:0|3:0,0:0:0:0:
379,69,44663,1,0,3:2:0:0:
195,183,44874,6,0,L|347:180,1,120,0|0,3:2|3:0,0:0:0:0:
36,101,45297,2,0,L|127:101,1,60,0|0,3:2|0:0,0:0:0:0:
298,80,45508,2,0,L|301:144,1,60,8|0,0:2|0:0,0:0:0:0:
134,182,45719,2,0,L|220:174,1,60,0|0,3:2|3:0,0:0:0:0:
460,152,45930,6,0,L|283:149,2,120,2|0|0,3:0|3:2|3:0,0:0:0:0:
101,89,46564,2,0,L|201:85,1,60,0|0,3:2|3:0,0:0:0:0:
419,89,46775,6,0,L|252:93,1,120,0|0,3:0|3:0,0:0:0:0:
391,25,47092,1,0,3:0:0:0:
187,175,47198,2,0,L|111:175,1,60,0|0,3:0|0:0,0:0:0:0:
214,107,47409,2,0,L|141:108,1,60,0|0,3:0|0:0,0:0:0:0:
386,170,47620,5,4,0:0:0:0:
218,85,47832,2,0,L|216:5,1,60,0|0,3:2|3:2,0:0:0:0:
419,48,48043,1,8,0:2:0:0:
248,143,48254,2,0,L|350:137,1,60,0|0,3:2|0:0,0:0:0:0:
126,104,48466,5,0,3:2:0:0:
301,79,48677,2,0,L|304:205,1,120,0|8,3:2|0:0,0:0:0:0:
104,236,49099,2,0,L|213:233,1,60,0|0,3:2|3:2,0:0:0:0:
386,222,49311,6,0,L|218:224,1,120,4|0,0:2|3:2,0:0:0:0:
466,152,49733,2,0,L|320:151,1,120,8|0,0:2|3:2,0:0:0:0:
36,148,50156,5,0,3:2:0:0:
335,162,50367,1,0,3:2:0:0:
153,115,50578,1,8,0:2:0:0:
441,113,50789,2,0,L|348:116,1,60,0|0,3:2|0:0,0:0:0:0:
183,198,51001,5,8,0:2:0:0:
263,192,51106,1,0,0:0:0:0:
344,189,51212,1,0,0:0:0:0:
103,208,51318,1,8,0:0:0:0:
183,198,51423,1,0,0:0:0:0:
263,192,51529,1,0,0:0:0:0:
88,209,51635,5,8,0:0:0:0:
20,203,51740,1,0,0:0:0:0:
18,149,51846,1,0,0:0:0:0:
85,145,51951,1,0,0:0:0:0:
255,138,52057,6,0,L|145:138,1,60,8|0,0:0|0:0,0:0:0:0:
365,77,52268,2,0,L|281:75,1,60,8|0,0:0|0:0,0:0:0:0:
477,32,52480,2,0,L|384:31,1,60,8|0,0:0|0:0,0:0:0:0:
135,106,52691,5,8,0:0:0:0:
477,32,52902,5,8,0:0:0:0:
256,192,53113,12,0,53958,0:0:0:0:
82,154,54381,6,0,L|238:148,1,132.00000402832,4|0,0:2|3:2,0:0:0:0:
417,154,54698,1,0,3:2:0:0:
226,117,54804,2,0,L|138:119,1,66.0000020141602,8|0,0:0|0:0,0:0:0:0:
364,63,55015,2,0,L|371:153,1,66.0000020141602,0|0,3:2|0:0,0:0:0:0:
95,233,55226,6,0,L|213:233,1,66.0000020141602,0|0,3:2|0:0,0:0:0:0:
443,190,55437,2,0,L|322:189,1,66.0000020141602,8|0,0:0|0:0,0:0:0:0:
161,142,55649,2,0,L|286:141,1,66.0000020141602,8|0,0:0|0:0,0:0:0:0:
42,54,55860,2,0,L|156:55,1,66.0000020141602,0|0,3:2|0:0,0:0:0:0:
318,86,56071,6,0,L|133:90,1,132.00000402832,0|0,3:2|3:2,0:0:0:0:
402,170,56388,1,0,3:2:0:0:
202,144,56494,2,0,L|204:59,1,66.0000020141602,8|0,0:0|0:0,0:0:0:0:
461,60,56705,2,0,L|342:59,1,66.0000020141602,0|0,3:2|0:0,0:0:0:0:
200,234,56916,6,0,L|298:232,1,66.0000020141602,0|0,3:2|0:0,0:0:0:0:
438,198,57127,2,0,L|321:190,1,66.0000020141602,8|0,0:0|0:0,0:0:0:0:
166,145,57339,2,0,L|273:142,1,66.0000020141602,8|0,0:0|0:0,0:0:0:0:
44,69,57550,2,0,L|135:75,1,66.0000020141602,0|0,3:2|0:0,0:0:0:0:
325,139,57761,6,0,L|155:139,1,132.00000402832,0|0,3:2|3:2,0:0:0:0:
446,83,58078,2,0,L|329:83,2,66.0000020141602,0|8|0,3:2|0:0|0:0,0:0:0:0:
237,205,58395,2,0,L|153:208,1,66.0000020141602,0|0,3:2|0:0,0:0:0:0:
402,117,58606,6,0,L|300:118,1,66.0000020141602,0|0,3:2|0:0,0:0:0:0:
78,93,58818,2,0,L|189:93,1,66.0000020141602,8|0,0:0|0:0,0:0:0:0:
343,177,59029,2,0,L|236:179,1,66.0000020141602,8|0,0:0|0:0,0:0:0:0:
490,94,59240,2,0,L|381:96,1,66.0000020141602,0|0,3:2|0:0,0:0:0:0:
209,227,59451,6,0,L|376:229,1,132.00000402832,0|0,3:2|3:2,0:0:0:0:
142,165,59768,1,0,3:2:0:0:
381,136,59874,2,0,L|478:138,1,66.0000020141602,8|0,0:0|0:0,0:0:0:0:
256,60,60085,2,0,L|141:63,1,66.0000020141602,0|0,3:2|0:0,0:0:0:0:
451,59,60297,6,0,L|296:59,1,132.00000402832,8|8,0:2|0:0,0:0:0:0:
407,148,60613,1,0,0:0:0:0:
175,181,60719,2,0,L|283:185,1,66.0000020141602,4|0,0:0|0:0,0:0:0:0:
20,72,60930,2,0,L|121:73,1,66.0000020141602,0|0,3:2|3:0,0:0:0:0:
306,126,61142,6,0,L|142:127,1,132.00000402832,4|0,0:2|3:0,0:0:0:0:
390,210,61458,1,0,3:2:0:0:
180,124,61564,2,0,L|290:123,1,66.0000020141602,8|0,0:2|0:0,0:0:0:0:
474,73,61775,2,0,L|384:72,1,66.0000020141602,0|0,3:2|0:0,0:0:0:0:
133,76,61987,6,0,L|259:73,1,66.0000020141602,0|0,3:2|0:0,0:0:0:0:
14,15,62198,2,0,L|121:16,1,66.0000020141602,8|0,0:0|0:0,0:0:0:0:
290,115,62409,2,0,L|178:116,1,66.0000020141602,8|0,0:0|0:0,0:0:0:0:
449,78,62620,2,0,L|335:76,1,66.0000020141602,0|0,3:2|3:0,0:0:0:0:
172,237,62832,6,0,L|350:225,1,132.00000402832,0|0,3:2|3:2,0:0:0:0:
79,161,63149,2,0,L|179:158,2,66.0000020141602,0|8|0,3:2|0:0|3:2,0:0:0:0:
290,94,63466,2,0,L|189:97,1,66.0000020141602,0|0,3:2|0:0,0:0:0:0:
447,80,63677,6,0,L|447:161,1,66.0000020141602,0|0,3:2|0:0,0:0:0:0:
269,210,63888,2,0,L|363:205,1,66.0000020141602,8|0,0:2|0:0,0:0:0:0:
157,107,64099,2,0,L|253:105,1,66.0000020141602,8|0,0:2|0:0,0:0:0:0:
29,29,64311,2,0,L|124:32,1,66.0000020141602,0|0,3:0|0:0,0:0:0:0:
306,132,64522,6,0,L|138:128,1,132.00000402832,0|0,3:2|3:0,0:0:0:0:
480,73,64944,1,8,0:0:0:0:
397,67,65050,1,0,0:0:0:0:
480,73,65156,1,0,3:0:0:0:
397,67,65261,1,0,3:0:0:0:
196,251,65367,6,0,L|387:249,1,132.00000402832,0|0,3:0|3:0,0:0:0:0:
32,73,65789,1,8,0:0:0:0:
115,67,65895,1,0,0:0:0:0:
32,73,66001,1,0,3:0:0:0:
115,67,66106,1,0,3:0:0:0:
308,139,66212,5,0,3:0:0:0:
216,94,66318,2,0,L|210:17,2,66.0000020141602,0|0|0,3:0|3:0|3:0,0:0:0:0:
475,89,66635,2,0,L|398:86,1,66.0000020141602,4|0,0:2|3:0,0:0:0:0:
192,37,66846,1,0,3:0:0:0:
115,86,66951,1,0,3:0:0:0:
302,172,67057,5,8,0:2:0:0:
115,86,67163,1,0,3:0:0:0:
192,37,67268,1,0,3:0:0:0:
115,86,67374,1,0,3:0:0:0:
322,98,67480,2,0,L|406:95,1,66.0000020141602,4|0,0:2|3:0,0:0:0:0:
192,65,67691,2,0,L|107:65,1,66.0000020141602,0|0,3:0|3:0,0:0:0:0:
430,154,67902,6,0,L|274:148,1,132.00000402832,4|0,0:2|3:2,0:0:0:0:
92,155,68219,1,0,3:2:0:0:
286,117,68325,2,0,L|374:119,1,66.0000020141602,8|0,0:0|0:0,0:0:0:0:
148,63,68536,2,0,L|141:153,1,66.0000020141602,0|0,3:2|0:0,0:0:0:0:
417,233,68747,6,0,L|299:233,1,66.0000020141602,0|0,3:2|0:0,0:0:0:0:
79,190,68958,2,0,L|200:189,1,66.0000020141602,8|0,0:0|0:0,0:0:0:0:
351,142,69170,2,0,L|226:141,1,66.0000020141602,8|0,0:0|0:0,0:0:0:0:
470,54,69381,2,0,L|356:55,1,66.0000020141602,0|0,3:2|3:0,0:0:0:0:
194,86,69592,6,0,L|379:90,1,132.00000402832,0|0,3:2|3:2,0:0:0:0:
97,172,69909,1,0,3:2:0:0:
296,143,70015,2,0,L|294:58,1,66.0000020141602,8|0,0:0|0:0,0:0:0:0:
42,60,70226,2,0,L|161:59,1,66.0000020141602,0|0,3:2|0:0,0:0:0:0:
312,234,70437,6,0,L|214:232,1,66.0000020141602,0|0,3:2|0:0,0:0:0:0:
74,198,70648,2,0,L|191:190,1,66.0000020141602,8|0,0:0|0:0,0:0:0:0:
346,145,70860,2,0,L|239:142,1,66.0000020141602,8|0,0:0|0:0,0:0:0:0:
468,69,71071,2,0,L|377:75,1,66.0000020141602,0|0,3:2|0:0,0:0:0:0:
187,139,71282,6,0,L|357:139,1,132.00000402832,0|0,3:2|3:2,0:0:0:0:
66,83,71599,2,0,L|183:83,2,66.0000020141602,0|8|0,3:2|0:0|0:0,0:0:0:0:
275,205,71916,2,0,L|359:208,1,66.0000020141602,0|0,3:2|0:0,0:0:0:0:
110,117,72127,6,0,L|212:118,1,66.0000020141602,0|0,3:2|0:0,0:0:0:0:
434,93,72339,2,0,L|323:93,1,66.0000020141602,8|0,0:0|0:0,0:0:0:0:
169,177,72550,2,0,L|276:179,1,66.0000020141602,8|0,0:0|0:0,0:0:0:0:
22,94,72761,2,0,L|131:96,1,66.0000020141602,0|0,3:2|3:0,0:0:0:0:
303,227,72972,6,0,L|136:229,1,132.00000402832,0|0,3:2|3:2,0:0:0:0:
370,165,73289,1,0,3:2:0:0:
131,136,73395,2,0,L|34:138,1,66.0000020141602,8|0,0:0|0:0,0:0:0:0:
256,60,73606,2,0,L|371:63,1,66.0000020141602,0|0,3:2|0:0,0:0:0:0:
61,59,73818,6,0,L|216:59,1,132.00000402832,8|8,0:2|0:0,0:0:0:0:
108,154,74134,1,0,0:0:0:0:
337,181,74240,2,0,L|229:185,1,66.0000020141602,4|0,0:0|0:0,0:0:0:0:
492,72,74451,2,0,L|391:73,1,66.0000020141602,0|0,3:2|3:0,0:0:0:0:
206,126,74663,6,0,L|370:127,1,132.00000402832,0|0,3:2|3:2,0:0:0:0:
133,212,74979,1,0,3:2:0:0:
332,124,75085,2,0,L|222:123,1,66.0000020141602,8|0,0:0|0:0,0:0:0:0:
55,73,75296,2,0,L|145:72,1,66.0000020141602,0|0,3:2|0:0,0:0:0:0:
379,76,75508,6,0,L|253:73,1,66.0000020141602,0|0,3:2|0:0,0:0:0:0:
498,15,75719,2,0,L|391:16,1,66.0000020141602,8|0,0:0|0:0,0:0:0:0:
222,115,75930,2,0,L|334:116,1,66.0000020141602,8|0,0:0|0:0,0:0:0:0:
63,78,76141,2,0,L|177:76,1,66.0000020141602,0|0,3:2|3:0,0:0:0:0:
340,237,76353,6,0,L|162:225,1,132.00000402832,0|0,3:2|3:2,0:0:0:0:
436,163,76670,2,0,L|336:160,2,66.0000020141602,0|8|0,3:2|0:0|3:2,0:0:0:0:
222,94,76987,2,0,L|323:97,1,66.0000020141602,0|0,3:2|0:0,0:0:0:0:
59,80,77198,6,0,L|59:161,1,66.0000020141602,0|0,3:2|0:0,0:0:0:0:
240,212,77409,2,0,L|146:207,1,66.0000020141602,8|0,0:2|0:0,0:0:0:0:
365,95,77620,2,0,L|269:93,1,66.0000020141602,8|0,0:2|0:0,0:0:0:0:
498,28,77832,2,0,L|403:31,1,66.0000020141602,0|0,3:0|3:0,0:0:0:0:
206,132,78043,6,0,L|374:128,1,132.00000402832,0|0,3:2|3:0,0:0:0:0:
32,73,78465,1,8,0:0:0:0:
115,67,78571,1,0,0:0:0:0:
32,73,78677,1,0,3:0:0:0:
115,67,78782,1,0,3:0:0:0:
316,251,78888,6,0,L|125:249,1,132.00000402832,0|0,3:0|3:0,0:0:0:0:
480,73,79310,1,8,0:0:0:0:
397,67,79416,1,0,0:0:0:0:
480,73,79522,1,0,3:0:0:0:
397,67,79627,1,0,3:0:0:0:
114,63,79733,5,8,0:2:0:0:
397,67,79944,1,8,0:2:0:0:
114,63,80156,1,0,3:2:0:0:
239,59,80297,1,0,3:2:0:0:
114,63,80437,1,0,3:2:0:0:
364,63,80578,5,0,3:2:0:0:
239,59,80719,1,0,3:2:0:0:
364,63,80859,1,0,3:2:0:0:
114,63,81001,1,0,3:2:0:0:
239,59,81142,1,0,3:2:0:0:
364,63,81282,1,0,3:2:0:0:
114,252,81423,6,0,P|54:227|121:163,1,180,4|0,0:0|3:0,0:0:0:0:
328,161,81846,2,0,L|411:163,1,60,8|0,0:0|0:0,0:0:0:0:
179,236,82057,2,0,L|274:236,1,60,8|0,0:0|0:0,0:0:0:0:
414,237,82268,5,0,3:0:0:0:
325,175,82374,2,0,L|321:95,2,60,0|0|0,3:0|3:0|3:0,0:0:0:0:
497,103,82691,2,0,L|421:106,1,60,8|0,0:0|0:0,0:0:0:0:
249,120,82902,2,0,L|181:122,1,60,0|0,3:0|3:0,0:0:0:0:
380,83,83113,6,0,L|380:232,1,120,4|0,0:0|3:0,0:0:0:0:
291,228,83430,1,0,3:0:0:0:
475,152,83536,2,0,L|411:152,1,60,0|0,3:0|0:0,0:0:0:0:
216,134,83747,2,0,L|293:133,1,60,8|0,0:0|0:0,0:0:0:0:
86,77,83958,5,0,3:0:0:0:
168,81,84063,1,0,3:0:0:0:
86,77,84170,2,0,L|81:2,1,60,0|0,3:0|3:0,0:0:0:0:
281,89,84381,2,0,L|199:88,1,60,8|0,0:0|3:0,0:0:0:0:
421,39,84592,2,0,L|320:36,1,60,0|0,3:0|3:0,0:0:0:0:
172,169,84804,6,0,P|114:205|172:299,1,180,4|0,0:0|3:0,0:0:0:0:
362,276,85226,2,0,L|453:274,1,60,8|0,0:0|0:0,0:0:0:0:
238,205,85437,2,0,L|330:203,1,60,8|0,0:0|0:0,0:0:0:0:
123,161,85649,5,0,3:0:0:0:
200,120,85754,2,0,L|208:54,2,60,0|0|0,3:0|3:0|3:0,0:0:0:0:
22,47,86071,2,0,L|115:46,1,60,8|0,0:0|0:0,0:0:0:0:
276,55,86282,2,0,L|165:58,1,60,0|0,3:0|3:0,0:0:0:0:
417,145,86494,5,8,0:0:0:0:
112,143,86705,1,8,0:0:0:0:
417,145,86916,1,8,0:0:0:0:
237,140,87022,1,8,0:0:0:0:
417,145,87127,1,8,0:0:0:0:
237,140,87233,5,8,0:0:0:0:
