osu file format v14

[General]
AudioFilename: audio.mp3
AudioLeadIn: 0
PreviewTime: 53078
Countdown: 0
SampleSet: Soft
StackLeniency: 0.7
Mode: 2
LetterboxInBreaks: 0
WidescreenStoryboard: 1

[Editor]
Bookmarks: 17198,33149,54381,71599
DistanceSpacing: 1.3
BeatDivisor: 4
GridSize: 4
TimelineZoom: 2.799999

[Metadata]
Title:Kaze no Uta (TV Size)
TitleUnicode:風ノ唄 (TV Size)
Artist:FLOW
ArtistUnicode:FLOW
Creator:Secre
Version:Salad
Source:テイルズ オブ ゼスティリア ザ クロス
Tags:chickenbible blackbn blackbq greaper Tales of Zestiria the X opening anime shanipika male vocal japanese pop jpop j-pop jrock j-rock rock op KOHSHI Asakawa Koshi TAKE Takeshi 浅川岳史 浅川甲史 KEIGO Hayashi 林圭吾 GOT'S Gotou Koutarou 後藤康太郎 IWASAKI Hiroshi 岩崎博詞 BURN
BeatmapID:3925089
BeatmapSetID:1820815

[Difficulty]
HPDrainRate:3
CircleSize:3
OverallDifficulty:7
ApproachRate:7
SliderMultiplier:1.69
SliderTickRate:1

[Events]
//Background and Video events
0,0,"hololive mmorpg waiting room.png",0,0
//Break Periods
//Storyboard Layer 0 (Background)
//Storyboard Layer 1 (Fail)
//Storyboard Layer 2 (Pass)
//Storyboard Layer 3 (Foreground)
//Storyboard Layer 4 (Overlay)
//Storyboard Sound Samples

[TimingPoints]
297,422.535211267606,4,2,1,37,1,0
719,-100,4,2,1,37,0,0
3677,-100,4,2,1,43,0,0
15508,-100,4,2,1,43,0,0
17198,-100,4,2,1,37,0,0
23747,-100,4,2,1,40,0,0
27339,-100,4,2,1,40,0,0
33888,-100,4,2,1,43,0,0
47620,-100,4,2,1,45,0,0
54381,-100,4,2,1,65,0,1
81423,-100,4,2,1,55,0,0

[Colours]
Combo1 : 247,141,138
Combo2 : 242,167,98
Combo3 : 159,234,174
Combo4 : 176,216,249

[HitObjects]
331,236,297,6,0,P|390:208|316:157,1,169,0|2,0:0|0:0,0:0:0:0:
210,126,1036,1,2,0:0:0:0:
334,68,1353,1,2,0:0:0:0:
210,126,1670,1,2,0:0:0:0:
85,141,1987,6,0,L|85:40,1,84.5,2|0,0:0|0:0,0:0:0:0:
177,27,2409,2,0,P|250:23|318:190,1,253.5,2|2,0:0|0:0,0:0:0:0:
238,185,3254,2,0,L|164:188,2,42.25,2|2|2,0:0|0:0|3:0,0:0:0:0:
423,206,3677,6,0,P|470:184|401:114,1,169,4|0,0:0|3:0,0:0:0:0:
331,102,4311,1,2,3:0:0:0:
242,117,4522,2,0,L|242:300,1,169,2|0,3:0|3:0,0:0:0:0:
415,277,5367,6,0,L|210:281,1,169,2|0,3:0|3:0,0:0:0:0:
334,201,6001,1,0,3:0:0:0:
249,147,6212,2,0,L|153:145,1,84.5,2|0,0:0|3:0,0:0:0:0:
249,147,6635,2,0,L|361:146,1,84.5,2|0,0:0|3:0,0:0:0:0:
147,266,7057,6,0,P|92:242|164:183,1,169,2|0,3:0|3:0,0:0:0:0:
229,149,7691,1,2,3:0:0:0:
314,151,7902,2,0,L|316:343,1,169,2|0,3:0|3:0,0:0:0:0:
147,263,8747,6,0,L|343:262,1,169,2|2,3:0|3:0,0:0:0:0:
235,190,9381,1,2,3:0:0:0:
151,152,9592,2,0,L|340:151,1,169,2|0,3:0|3:0,0:0:0:0:
58,250,10437,6,0,P|56:201|180:146,1,169,2|0,3:0|3:0,0:0:0:0:
230,129,11071,1,2,3:0:0:0:
315,129,11282,2,0,L|318:323,1,169,2|0,3:0|3:0,0:0:0:0:
143,258,12127,6,0,L|332:257,1,169,2|0,3:0|3:0,0:0:0:0:
226,194,12761,1,0,3:0:0:0:
144,131,12973,2,0,L|143:27,1,84.5,2|0,3:0|3:0,0:0:0:0:
230,28,13395,2,0,L|341:27,1,84.5,2|0,3:0|3:0,0:0:0:0:
131,210,13818,6,0,P|75:189|145:141,1,169,2|0,3:0|3:0,0:0:0:0:
219,121,14451,1,0,3:0:0:0:
305,116,14663,2,0,L|305:318,1,169,0|0,3:0|3:0,0:0:0:0:
219,289,15297,1,0,3:0:0:0:
394,202,15508,5,2,3:0:0:0:
256,192,15825,12,0,16775,0:0:0:0:
279,156,17198,6,0,P|355:162|357:266,1,169,2|2,3:2|3:2,0:0:0:0:
290,258,17832,2,0,L|117:255,1,169,2|2,3:2|3:0,0:0:0:0:
295,179,18677,1,0,3:2:0:0:
384,179,18888,6,0,L|392:-2,1,169,2|2,3:2|3:2,0:0:0:0:
305,17,19522,2,0,P|246:15|230:114,1,169,2|2,3:2|3:0,0:0:0:0:
315,116,20156,2,0,L|321:9,1,84.5,2|0,3:0|3:2,0:0:0:0:
234,39,20578,6,0,L|46:45,1,169,2|2,3:2|3:2,0:0:0:0:
161,120,21212,2,0,L|161:19,1,84.5,2|0,3:2|3:0,0:0:0:0:
71,65,21635,1,2,3:2:0:0:
242,35,22057,1,0,3:2:0:0:
336,52,22268,6,0,P|376:64|312:134,1,169,2|2,3:0|3:0,0:0:0:0:
247,178,22902,2,0,P|198:155|259:89,1,169,2|2,3:0|3:0,0:0:0:0:
347,78,23536,1,2,3:0:0:0:
347,78,23747,1,0,3:2:0:0:
170,166,23958,5,2,3:2:0:0:
86,121,24170,1,0,3:2:0:0:
84,78,24275,1,0,3:2:0:0:
82,36,24381,1,2,3:2:0:0:
168,30,24592,1,2,3:2:0:0:
257,32,24804,1,0,3:2:0:0:
342,37,25015,2,0,P|392:47|321:98,1,169,2|0,3:2|3:0,0:0:0:0:
179,213,25649,6,0,L|179:120,1,84.5,2|2,3:0|3:0,0:0:0:0:
266,113,26071,1,2,3:0:0:0:
89,44,26494,1,2,3:0:0:0:
13,82,26705,1,2,3:0:0:0:
13,82,26916,1,2,3:0:0:0:
89,44,27127,1,0,3:2:0:0:
285,184,27339,6,0,L|458:178,1,169,2|2,3:2|3:2,0:0:0:0:
379,117,27973,2,0,P|320:97|382:39,1,169,2|2,3:2|3:0,0:0:0:0:
460,27,28606,2,0,L|464:127,1,84.5,8|0,0:0|3:2,0:0:0:0:
281,210,29029,6,0,L|91:200,1,169,2|2,3:2|3:2,0:0:0:0:
208,121,29663,2,0,P|262:136|198:198,1,169,2|2,3:2|3:0,0:0:0:0:
127,212,30297,1,2,3:0:0:0:
417,29,30719,6,0,L|418:132,1,84.5,2|0,3:2|3:0,0:0:0:0:
324,104,31142,2,0,L|216:105,1,84.5,2|0,3:2|3:2,0:0:0:0:
324,104,31564,2,0,L|327:204,1,84.5,2|0,3:0|3:2,0:0:0:0:
236,224,31987,2,0,L|136:222,1,84.5,8|0,0:0|3:2,0:0:0:0:
331,238,32409,6,0,P|379:221|313:145,1,169,2|2,3:0|3:0,0:0:0:0:
246,140,33043,2,0,P|192:118|254:45,1,169,2|2,3:0|3:0,0:0:0:0:
330,31,33677,2,0,L|331:136,1,84.5,2|0,3:0|3:2,0:0:0:0:
158,201,34099,6,0,P|110:179|174:107,1,169,2|2,3:2|3:2,0:0:0:0:
247,98,34733,2,0,L|423:96,1,169,2|2,3:2|3:0,0:0:0:0:
327,169,35367,1,8,0:0:0:0:
240,132,35578,1,0,3:2:0:0:
240,89,35683,1,0,3:2:0:0:
240,47,35789,5,2,3:2:0:0:
327,42,36001,1,0,3:2:0:0:
414,29,36212,1,0,3:2:0:0:
327,42,36423,2,0,L|266:48,2,42.25,0|0|2,3:2|3:2|3:2,0:0:0:0:
414,29,36846,1,0,3:0:0:0:
496,29,37057,2,0,L|497:141,1,84.5,2|0,3:0|3:2,0:0:0:0:
321,159,37480,6,0,L|137:155,1,169,2|2,3:0|3:0,0:0:0:0:
238,97,38113,2,0,L|239:0,1,84.5,2|0,3:0|3:0,0:0:0:0:
148,31,38536,1,2,3:0:0:0:
108,39,38641,1,0,3:0:0:0:
89,75,38747,1,8,0:0:0:0:
105,113,38852,1,0,3:0:0:0:
145,124,38958,1,0,3:0:0:0:
329,163,39170,6,0,L|330:-8,1,169,2|0,3:0|3:2,0:0:0:0:
161,71,40015,2,0,L|351:71,1,169,0|2,3:2|3:2,0:0:0:0:
47,223,40860,6,0,P|4:201|75:132,1,169,4|0,0:2|3:2,0:0:0:0:
144,117,41494,2,0,L|264:112,1,84.5,0|0,3:2|3:0,0:0:0:0:
316,115,41916,2,0,L|320:217,1,84.5,0|8,3:2|0:0,0:0:0:0:
218,238,42339,6,0,P|171:217|228:147,1,169,0|0,3:2|3:2,0:0:0:0:
403,133,43184,2,0,L|404:254,1,84.5,0|0,3:2|3:0,0:0:0:0:
226,227,43606,2,0,P|167:256|230:310,1,169,0|0,3:2|3:0,0:0:0:0:
304,323,44240,6,0,L|304:218,1,84.5,2|0,3:0|3:0,0:0:0:0:
213,193,44663,1,0,3:2:0:0:
124,153,44874,2,0,L|118:52,1,84.5,0|0,3:2|3:0,0:0:0:0:
213,37,45297,2,0,L|328:31,1,84.5,0|8,3:2|0:2,0:0:0:0:
213,37,45719,6,0,L|38:38,1,169,0|0,3:2|3:2,0:0:0:0:
321,75,46564,2,0,P|400:81|426:189,1,169,0|0,3:2|3:0,0:0:0:0:
346,186,47198,2,0,L|245:179,1,84.5,0|0,3:0|3:0,0:0:0:0:
449,93,47620,5,4,0:0:0:0:
459,98,47832,1,0,3:2:0:0:
460,55,47937,1,0,3:2:0:0:
461,13,48043,1,8,0:2:0:0:
374,24,48254,1,0,3:2:0:0:
283,34,48466,2,0,L|278:141,1,84.5,0|0,3:2|3:2,0:0:0:0:
466,141,49099,1,0,3:2:0:0:
469,98,49204,1,0,3:2:0:0:
473,56,49310,5,4,0:2:0:0:
377,43,49522,2,0,L|281:47,2,84.5,0|8|0,3:2|0:2|3:2,0:0:0:0:
292,46,50156,2,0,L|194:48,1,84.5,0|0,3:2|3:2,0:0:0:0:
292,46,50578,2,0,L|390:45,1,84.5,8|0,0:2|3:2,0:0:0:0:
194,154,51001,6,0,L|34:152,2,126.75,8|8|8,0:2|0:0|0:0,0:0:0:0:
360,110,52057,2,0,L|474:109,2,84.5,8|8|8,0:0|0:0|0:0,0:0:0:0:
183,196,52691,6,0,L|182:88,1,84.5,8|8,0:0|0:0,0:0:0:0:
256,192,53219,12,0,53958,0:0:0:0:
196,138,54381,5,4,0:2:0:0:
111,74,54592,2,0,L|106:-2,1,42.25,0|0,3:2|3:2,0:0:0:0:
225,25,55015,1,0,3:2:0:0:
407,37,55226,2,0,L|409:156,2,84.5,0|8|8,3:2|0:0|0:0,0:0:0:0:
321,139,55860,1,0,3:2:0:0:
146,85,56071,5,0,3:2:0:0:
122,33,56282,2,0,L|189:25,1,42.25,0|0,3:2|3:2,0:0:0:0:
282,29,56705,1,0,3:2:0:0:
107,185,56916,2,0,L|103:77,2,84.5,0|8|8,3:2|0:0|0:0,0:0:0:0:
198,193,57550,1,0,3:2:0:0:
387,202,57761,6,0,L|394:78,1,84.5,0|0,3:2|3:2,0:0:0:0:
341,87,58078,1,0,3:2:0:0:
216,71,58395,1,0,3:2:0:0:
41,147,58606,2,0,L|36:42,2,84.5,0|8|8,3:2|0:0|0:0,0:0:0:0:
129,136,59240,1,0,3:2:0:0:
317,157,59451,6,0,L|322:39,1,84.5,0|0,3:2|3:2,0:0:0:0:
274,50,59768,1,0,3:2:0:0:
157,43,60085,1,0,3:2:0:0:
351,65,60297,2,0,L|354:169,1,84.5,8|8,0:2|0:0,0:0:0:0:
252,195,60719,2,0,L|152:193,1,84.5,4|0,0:0|3:2,0:0:0:0:
346,230,61142,5,4,0:2:0:0:
470,150,61458,2,0,L|475:75,1,42.25,0|8,3:2|0:2,0:0:0:0:
386,56,61775,1,0,3:2:0:0:
208,172,61987,2,0,L|205:69,2,84.5,0|8|8,3:2|0:0|0:0,0:0:0:0:
291,166,62620,1,0,3:2:0:0:
470,173,62832,6,0,L|475:65,1,84.5,0|0,3:2|3:2,0:0:0:0:
429,61,63149,1,0,3:2:0:0:
304,59,63466,1,0,3:2:0:0:
214,73,63677,2,0,L|213:174,1,84.5,0|8,3:2|0:2,0:0:0:0:
301,170,64099,2,0,L|392:170,1,84.5,8|0,0:2|3:0,0:0:0:0:
201,193,64522,6,0,L|16:182,1,169,0|8,3:2|0:0,0:0:0:0:
125,122,65156,1,0,3:0:0:0:
214,120,65367,2,0,L|401:122,1,169,0|8,3:0|0:0,0:0:0:0:
208,135,66212,6,0,L|206:35,1,84.5,0|0,3:0|3:0,0:0:0:0:
383,41,66635,2,0,L|490:37,1,84.5,4|0,0:2|3:0,0:0:0:0:
383,41,67057,2,0,L|276:48,1,84.5,8|0,0:2|3:0,0:0:0:0:
383,41,67480,2,0,L|387:138,1,84.5,4|0,0:2|3:0,0:0:0:0:
211,175,67902,5,4,0:2:0:0:
131,111,68113,2,0,L|129:39,1,42.25,0|0,3:2|3:2,0:0:0:0:
251,34,68536,1,0,3:2:0:0:
70,216,68747,2,0,L|68:110,2,84.5,0|8|8,3:2|0:0|0:0,0:0:0:0:
161,222,69381,1,0,3:2:0:0:
336,176,69592,5,0,3:2:0:0:
422,160,69804,2,0,L|429:81,1,42.25,0|0,3:2|3:2,0:0:0:0:
302,53,70226,1,0,3:2:0:0:
123,182,70437,2,0,L|122:80,2,84.5,0|8|8,3:2|0:0|0:0,0:0:0:0:
212,193,71071,1,0,3:2:0:0:
390,192,71282,6,0,L|394:102,1,84.5,0|0,3:2|3:2,0:0:0:0:
346,79,71599,1,0,3:2:0:0:
216,78,71916,1,0,3:2:0:0:
393,86,72127,2,0,L|398:193,2,84.5,0|8|8,3:2|0:0|0:0,0:0:0:0:
304,197,72761,1,0,3:2:0:0:
126,134,72973,6,0,L|124:31,1,84.5,0|0,3:2|3:2,0:0:0:0:
172,17,73289,1,0,3:2:0:0:
300,29,73606,1,0,3:2:0:0:
123,160,73818,2,0,L|122:66,1,84.5,8|8,0:2|0:0,0:0:0:0:
214,47,74240,2,0,L|320:44,1,84.5,4|0,0:0|3:2,0:0:0:0:
115,207,74663,6,0,P|66:192|136:137,1,169,0|8,3:2|0:0,0:0:0:0:
201,117,75297,1,0,3:2:0:0:
287,115,75508,2,0,L|288:218,1,84.5,0|8,3:2|0:0,0:0:0:0:
201,117,75930,2,0,L|196:15,1,84.5,8|0,0:0|3:2,0:0:0:0:
372,24,76353,5,0,3:2:0:0:
456,28,76564,2,0,L|458:98,1,42.25,0|0,3:2|3:2,0:0:0:0:
335,122,76987,1,0,3:2:0:0:
245,127,77198,2,0,L|243:27,1,84.5,0|8,3:2|0:2,0:0:0:0:
419,78,77620,2,0,L|421:-17,1,84.5,8|0,0:2|3:0,0:0:0:0:
232,119,78043,6,0,L|53:118,1,169,0|8,3:2|0:0,0:0:0:0:
156,190,78677,1,0,3:0:0:0:
241,197,78888,2,0,P|304:168|241:115,1,169,0|8,3:0|0:0,0:0:0:0:
167,97,79522,1,0,3:0:0:0:
349,96,79733,6,0,L|459:93,1,84.5,8|8,0:2|0:2,0:0:0:0:
256,192,80261,12,0,81001,0:0:0:0:
193,238,81423,6,0,P|146:213|214:141,1,169,4|8,0:0|0:0,0:0:0:0:
286,121,82057,2,0,P|346:123|375:229,1,169,8|0,0:0|3:0,0:0:0:0:
296,222,82691,2,0,L|181:218,1,84.5,8|0,0:0|3:0,0:0:0:0:
296,222,83113,6,0,P|350:195|279:138,1,169,4|0,0:0|3:0,0:0:0:0:
213,135,83747,1,8,0:0:0:0:
387,122,83958,2,0,L|386:236,1,84.5,0|0,3:0|3:0,0:0:0:0:
296,247,84381,2,0,L|189:239,1,84.5,8|0,0:0|3:0,0:0:0:0:
388,288,84804,6,0,P|443:265|377:199,1,169,4|8,0:0|0:0,0:0:0:0:
301,189,85437,2,0,P|238:186|212:291,1,169,8|0,0:0|3:0,0:0:0:0:
284,288,86071,2,0,L|388:284,1,84.5,8|0,0:0|3:0,0:0:0:0:
190,173,86494,6,0,L|92:173,1,84.5,8|8,0:0|0:0,0:0:0:0:
190,173,86916,1,8,0:0:0:0:
233,161,87021,1,8,0:0:0:0:
233,118,87127,1,8,0:0:0:0:
191,105,87232,5,8,0:0:0:0:
