osu file format v14

[General]
AudioFilename: audio.mp3
AudioLeadIn: 0
PreviewTime: 53078
Countdown: 0
SampleSet: Soft
StackLeniency: 0.7
Mode: 2
LetterboxInBreaks: 0
WidescreenStoryboard: 1

[Editor]
Bookmarks: 17198,33149,54381,71599
DistanceSpacing: 1.3
BeatDivisor: 4
GridSize: 4
TimelineZoom: 2.799999

[Metadata]
Title:Kaze no Uta (TV Size)
TitleUnicode:風ノ唄 (TV Size)
Artist:FLOW
ArtistUnicode:FLOW
Creator:Secre
Version:Platter
Source:テイルズ オブ ゼスティリア ザ クロス
Tags:chickenbible blackbn blackbq greaper Tales of Zestiria the X opening anime shanipika male vocal japanese pop jpop j-pop jrock j-rock rock op KOHSHI Asakawa Koshi TAKE Takeshi 浅川岳史 浅川甲史 KEIGO Hayashi 林圭吾 GOT'S Gotou Koutarou 後藤康太郎 IWASAKI Hiroshi 岩崎博詞 BURN
BeatmapID:3922874
BeatmapSetID:1820815

[Difficulty]
HPDrainRate:4
CircleSize:3.5
OverallDifficulty:8
ApproachRate:8
SliderMultiplier:1.81
SliderTickRate:2

[Events]
//Background and Video events
0,0,"hololive mmorpg waiting room.png",0,0
//Break Periods
//Storyboard Layer 0 (Background)
//Storyboard Layer 1 (Fail)
//Storyboard Layer 2 (Pass)
//Storyboard Layer 3 (Foreground)
//Storyboard Layer 4 (Overlay)
//Storyboard Sound Samples

[TimingPoints]
297,422.535211267606,4,2,1,37,1,0
719,-100,4,2,1,37,0,0
3677,-100,4,2,1,43,0,0
15508,-100,4,2,1,43,0,0
17198,-100,4,2,1,37,0,0
23747,-100,4,2,1,40,0,0
27339,-100,4,2,1,40,0,0
33888,-100,4,2,1,43,0,0
47620,-100,4,2,1,45,0,0
54381,-100,4,2,1,65,0,1
81423,-100,4,2,1,55,0,0

[Colours]
Combo1 : 247,141,138
Combo2 : 242,167,98
Combo3 : 159,234,174
Combo4 : 176,216,249

[HitObjects]
386,232,297,6,0,L|390:127,1,90.5
301,123,719,2,0,L|124:133,2,135.75,2|2|2,0:0|0:0|0:0,0:0:0:0:
399,106,1564,2,0,L|401:232,1,90.5
309,224,1987,6,0,L|189:224,1,90.5,2|0,0:0|0:0,0:0:0:0:
309,224,2409,1,2,0:0:0:0:
351,234,2514,1,0,0:0:0:0:
391,215,2620,1,0,0:0:0:0:
409,174,2725,1,2,0:0:0:0:
396,132,2831,1,0,0:0:0:0:
358,108,2937,1,0,0:0:0:0:
314,114,3042,1,2,0:0:0:0:
124,232,3254,5,2,0:0:0:0:
78,230,3359,1,2,0:0:0:0:
78,230,3466,1,2,3:0:0:0:
385,129,3677,2,0,P|439:147|360:210,1,181,4|0,0:0|3:0,0:0:0:0:
300,235,4311,1,2,3:0:0:0:
112,196,4522,2,0,L|107:0,1,181,2|0,3:0|3:0,0:0:0:0:
401,110,5367,6,0,L|211:111,1,181,2|0,3:0|3:0,0:0:0:0:
220,110,6001,1,0,3:0:0:0:
406,102,6212,2,0,L|411:211,1,90.5,2|0,0:0|3:0,0:0:0:0:
225,223,6635,2,0,L|106:220,1,90.5,2|0,0:0|3:0,0:0:0:0:
410,287,7057,6,0,P|472:261|400:211,1,181,2|0,3:0|3:0,0:0:0:0:
319,206,7691,1,2,3:0:0:0:
131,155,7902,2,0,P|71:156|45:274,1,181,2|0,3:0|3:0,0:0:0:0:
346,255,8747,6,0,L|161:257,1,181,2|2,3:0|3:0,0:0:0:0:
255,193,9381,1,2,3:0:0:0:
347,192,9592,2,0,L|128:190,1,181,2|0,3:0|3:0,0:0:0:0:
255,130,10226,1,0,3:0:0:0:
73,222,10437,6,0,P|26:201|95:124,1,181,2|0,3:0|3:0,0:0:0:0:
173,112,11071,1,2,3:0:0:0:
355,115,11282,2,0,L|360:316,1,181,2|0,3:0|3:0,0:0:0:0:
45,214,12127,6,0,L|267:206,1,181,2|0,3:0|3:0,0:0:0:0:
225,207,12761,1,0,3:0:0:0:
54,207,12973,2,0,L|46:90,1,90.5,2|0,3:0|3:0,0:0:0:0:
228,83,13395,2,0,L|356:82,1,90.5,2|0,3:0|3:0,0:0:0:0:
35,275,13818,6,0,P|-21:242|39:171,1,181,2|0,3:0|3:0,0:0:0:0:
142,147,14451,1,0,3:0:0:0:
237,145,14663,2,0,L|241:260,1,90.5,0|0,3:0|3:0,0:0:0:0:
142,147,15085,2,0,L|139:45,1,90.5,0|0,3:0|3:0,0:0:0:0:
418,81,15508,5,2,3:0:0:0:
256,192,15719,12,0,16775,0:0:0:0:
136,183,17198,6,0,L|339:162,1,181,2|2,3:2|3:2,0:0:0:0:
225,219,17832,2,0,P|175:193|244:116,1,181,2|2,3:2|3:0,0:0:0:0:
320,103,18466,2,0,L|324:214,1,90.5,2|0,3:0|3:2,0:0:0:0:
131,225,18888,6,0,P|71:225|36:335,1,181,2|2,3:2|3:2,0:0:0:0:
123,331,19522,2,0,L|332:324,1,181,2|2,3:2|3:0,0:0:0:0:
305,249,20156,1,2,3:0:0:0:
215,238,20367,1,0,3:2:0:0:
401,194,20578,6,0,P|456:217|380:288,1,181,2|2,3:2|3:2,0:0:0:0:
312,276,21212,2,0,L|311:175,1,90.5,2|0,3:2|3:0,0:0:0:0:
403,163,21635,2,0,L|404:42,1,90.5,2|2,3:2|3:0,0:0:0:0:
307,56,22057,1,0,3:2:0:0:
108,69,22268,6,0,P|56:95|120:175,1,181,2|2,3:0|3:0,0:0:0:0:
206,180,22902,2,0,P|268:182|304:291,1,181,2|2,3:0|3:0,0:0:0:0:
222,285,23536,1,2,3:0:0:0:
222,285,23747,2,0,L|311:281,1,45.25,0|0,3:2|3:2,0:0:0:0:
374,268,23958,5,2,3:2:0:0:
399,209,24170,1,0,3:2:0:0:
354,199,24275,1,0,3:2:0:0:
310,189,24381,1,2,3:2:0:0:
233,122,24592,1,2,3:2:0:0:
310,70,24804,1,0,3:2:0:0:
119,75,25015,2,0,P|65:74|23:202,1,181,2|0,3:2|3:0,0:0:0:0:
291,201,25649,6,0,L|411:194,1,90.5,2|2,3:0|3:0,0:0:0:0:
291,201,26071,2,0,L|411:194,1,90.5,2|2,3:0|3:0,0:0:0:0:
197,213,26494,2,0,L|77:206,1,90.5,2|2,3:0|3:0,0:0:0:0:
197,213,26916,2,0,L|77:206,1,90.5,2|0,3:0|3:2,0:0:0:0:
384,184,27339,6,0,P|440:201|379:274,1,181,2|2,3:2|3:2,0:0:0:0:
292,259,27973,2,0,P|231:235|304:161,1,181,2|2,3:2|3:0,0:0:0:0:
465,157,28606,2,0,L|465:47,1,90.5,8|0,0:0|3:2,0:0:0:0:
276,65,29029,6,0,L|71:69,1,181,2|2,3:2|3:2,0:0:0:0:
188,123,29663,2,0,P|245:123|283:230,1,181,2|2,3:2|3:0,0:0:0:0:
191,227,30297,2,0,L|190:122,1,90.5,2|0,3:0|3:2,0:0:0:0:
380,110,30719,6,0,L|381:219,1,90.5,2|0,3:2|3:0,0:0:0:0:
193,221,31142,2,0,L|79:220,2,90.5,2|0|2,3:2|3:2|3:0,0:0:0:0:
374,202,31775,2,0,L|374:92,1,90.5,0|8,3:2|0:0,0:0:0:0:
282,94,32198,1,0,3:2:0:0:
477,70,32409,6,0,L|482:267,1,181,2|2,3:0|3:0,0:0:0:0:
377,282,33043,2,0,L|173:278,1,181,2|2,3:0|3:0,0:0:0:0:
287,199,33677,1,2,3:0:0:0:
287,199,33888,2,0,L|210:188,1,45.25,0|0,3:2|3:2,0:0:0:0:
128,165,34099,6,0,P|77:147|146:75,1,181,2|2,3:2|3:2,0:0:0:0:
221,59,34733,2,0,L|415:56,1,181,2|2,3:2|3:0,0:0:0:0:
221,59,35367,2,0,L|224:172,1,90.5,8|0,0:0|3:2,0:0:0:0:
274,157,35684,1,0,3:2:0:0:
379,161,35789,6,0,L|377:48,1,90.5,2|0,3:2|3:2,0:0:0:0:
286,61,36212,1,0,3:2:0:0:
202,94,36423,2,0,L|198:183,1,45.25,0|0,3:2|3:2,0:0:0:0:
310,168,36635,2,0,L|485:158,2,135.75,2|0|0,3:2|0:0|3:2,0:0:0:0:
122,229,37480,6,0,P|69:206|134:136,1,181,2|2,3:0|3:0,0:0:0:0:
225,126,38113,2,0,L|426:118,1,181,2|2,3:0|3:0,0:0:0:0:
360,174,38642,1,0,3:0:0:0:
257,190,38747,1,8,0:0:0:0:
216,178,38852,1,0,3:0:0:0:
214,136,38958,1,0,3:0:0:0:
254,121,39063,1,0,3:0:0:0:
363,106,39170,6,0,P|420:108|478:220,1,181,2|0,3:0|3:2,0:0:0:0:
390,207,39804,1,2,3:0:0:0:
205,241,40015,2,0,L|422:228,1,181,0|2,3:2|3:2,0:0:0:0:
299,173,40649,1,0,3:0:0:0:
25,210,40860,6,0,P|25:123|122:92,1,181,4|0,0:2|3:2,0:0:0:0:
201,80,41494,2,0,L|203:197,1,90.5,0|0,3:2|3:0,0:0:0:0:
96,205,41916,2,0,L|91:99,1,90.5,0|8,3:2|0:0,0:0:0:0:
281,76,42339,6,0,L|363:71,2,45.25,0|0|2,3:2|3:0|3:0,0:0:0:0:
186,98,42761,2,0,L|187:223,1,90.5,0|0,3:2|3:0,0:0:0:0:
374,198,43184,2,0,L|495:192,1,90.5,0|0,3:2|3:0,0:0:0:0:
370,99,43606,2,0,P|296:99|274:214,1,181,0|0,3:2|3:0,0:0:0:0:
461,187,44240,6,0,L|464:71,1,90.5,2|0,3:0|3:0,0:0:0:0:
360,69,44663,1,0,3:2:0:0:
163,160,44874,2,0,P|93:162|62:268,1,181,0|0,3:2|3:2,0:0:0:0:
156,271,45508,1,8,0:2:0:0:
342,204,45719,6,0,L|344:102,1,90.5,0|2,3:2|3:0,0:0:0:0:
151,104,46142,2,0,L|148:-7,1,90.5,0|0,3:2|3:0,0:0:0:0:
333,27,46564,2,0,P|416:31|436:139,1,181,0|0,3:2|3:0,0:0:0:0:
363,168,47198,2,0,L|458:166,1,90.5,0|0,3:0|3:0,0:0:0:0:
180,114,47620,5,4,0:0:0:0:
101,57,47832,1,0,3:2:0:0:
145,50,47937,1,0,3:2:0:0:
190,44,48043,1,8,0:2:0:0:
190,44,48254,1,0,3:2:0:0:
12,203,48466,2,0,L|8:96,1,90.5,0|0,3:2|3:2,0:0:0:0:
107,81,48888,1,8,0:0:0:0:
194,75,49099,1,0,3:2:0:0:
149,68,49204,1,0,3:2:0:0:
104,61,49310,5,4,0:2:0:0:
194,75,49522,2,0,L|318:71,2,90.5,0|8|0,3:2|0:2|3:2,0:0:0:0:
381,191,50156,2,0,L|385:79,1,90.5,0|0,3:2|3:2,0:0:0:0:
199,88,50578,2,0,L|74:88,1,90.5,8|0,0:2|3:2,0:0:0:0:
383,76,51001,6,0,P|445:77|465:162,2,135.75,8|8|8,0:2|0:0|0:0,0:0:0:0:
77,162,52057,1,8,0:0:0:0:
164,147,52268,1,8,0:0:0:0:
251,145,52480,1,8,0:0:0:0:
77,162,52691,5,8,0:0:0:0:
251,145,52902,5,8,0:0:0:0:
256,192,53113,12,0,53958,0:0:0:0:
296,159,54381,6,0,L|418:145,1,90.5,4|0,0:2|3:2,0:0:0:0:
385,148,54698,1,0,3:2:0:0:
252,165,55015,1,0,3:2:0:0:
441,100,55226,2,0,L|442:220,2,90.5,0|8|8,3:2|0:0|0:0,0:0:0:0:
330,73,55860,1,0,3:2:0:0:
30,206,56071,6,0,L|29:83,1,90.5,0|0,3:2|3:2,0:0:0:0:
81,80,56388,1,0,3:2:0:0:
208,73,56705,1,0,3:2:0:0:
19,118,56916,2,0,L|19:241,2,90.5,0|8|8,3:2|0:0|0:0,0:0:0:0:
114,90,57550,1,0,3:2:0:0:
392,80,57761,6,0,L|395:181,1,90.5,0|0,3:2|3:2,0:0:0:0:
349,182,58078,1,0,3:2:0:0:
220,144,58395,1,0,3:2:0:0:
26,145,58606,2,0,L|26:29,2,90.5,0|8|8,3:2|0:0|0:0,0:0:0:0:
118,24,59240,1,0,3:2:0:0:
299,54,59451,6,0,L|302:188,1,90.5,0|0,3:2|3:2,0:0:0:0:
239,182,59768,1,0,3:2:0:0:
97,180,60085,1,0,3:2:0:0:
267,126,60297,2,0,L|386:127,1,90.5,8|8,0:2|0:0,0:0:0:0:
41,44,60719,2,0,L|37:172,1,90.5,4|0,0:0|3:2,0:0:0:0:
315,190,61142,6,0,L|410:186,1,90.5,4|0,0:2|3:0,0:0:0:0:
355,127,61458,1,0,3:2:0:0:
304,123,61564,1,8,0:2:0:0:
304,123,61775,1,0,3:2:0:0:
487,206,61987,2,0,L|490:83,2,90.5,0|8|8,3:2|0:0|0:0,0:0:0:0:
391,216,62620,1,0,3:2:0:0:
209,203,62832,6,0,L|209:91,1,90.5,0|0,3:2|3:2,0:0:0:0:
273,112,63149,2,0,L|275:-6,1,90.5,0|0,3:2|3:2,0:0:0:0:
211,5,63466,1,0,3:2:0:0:
108,30,63677,2,0,L|107:142,1,90.5,0|8,3:2|0:2,0:0:0:0:
387,180,64099,2,0,L|492:182,1,90.5,8|0,0:2|3:0,0:0:0:0:
197,113,64522,6,0,P|141:112|91:228,1,181,0|8,3:2|0:0,0:0:0:0:
179,234,65156,1,0,3:0:0:0:
363,144,65367,2,0,L|481:142,1,90.5,0|0,3:0|3:0,0:0:0:0:
363,144,65789,2,0,L|481:142,1,90.5,8|0,0:0|3:0,0:0:0:0:
174,117,66212,5,0,3:0:0:0:
129,126,66317,1,0,3:0:0:0:
129,182,66423,1,0,3:0:0:0:
175,187,66528,1,0,3:0:0:0:
288,154,66635,2,0,L|354:162,2,45.25,4|0|0,0:2|3:0|3:0,0:0:0:0:
9,131,67057,5,8,0:2:0:0:
9,85,67162,1,0,3:0:0:0:
8,40,67268,1,0,3:0:0:0:
294,133,67480,2,0,L|419:138,1,90.5,4|0,0:2|3:0,0:0:0:0:
66,247,67902,6,0,L|66:141,1,90.5,4|0,0:2|3:2,0:0:0:0:
127,148,68219,1,0,3:2:0:0:
260,165,68536,1,0,3:2:0:0:
71,100,68747,2,0,L|70:220,2,90.5,0|8|8,3:2|0:0|0:0,0:0:0:0:
182,73,69381,1,0,3:2:0:0:
482,206,69592,6,0,L|483:83,1,90.5,0|0,3:2|3:2,0:0:0:0:
431,80,69909,1,0,3:2:0:0:
304,73,70226,1,0,3:2:0:0:
493,118,70437,2,0,L|493:241,2,90.5,0|8|8,3:2|0:0|0:0,0:0:0:0:
398,90,71071,1,0,3:2:0:0:
120,80,71282,6,0,L|117:181,1,90.5,0|0,3:2|3:2,0:0:0:0:
163,182,71599,1,0,3:2:0:0:
292,144,71916,1,0,3:2:0:0:
486,145,72127,2,0,L|486:29,2,90.5,0|8|8,3:2|0:0|0:0,0:0:0:0:
394,24,72761,1,0,3:2:0:0:
213,54,72972,6,0,L|210:188,1,90.5,0|0,3:2|3:2,0:0:0:0:
273,182,73289,1,0,3:2:0:0:
415,180,73606,1,0,3:2:0:0:
245,126,73818,2,0,L|126:127,1,90.5,8|8,0:2|0:0,0:0:0:0:
471,44,74240,2,0,L|475:172,1,90.5,4|0,0:0|3:2,0:0:0:0:
197,190,74663,6,0,L|102:186,1,90.5,0|0,3:2|3:2,0:0:0:0:
157,127,74979,1,0,3:2:0:0:
208,123,75085,1,8,0:0:0:0:
208,123,75296,1,0,3:2:0:0:
25,206,75508,2,0,L|22:83,2,90.5,0|8|8,3:2|0:0|0:0,0:0:0:0:
121,216,76141,1,0,3:2:0:0:
303,203,76353,6,0,L|303:91,1,90.5,0|0,3:2|3:2,0:0:0:0:
231,115,76670,2,0,L|229:-3,1,90.5,0|0,3:2|3:2,0:0:0:0:
301,5,76987,1,0,3:2:0:0:
404,30,77198,2,0,L|405:142,1,90.5,0|8,3:2|0:2,0:0:0:0:
125,180,77620,2,0,L|20:182,1,90.5,8|0,0:2|3:0,0:0:0:0:
315,113,78043,6,0,P|371:112|421:228,1,181,0|8,3:2|0:0,0:0:0:0:
333,234,78677,1,0,3:0:0:0:
149,144,78888,2,0,L|31:142,1,90.5,0|0,3:0|3:0,0:0:0:0:
242,171,79310,2,0,L|360:169,1,90.5,8|0,0:0|3:0,0:0:0:0:
50,69,79733,6,0,L|47:198,1,90.5,8|8,0:2|0:2,0:0:0:0:
256,192,80156,12,0,81001,0:0:0:0:
202,252,81423,6,0,P|143:222|211:160,1,181,4|8,0:0|0:0,0:0:0:0:
301,149,82057,2,0,L|304:340,1,181,8|0,0:0|3:0,0:0:0:0:
208,286,82691,2,0,L|203:178,1,90.5,8|0,0:0|3:0,0:0:0:0:
392,240,83113,6,0,P|451:210|383:148,1,181,4|0,0:0|3:0,0:0:0:0:
293,137,83747,1,8,0:0:0:0:
97,211,83958,2,0,L|97:110,1,90.5,0|0,3:0|3:0,0:0:0:0:
289,78,84381,2,0,L|418:77,1,90.5,8|0,0:0|3:0,0:0:0:0:
99,252,84804,6,0,P|49:234|117:157,1,181,4|8,0:0|0:0,0:0:0:0:
193,145,85437,2,0,L|394:140,1,181,8|0,0:0|3:0,0:0:0:0:
268,217,86071,2,0,L|162:216,1,90.5,8|0,0:0|3:0,0:0:0:0:
451,132,86494,6,0,L|454:18,1,90.5,8|8,0:0|0:0,0:0:0:0:
169,64,86916,1,8,0:0:0:0:
121,64,87021,1,8,0:0:0:0:
121,64,87127,1,8,0:0:0:0:
169,64,87232,5,8,0:0:0:0:
